#TITLE:Easter Bunny;
#SUBTITLE:;
#ARTIST:The Idol Formerly Known As LADYBABY;
#TITLETRANSLIT:;
#SUBTITLETRANSLIT:;
#ARTISTTRANSLIT:;
#GENRE:;
#CREDIT:mf32892;
#BANNER:;
#BACKGROUND:[ZIvision Song Contest] - Easter Bunny-jacket.jpg;
#LYRICSPATH:;
#CDTITLE:;
#MUSIC:[ZIvision Song Contest] - Easter Bunny.ogg;
#OFFSET:0.633605;
#SAMPLESTART:111.114998;
#SAMPLELENGTH:12.000000;
#SELECTABLE:YES;
#DISPLAYBPM:160.000000;
#BPMS:0.000000=160.000000
,324.000000=162.000000
,325.000000=160.000000
;
#STOPS:34.000000=0.375000,
73.000000=0.375000,
88.000000=0.375000,
293.000000=0.187000,
293.500000=0.562000,
353.000000=1.500000
;
#BGCHANGES:2.000=[ZIvision Song Contest] - Easter Bunny.mp4=1.000=0=0=1=====,
99999=-nosongbg-=1.000=0=0=0 // don't automatically add -songbackground-
;
#KEYSOUNDS:;
#ATTACKS:;

//---------------dance-single - ----------------
#NOTES:
     dance-single:
     :
     Challenge:
     10:
     0.679627,0.788023,0.701909,0.311960,0.903383,732.000000,624.000000,108.000000,48.000000,6.000000,0.000000,0.679627,0.788023,0.701909,0.311960,0.903383,732.000000,624.000000,108.000000,48.000000,6.000000,0.000000:
0000
0000
0000
0000
,
0000
0000
0000
0000
,
0000
0000
0000
0000
,
0000
0000
0000
0000
,
0000
0110
2002
3003
,
1000
0000
1000
0010
0000
1000
0001
0000
0001
0010
0000
0001
,
0100
0000
0100
0010
0000
0100
0001
0000
0001
0010
0000
0001
,
1000
0000
1000
0100
0000
1000
0010
0000
0010
0100
0000
0010
,
1000
0000
0000
0000
0000
0000
0000
0000
0000
0000
0000
0000
0000
0000
0000
0000
0000
0000
0000
0000
0000
0000
0000
0000
0000
0000
0000
0000
0000
0000
0000
0000
0000
0000
0000
0000
0000
0000
0000
0000
0000
0000
0000
0000
0000
0000
0000
0000
1001
0000
0000
0000
0000
0000
0000
0000
0000
0000
0000
0000
0000
0000
0000
0000
0000
0000
0000
0000
0000
0000
0000
0000
0000
0000
0000
0000
0000
0000
0000
0000
0000
0000
0000
0000
0000
0000
0000
0000
0000
0000
0000
0000
0000
0000
0000
0000
0220
0330
0000
0000
0000
0000
0000
0000
0000
0000
0000
0000
0000
0000
0000
0000
0000
0000
0000
0000
0000
0000
0000
0000
0000
0000
0000
0000
0000
0000
0000
0000
0000
0000
0000
0000
0000
0000
0000
0000
0000
0000
0000
0000
0000
0000
0000
0000
0001
0000
0000
0000
0000
0000
0000
0000
0000
0000
0000
0000
0000
0000
0000
0000
0000
0000
0000
0000
0000
0000
0000
0000
0000
0000
0000
0000
0000
0000
0000
0000
0100
0000
0000
0000
0000
0000
0000
0000
0000
0000
0000
0000
0000
0000
0000
0000
,
0001
0000
0001
0010
0100
1000
0010
0000
0000
1000
0000
1000
,
0100
0010
0001
1000
0000
0000
2010
0000
3100
0010
0000
0000
,
0012
0000
0103
0010
0000
0000
2010
0000
3001
0100
0000
0000
,
0012
0000
1003
0200
0000
0000
1300
0000
0000
0010
0000
0010
,
1000
0000
1000
0001
0010
0100
1000
0000
1000
0010
0000
0010
,
0100
0001
1000
0001
0000
0000
0021
0000
0130
1000
0000
0000
,
1020
0000
0130
0001
0000
0000
0201
0000
0310
1000
0000
0100
,
1000
0000
0001
0010
0000
0100
0010
0100
0010
0001
0000
0001
,
0100
0000
0100
0010
1000
0001
0100
0000
0100
0010
1000
0100
,
0010
0001
0100
0010
0000
0000
1000
0000
1000
0100
0000
0100
,
0010
0001
1000
0100
0000
0010
0001
0000
0000
0101
0000
0000
,
1000
0100
0010
0100
1000
0001
0100
0001
0010
0100
0000
0100
,
1000
0001
0100
0010
0000
0010
1000
0100
0010
0001
0100
0010
,
1000
0000
0000
0001
0010
0100
1000
0000
1000
0001
0100
0010
,
1000
0000
1000
0001
0010
0100
1000
0010
0100
0001
0000
0000
,
1001
1020
0100
0001
,
0130
0000
0010
2000
0000
0000
3001
0000
0010
0100
0000
0000
,
0010
0000
0001
0100
0000
0000
0101
0000
0000
0010
0000
1000
,
0100
0000
0010
0002
0000
0000
1003
0000
0000
1001
0000
0000
,
1001
0021
0100
1000
,
0100
0000
0000
0032
0000
0000
1003
0000
0001
0100
0000
0000
,
0010
0000
1000
0001
0000
0000
1001
0000
0000
0001
0000
0010
,
0100
0000
1000
0001
0001
0100
0100
0001
0100
0010
0000
0000
,
1001
0000
0000
1000
0100
1000
0001
0100
0001
1000
0000
0000
,
1001
0101
0101
1100
,
1100
0000
0000
0101
0000
1000
0100
0000
0010
0100
0010
0100
,
1000
0001
1000
1010
0000
0000
1010
0000
0000
0011
0000
0000
,
0011
0000
0000
1010
0000
0001
0010
0000
0010
0100
0010
0001
,
0100
0010
0100
1000
0000
1000
0100
0000
0100
0001
0000
0001
,
0010
0000
0010
1000
0000
0000
0110
0000
0000
0011
0000
1000
,
0001
0010
0100
1000
0000
0001
0201
0000
0000
0310
0000
1000
,
1200
0000
0000
0310
0000
0001
0101
0000
0000
0110
0100
0010
,
0100
0010
0100
0101
0000
0000
1100
0000
0000
0101
0000
0000
,
1100
0000
0000
0101
0000
1000
0100
0000
0010
0001
0100
0001
,
1000
0010
1000
1010
0000
0000
0011
0000
0000
1010
0000
0000
,
0011
0000
0000
1010
0000
0001
0100
0000
0010
1000
0100
1000
,
0001
0010
0100
0001
0000
0001
0100
0000
0100
1000
0000
1000
,
0010
0000
0010
0001
0000
0000
1100
0000
0001
0010
0100
1000
,
0010
0100
0010
1000
0000
0100
0120
0000
0000
0031
0000
0100
,
0120
0000
0000
1030
0000
0100
0110
0000
0000
1001
0000
0000
,
1001
0000
0000
0001
0010
0001
0010
0100
0010
0100
1000
0100
,
1000
0001
1000
0010
1000
0010
0100
0010
0100
0001
0100
0001
,
1000
0001
1000
0001
0010
0100
0010
0100
1000
0100
1000
0001
,
1000
0001
0100
0010
0000
0000
1010
0000
0000
1001
0000
0000
,
0000
0000
0000
0011
0000
0000
0010
0001
0100
0010
0000
0000
,
0010
1000
0100
0010
0000
0000
0010
0001
0100
0010
0000
1000
,
0010
0000
0001
0010
0000
0000
0100
0001
0010
0100
0000
0000
,
0100
1000
0010
0100
0000
1000
0100
0000
0010
0100
0000
0001
,
0100
0000
0000
0101
0000
0000
0010
1000
0100
0010
0000
0000
,
0010
0001
0100
0010
0000
1000
0010
0000
0001
0010
0000
1000
,
0001
0000
0000
0100
0000
0000
0010
1000
0100
0010
0000
0001
,
0010
0000
1000
0010
0000
0000
0110
0000
0000
1000
0000
0001
,
0000
0000
0001
0200
0000
0000
0000
0000
0000
0000
0000
0000
,
0000
0020
0000
0000
,
0330
2020
3030
0202
,
0303
0000
0000
1000
0100
0010
0001
0100
0010
1000
0000
0000
,
0010
1002
0000
0000
,
0000
0000
0000
0000
,
0000
1003
0100
0020
0000
0000
0000
0000
0000
0000
0000
0000
,
0000
0230
0320
0032
,
2003
3020
0000
0000
,
0130
0000
0001
0200
0000
0000
0310
0000
1000
0001
0000
0010
,
0100
1000
0001
1000
0000
1000
1200
0000
0000
0310
0000
0001
,
0201
0000
0000
0310
0000
1000
1001
0000
0000
0110
0000
0000
,
0110
0000
0001
0001
1100
0000
1010
0000
,
1001
0000
0000
0101
0000
0000
1100
0000
0010
0001
0100
0010
,
1000
0001
0100
0101
0000
0000
1010
0000
0000
1100
0000
0000
,
1001
0000
0000
0101
0000
0000
1100
0000
0010
0001
0100
0010
,
0100
1000
0100
0001
0000
0010
1000
0000
0010
0001
0000
0100
,
1000
0000
0100
0001
0000
0000
1100
0000
0000
0101
0000
0000
,
0001
0010
0100
1000
0000
0001
0201
0000
0000
0310
0000
1000
,
1200
0000
0000
0310
0000
0001
0101
0000
0000
0010
1000
0100
,
0010
0001
0100
0120
0000
0000
1000
0000
0000
0100
0000
0000
,
0001
0000
0000
1030
0000
1000
0100
M0MM
0100
0001
0010
0100
,
0001
0100
0010
0021
0000
0000
1000
0000
0000
0100
0000
0000
,
1000
0000
0000
0031
0000
0001
0100
M0MM
0100
1000
0010
0100
,
1000
0100
0010
0001
0000
0010
1000
0000
0100
0001
0000
0100
,
1000
0000
0010
0100
0000
0001
1000
0000
0100
0010
0000
0000
,
0001
0001
0100
0010
0000
1000
1002
0000
0000
0013
0000
0001
,
1001
0000
0000
0000
0000
0000
0000
0000
0000
0000
0000
0000
0000
0000
0000
0000
0000
0000
0000
0000
0000
0000
0000
0000
0000
0000
0000
0000
0000
0000
0000
0000
0000
0000
0000
0000
0000
0000
0000
0000
0000
0000
0000
0000
0000
0000
0000
0000
0220
0330
0000
0000
0000
0000
0000
0000
0000
0000
0000
0000
0000
0000
0000
0000
0000
0000
0000
0000
0000
0000
0000
0000
0000
0000
0000
0000
0000
0000
0000
0000
0000
0000
0000
0000
0000
0000
0000
0000
0000
0000
0000
0000
0000
0000
0000
0000
0101
0000
0000
0000
0000
0000
0000
0000
0000
0000
0000
0000
0000
0000
0000
0000
0000
0000
0000
0000
0000
0000
0000
0000
0000
0000
0000
0000
0000
0000
0000
0000
0000
0000
0000
0000
0000
0000
0000
0000
0000
0000
0000
0000
0000
0000
0000
0000
1100
0000
0000
0000
0000
0000
0000
0000
0000
0000
0000
0000
0000
0000
0000
0000
0000
0000
0000
0000
0000
0000
0000
0000
0000
0000
0000
0000
0000
0000
0000
0000
0000
0000
0000
0000
0000
0000
0000
0000
0000
0000
0000
0000
0000
0000
0000
0000
,
0101
0000
0000
1100
0000
0010
0001
0100
0001
1000
0100
0010
,
1000
0010
0001
1000
0000
0010
0100
1000
0100
0001
0010
0100
,
0010
0100
0010
0001
0000
0100
0010
1000
0001
0010
0100
0010
,
1000
0010
0001
1000
0000
0000
0110
0000
0000
2002
0000
0000
,
3003
1100
0101
0011
,
0110
0011
1100
1010
,
0101
0011
1100
1010
,
0101
1001
0110
2002
,
3003
0000
0000
0000
;

//---------------dance-single - ----------------
#NOTES:
     dance-single:
     :
     Hard:
     9:
     0.565427,0.661940,0.331457,0.396449,0.714908,609.000000,558.000000,51.000000,61.000000,0.000000,0.000000,0.565427,0.661940,0.331457,0.396449,0.714908,609.000000,558.000000,51.000000,61.000000,0.000000,0.000000:
// measure 0
0000
0000
0000
0000
,  // measure 1
0000
0000
0000
0000
,  // measure 2
0000
0000
0000
0000
,  // measure 3
0000
0000
0000
0000
,  // measure 4
0000
0110
2002
3003
,  // measure 5
1000
0000
1000
0020
0000
0000
0130
0000
0001
0200
0000
0000
,  // measure 6
0301
0000
0001
0020
0000
0000
0130
0000
1000
0200
0000
0000
,  // measure 7
1300
0000
1000
0002
0000
0000
0103
0000
0001
0200
0000
0000
,  // measure 8
0310
0000
0000
1010
0000
0000
0101
0000
0000
1000
0000
0010
,  // measure 9
0000
0000
0100
0001
1000
0001
0000
0000
0000
0001
0000
0010
,  // measure 10
0000
0100
1000
0001
0000
0000
1000
0000
0001
0100
0000
0000
,  // measure 11
0010
0000
1000
0100
0000
0000
0010
0000
0100
1000
0000
0000
,  // measure 12
0010
0000
0100
0001
0000
0000
1001
0000
0000
0001
0000
0001
,  // measure 13
0010
0000
0010
0100
1000
0100
0000
0000
0000
1000
0000
0010
,  // measure 14
0000
0100
0001
0100
0000
0000
0001
0000
0010
0100
0000
0000
,  // measure 15
1000
0000
0100
0001
0000
0000
0001
0000
0100
1000
0000
0010
,  // measure 16
1000
0000
0001
0200
0000
0000
0310
0000
0000
1000
0000
1000
,  // measure 17
0001
0000
0001
0010
0100
0010
0100
0000
0100
1000
0100
1000
,  // measure 18
0100
0010
0001
1000
0000
0000
0001
0000
0001
1000
0000
1000
,  // measure 19
0010
0100
0010
0100
0000
0100
0002
0000
0000
0010
0000
0000
,  // measure 20
2003
0000
0000
3002
0000
0000
1003
0010
1000
0010
0000
0010
,  // measure 21
0100
0001
0100
0001
0000
0001
1000
0100
1000
0100
0010
0001
,  // measure 22
1000
0000
0000
0001
0100
0001
0100
0000
0100
0010
1000
0010
,  // measure 23
1000
0000
1000
0001
0010
0001
1000
0100
0010
0001
0000
0000
,  // measure 24
1001
2000
0100
0001
,  // measure 25
3010
0000
1000
0001
0000
0000
0010
0000
0001
0100
0000
0000
,  // measure 26
0010
0000
1000
0001
0000
0000
1001
0000
0000
0001
0000
0010
,  // measure 27
0100
0000
1000
0020
0000
0000
0030
0000
0000
1001
0000
0000
,  // measure 28
0110
0002
0100
1000
,  // measure 29
0010
0000
0000
2003
0000
0000
3001
0000
0100
0010
0000
0000
,  // measure 30
1000
0000
0001
0010
0000
0000
0110
0000
0000
0001
0000
0010
,  // measure 31
0100
0000
1000
0001
0100
0001
0100
0001
0100
0010
0000
0000
,  // measure 32
1001
0000
0000
1000
0100
1000
0001
0010
0100
1000
0000
0000
,  // measure 33
1001
0000
0000
0001
0000
0100
0010
0000
0100
0001
0000
0100
,  // measure 34
0010
0000
0100
0001
0000
1000
0100
0000
0010
0002
0000
0000
,  // measure 35
1003
0000
0000
1000
0000
0010
0100
0000
0010
1000
0000
0010
,  // measure 36
0100
0000
0010
1000
0000
0010
0100
0000
0001
2000
0000
0000
,  // measure 37
3001
0000
0000
1000
0000
1000
0100
0000
0100
0010
0000
0010
,  // measure 38
0001
0000
0001
0200
0000
0000
0010
0000
0000
1000
0000
0000
,  // measure 39
0301
0000
0000
1000
0000
0000
0201
0000
0000
0310
0000
1000
,  // measure 40
0100
0000
1000
0002
0000
0000
0003
0010
0100
0020
0000
0000
,  // measure 41
0030
0000
0000
0001
0000
0010
0100
0000
0010
0001
0000
0010
,  // measure 42
0100
0000
0010
0001
0000
1000
0010
0000
0100
0002
0000
0000
,  // measure 43
1003
0000
0000
1000
0000
0100
0010
0000
0100
1000
0000
0100
,  // measure 44
0010
0000
0100
1000
0000
0001
0100
0000
0010
2000
0000
0000
,  // measure 45
3001
0000
0000
0001
0000
0001
0010
0000
0010
0100
0000
0100
,  // measure 46
1000
0000
1000
0020
0000
0000
0001
0000
0000
1000
0000
0000
,  // measure 47
0130
0000
0000
0010
0000
0000
1002
0000
0000
0013
0000
0100
,  // measure 48
1000
0000
0001
0200
0000
0000
0300
0010
0100
0020
0000
0000
,  // measure 49
1030
0000
0000
0001
0000
0001
0010
0100
1000
0100
0000
0100
,  // measure 50
0010
0000
0010
0001
0000
0001
0100
0001
0100
0010
0000
0010
,  // measure 51
0100
0000
0100
1000
0000
1000
0100
1000
0100
0010
0000
0010
,  // measure 52
1000
0000
1000
0001
0000
0000
0110
0000
0000
1001
0000
0000
,  // measure 53
0000
0000
0000
1100
0000
0000
0001
0010
0001
0100
0000
0000
,  // measure 54
0100
0010
0100
0001
0000
0000
0001
0010
0100
1000
0000
0000
,  // measure 55
1010
0000
0000
0110
0000
0000
1000
0010
1000
0100
0000
0000
,  // measure 56
0100
0010
0100
1000
0000
0010
1000
0000
0100
1000
0000
0001
,  // measure 57
1000
0000
0000
0110
0000
0000
0001
0010
0001
0100
0000
0000
,  // measure 58
0100
1000
0100
0010
0000
0000
0010
1000
0100
0010
0000
0001
,  // measure 59
0010
0000
0000
0110
0000
0000
1000
0001
0100
0001
0000
0000
,  // measure 60
0001
0100
0010
1000
0000
1000
0100
0000
0100
1000
0001
0010
,  // measure 61
0100
1000
0001
2000
0000
0000
0000
0000
0000
0000
0000
0000
,  // measure 62
0000
0002
0000
0000
,  // measure 63
3003
0220
0330
2002
,  // measure 64
3003
0000
0000
0010
0100
0010
0100
0010
0100
0010
0000
0000
,  // measure 65
0100
2002
0000
0000
,  // measure 66
0000
0000
0000
3000
,  // measure 67
0000
1003
0010
0200
0000
0000
0000
0000
0000
0000
0000
0000
,  // measure 68
0000
0320
2030
3002
,  // measure 69
0023
0230
0000
0000
,  // measure 70
1300
0000
0001
2000
0000
0000
3001
0000
0100
0002
0000
0000
,  // measure 71
0013
0000
0100
1000
0000
1000
0002
0000
0000
0013
0000
0010
,  // measure 72
0200
0000
0000
1300
0000
1000
0002
0000
0000
0100
0000
0000
,  // measure 73
0103
0000
0001
0001
0110
0000
1000
0000
,  // measure 74
0110
0000
0000
1001
0000
0000
0011
0000
0100
2000
0000
0000
,  // measure 75
3001
0100
1001
0010
,  // measure 76
1001
0000
0000
1100
0000
0000
0110
0000
0001
2000
0000
0000
,  // measure 77
3001
0000
0000
0100
0000
0100
0010
0000
0010
1000
0000
1000
,  // measure 78
0001
0000
0001
0020
0000
0000
0100
0000
0000
1000
0000
0000
,  // measure 79
0031
0000
0000
1000
0000
0000
1020
0000
0000
0130
0000
0001
,  // measure 80
0010
0000
0001
2000
0000
0000
3000
0100
0010
0200
0000
0000
,  // measure 81
0300
0000
0000
1000
0000
0100
0010
0000
0100
1000
0000
0100
,  // measure 82
0001
0000
0100
1000
0000
0001
0100
0000
0010
2000
0000
0000
,  // measure 83
3001
0000
0000
0001
0000
0010
0100
0000
0010
0001
0000
0010
,  // measure 84
1000
0000
0010
0001
0000
1000
0010
0000
0100
0002
0000
0000
,  // measure 85
1003
0000
0000
1000
0000
1000
0100
0000
0100
0010
0000
0010
,  // measure 86
0001
0000
0001
0100
0000
0100
0001
0000
0010
1000
0000
0000
,  // measure 87
0001
0000
0100
1000
0000
0000
2001
0000
0000
3010
0000
1000
,  // measure 88
0100
0000
0010
0002
0000
0000
1000
0000
0000
1000
0000
0000
,  // measure 89
1003
0000
0000
1000
0000
1000
0100
0000
1000
0001
0000
0001
,  // measure 90
0010
0000
0001
0100
0000
0100
1000
0000
0100
0010
0000
0010
,  // measure 91
1000
0000
0001
1000
0000
1000
0100
0000
1000
0001
0000
0001
,  // measure 92
0010
0000
0001
0100
0000
0000
0110
0000
0000
2002
0000
0000
,  // measure 93
3003
1010
1001
0011
,  // measure 94
1001
1100
1001
0101
,  // measure 95
1001
1010
1100
0101
,  // measure 96
0011
0110
1001
0220
,  // measure 97
0330
0000
0000
0000
;
