#TITLE:미쳐;
#SUBTITLE:;
#ARTIST:포미닛;
#TITLETRANSLIT:Crazy;
#SUBTITLETRANSLIT:;
#ARTISTTRANSLIT:4MINUTE;
#GENRE:;
#CREDIT:;
#BANNER:[ZIvision Song Contest] - Crazy.png;
#BACKGROUND:[ZIvision Song Contest] - Crazy-bg.png;
#LYRICSPATH:;
#CDTITLE:cdtitle.png;
#MUSIC:[ZIvision Song Contest] - Crazy.ogg;
#OFFSET:2.222000;
#SAMPLESTART:11.072000;
#SAMPLELENGTH:15.000000;
#LASTBEATHINT:1.791945;
#SELECTABLE:YES;
#BPMS:0.000000=88.000000
;
#STOPS:
;
#BGCHANGES:2.625=[ZIvision Song Contest] - Crazy.avi=1.000=0=0=0=StretchNoLoop====,
99999=-nosongbg-=1.000=0=0=0 // don't automatically add -songbackground-
;
#KEYSOUNDS:;
#ATTACKS:;

//---------------dance-single - ----------------
#NOTES:
     dance-single:
     9646_BEG:
     Beginner:
     1:
     0.082835,0.127883,0.007943,0.079431,0.000000,73.000000,72.000000,1.000000,10.000000,0.000000,0.000000,0.082835,0.127883,0.007943,0.079431,0.000000,73.000000,72.000000,1.000000,10.000000,0.000000,0.000000:
0000
0000
0000
0000
,
0000
0000
0000
0000
,
0000
0000
0000
0000
,
0000
0000
0000
0000
,
0000
0000
0000
0000
,
0010
0000
0000
0000
,
0010
0000
0000
0000
,
0100
0000
0000
0000
,
0100
0000
0000
0000
,
1000
0000
1000
0000
,
0001
0000
0001
0000
,
1000
0000
1000
0000
,
0001
0000
0010
0000
,
2000
0000
3000
0000
,
0200
0000
0300
0000
,
0002
0000
0003
0000
,
0020
0000
0030
0000
,
0100
0000
1000
0000
,
0010
0000
0000
0000
,
0100
0000
0001
0000
,
0010
0010
0020
0000
,
0030
0000
0000
0000
,
0100
0100
0100
0000
,
0010
0000
0000
0000
,
0100
0100
0100
0000
,
0000
1000
0000
0001
,
0000
1000
0000
0001
,
0000
0100
0000
0010
,
0000
0100
0000
0010
,
0100
0100
0100
0100
,
0200
0000
0300
0000
,
0200
0000
0300
0000
,
0020
0000
0030
0000
,
0020
0000
0030
0000
,
1000
0000
1000
0000
,
0001
0000
0001
0000
,
1000
0000
0100
0000
,
0010
0010
0010
0000
,
1001
0000
0000
0000
,
0100
0100
0100
0000
,
0010
0000
0000
0000
,
0100
0100
0100
0000
,
0000
0001
0000
1000
,
0000
0001
0000
1000
,
0000
0100
0000
0010
,
0000
0100
0000
0020
,
0030
0000
0000
0000
;

//---------------dance-single - ----------------
#NOTES:
     dance-single:
     9646_CSP:
     Challenge:
     9:
     0.627502,0.621148,0.349495,0.476584,0.806221,553.000000,509.000000,44.000000,60.000000,0.000000,0.000000,0.627502,0.621148,0.349495,0.476584,0.806221,553.000000,509.000000,44.000000,60.000000,0.000000,0.000000:
// measure 0
0000
0000
0000
0000
,  // measure 1
0000
0000
0000
0000
,  // measure 2
0000
0000
0000
0000
,  // measure 3
0000
0000
0000
0000
,  // measure 4
0000
0000
0000
0000
,  // measure 5
1000
0100
1000
1000
0001
0010
0001
0001
1000
0010
0100
0010
1000
0000
0001
0010
,  // measure 6
0100
1000
0001
0001
0010
0001
0200
0000
0310
1000
0100
0010
0001
0000
1000
0000
,  // measure 7
2100
0000
3010
0001
0010
1000
0001
0010
0100
0100
1000
1000
0001
0000
1000
0100
,  // measure 8
0010
0001
1000
1000
0100
1000
0010
0010
0100
0001
0010
0100
2000
0000
3001
0000
,  // measure 9
0012
0000
1003
0100
0000
0100
1000
0010
0100
0100
0001
0001
1000
0100
0010
0000
,  // measure 10
0100
1000
0001
0010
0000
0010
0001
0100
0010
0010
1000
1000
0001
0010
0100
0000
,  // measure 11
1000
0001
0010
0010
0001
1000
0010
0010
0100
0001
0010
0100
2000
0000
3100
1000
,  // measure 12
0001
0010
0001
0000
0100
0000
0010
0000
1000
0000
0100
0000
0001
0000
0100
0000
1000
0000
1000
0000
0001
0000
0001
0000
0100
0000
1000
0000
0100
0000
0010
0000
,  // measure 13
2000
0000
0100
0000
3100
1000
0100
0010
0200
0000
0301
0100
0010
0100
1000
0100
,  // measure 14
0010
0002
0100
0000
0100
0000
0100
0000
0103
0000
0100
0000
0100
1000
0100
0001
,  // measure 15
2000
0000
0100
0000
3100
0001
0100
1000
0002
0000
1000
0000
1003
0000
0010
0001
,  // measure 16
0020
0000
0000
0000
1030
0000
0001
0000
0010
0000
0001
0000
0000
0000
0100
0000
0010
0000
0000
0010
0000
0000
1000
0000
0100
0000
0100
0010
0001
0010
0100
1000
,  // measure 17
0002
0003
0001
0000
0001
0010
0100
0010
0001
1000
0100
0001
0100
1000
0010
0100
,  // measure 18
0001
0020
0100
0000
0130
0000
0100
0010
0001
0200
0010
0000
0310
1000
0001
0000
,  // measure 19
1000
0100
1000
0100
0001
0100
0001
0100
1000
0010
1000
0010
0001
0010
0001
0010
,  // measure 20
1000
0100
0000
0010
0001
0100
0000
0010
1000
0100
0000
0010
0001
0100
0000
0000
0020
0000
0000
0000
0000
0000
0000
0000
0000
0000
0000
0000
0030
0000
0000
0000
,  // measure 21
2002
0000
0000
0000
3003
0000
0000
0000
0100
0000
0000
0000
2002
0000
0000
0000
3003
0000
0000
0000
0001
0000
1000
0000
0100
0000
0010
0001
2000
0000
3000
0000
,  // measure 22
1100
0000
0110
0000
0101
0000
0110
0000
1100
0000
0010
0100
0001
0000
0010
0100
,  // measure 23
2002
0000
0000
0000
3003
0000
0000
0000
0100
0000
0000
0000
2002
0000
0000
0000
3003
0000
0000
0000
1000
0000
0001
0000
0100
0000
0010
1000
0002
0000
0003
0000
,  // measure 24
0101
0000
0110
0000
1100
0000
0110
0000
0101
0001
0010
0100
1000
0000
0010
0000
,  // measure 25
1000
0100
0010
0001
0200
0300
0100
1000
0001
0100
0010
1000
0200
0300
0100
0001
,  // measure 26
1000
0010
0100
0001
0020
0030
0010
1000
0001
0010
0100
1000
0020
0030
0010
0001
,  // measure 27
1000
0010
0100
0001
0020
0030
0010
1000
0001
0010
0100
1000
0020
0030
0010
0001
,  // measure 28
1000
0010
0100
0001
0100
0010
1000
0100
0000
1000
0001
0100
0010
0000
1001
0000
,  // measure 29
1100
0000
0000
0100
0101
0000
0000
0100
1100
0000
0000
0100
0101
0000
0000
0100
,  // measure 30
2100
0000
3010
0100
1000
0000
0100
0000
0010
0000
1000
0100
0020
0000
0031
0000
,  // measure 31
2100
0000
3010
0100
0001
0000
1000
0000
2000
0000
3000
0001
0200
0000
0310
0000
,  // measure 32
2010
0000
3100
0010
1000
0000
0010
0000
0100
0000
1000
0010
0200
0000
0301
0000
,  // measure 33
2010
0000
3100
0010
0001
0000
1000
0000
2000
0000
3000
0001
0020
0000
0130
0000
,  // measure 34
1000
0001
1000
0001
1000
0010
1000
0010
0200
0000
0310
1000
0002
0000
1003
0000
,  // measure 35
0001
0010
0001
0010
0200
0000
0310
0000
0002
0000
1003
0100
0020
0000
0031
0000
,  // measure 36
1100
0000
0010
0001
0101
0000
0010
0000
1100
0000
0101
0000
1010
0000
0011
0000
,  // measure 37
1000
0000
0100
0000
1000
0000
0100
0000
0001
0000
0100
0000
1000
0000
0010
0000
0001
0000
0000
0010
0000
0000
0010
0000
1000
0000
0001
0100
0010
1000
0001
0010
,  // measure 38
0200
0000
0000
0000
0000
0000
0000
0000
0310
0000
0000
0000
2001
0000
0000
0000
3010
0000
0100
0001
1000
0000
0010
0000
0100
0000
0001
0000
2000
0000
3000
0000
,  // measure 39
1010
0000
0110
0000
0011
0000
0110
0000
1010
0000
0100
0010
0001
0000
0100
0010
,  // measure 40
2002
0000
0000
0000
3003
0000
0000
0000
1000
0000
0100
0000
1000
0000
0001
0010
0100
0000
1000
0001
0010
0000
0100
0000
2000
0000
0000
0000
3001
0000
0000
0000
,  // measure 41
0011
0000
0110
0000
1010
0000
0110
0000
0011
0001
0100
0010
1000
0000
0100
0000
,  // measure 42
1000
0010
0100
0001
0020
0030
0010
1000
0001
0010
0100
1000
0020
0030
0010
0001
,  // measure 43
1000
0100
0010
0001
0200
0300
0100
1000
0001
0100
0010
1000
0200
0300
0100
0001
,  // measure 44
1000
0100
0010
0001
0200
0300
0100
1000
0001
0100
0010
1000
0200
0300
0100
0001
,  // measure 45
1000
0100
0010
0001
0010
0100
1000
0010
0000
1000
0001
0010
0100
0000
2002
0000
,  // measure 46
3003
0000
0000
0000
;

//---------------dance-single - ----------------
#NOTES:
     dance-single:
     9646_ESP:
     Hard:
     8:
     0.551476,0.584610,0.341552,0.365381,0.559986,486.000000,443.000000,43.000000,46.000000,0.000000,0.000000,0.551476,0.584610,0.341552,0.365381,0.559986,486.000000,443.000000,43.000000,46.000000,0.000000,0.000000:
0000
0000
0000
0000
,
0000
0000
0000
0000
,
0000
0000
0000
0000
,
0000
0000
0000
0000
,
0000
0000
0000
0000
,
1000
0100
0001
0000
1000
0010
0001
0000
1000
0010
0001
0010
1000
0000
0001
1000
,
0001
0010
1000
0000
0001
0100
2000
0000
3001
0100
1000
0100
0001
0000
1000
0000
,
2100
0000
3010
0000
0001
0010
1000
0000
0001
0010
0100
1000
0001
0000
1000
0000
,
0010
0001
1000
0000
0001
0010
1000
0000
0001
0010
0100
0010
0002
0000
1003
0000
,
0110
0000
1000
0001
0000
0001
1000
0010
0100
1000
0100
0010
1000
1000
0001
0000
,
0010
0100
1000
0001
0000
0001
1000
0100
0010
1000
0010
0100
1000
1000
0001
0000
,
1000
0010
0100
0000
0010
1000
0001
0000
1000
0100
0010
0100
2000
0000
3001
0000
,
1000
0100
1000
0000
0001
0010
0001
0000
1000
0100
1000
0010
0100
0001
0010
0100
,
2000
0100
0100
0100
0100
0100
0100
0100
,
3002
0000
0100
0000
0100
0000
0100
0000
0100
0000
0100
0000
0103
0010
0100
0010
,
2000
0000
0100
0000
3100
0010
0100
0010
0002
0000
0100
0000
0100
0000
0103
0010
,
2000
0000
0000
0000
3100
0000
0001
0000
0000
0000
0100
0000
0000
0000
0100
0000
1000
0000
0000
0001
0000
0000
0001
0000
1000
0000
0010
0000
0100
0000
0001
0000
,
1000
0000
1000
0000
1000
0100
1000
0000
0010
0000
0010
0000
0100
0000
0100
0000
,
0001
0010
0001
0000
0001
0000
0001
0000
0001
0010
0001
0000
0001
0000
0001
0000
,
1000
0100
1000
0000
0100
0001
0100
0000
0001
0010
0001
0000
0010
1000
0010
0000
,
1000
0100
0010
0000
0001
0100
0010
0000
2000
0000
0000
0000
0000
0000
3000
0000
,
2002
3003
0010
0220
0330
0011
2010
3100
,
0110
0000
0101
0000
0011
0000
1010
0000
1001
0000
0001
0010
0100
0000
1000
0100
,
0020
0000
0130
2002
3003
0010
0102
0013
,
0110
0000
1010
0000
1100
0000
0101
0000
1001
0001
1000
0100
0020
0000
0130
0000
,
1000
0100
1000
0100
0001
0000
0100
1000
0001
0100
0001
0100
1000
0000
0100
0001
,
1000
0010
1000
0010
0001
0000
0010
1000
0001
0010
0001
0010
1000
0000
0010
0001
,
1000
0100
0001
0100
0100
0000
1000
0010
0001
0010
1000
0100
0100
0010
0010
0001
,
1000
0100
0001
0100
0100
1000
0010
0001
0000
0010
1000
0100
0010
0000
1001
0000
,
0220
0000
0330
1000
0002
0000
0003
0001
2000
0000
3000
1000
0002
0000
0003
0001
,
2000
0000
3001
1000
0100
0000
0001
0000
0100
0000
1000
0001
0200
0000
0310
0000
,
2000
0000
3010
0100
0001
0000
1000
0000
2000
0000
0000
0000
3001
0000
0000
0000
,
2000
0000
3001
1000
0010
0000
0001
0000
0010
0000
1000
0001
0020
0000
0130
0000
,
2000
0000
3100
0010
0001
0000
1000
0000
2000
0000
0000
0000
3001
0000
0000
0000
,
1000
0100
1000
0000
0010
0000
0010
0000
0100
0000
0100
0001
0100
0000
0001
0000
,
1000
0100
1000
0100
0010
0000
0010
0000
0002
0000
1000
0000
2003
0000
3010
0000
,
0101
0000
0010
1000
1100
0000
0010
0000
0101
0000
1010
0000
0011
0000
1100
0000
,
1000
0000
0100
0000
1000
0000
0100
0000
0001
0000
0100
0000
0001
0000
0100
0000
1000
0000
0000
0001
0000
0000
0001
0000
0010
0000
0100
0000
1000
0000
0001
0000
,
2002
3003
0100
0220
0330
1100
0102
0013
,
0110
0000
1010
0000
1100
0000
0101
0000
1001
0000
1000
0100
0010
0000
0001
0010
,
0200
0000
0310
1002
0100
0103
2010
3100
,
0110
0000
0101
0000
0011
0000
1010
0000
1001
1000
0001
0010
0200
0000
0310
0000
,
0001
0010
0001
0010
1000
0000
0010
0001
1000
0010
1000
0010
0001
0000
0010
1000
,
0001
0100
0001
0100
1000
0000
0100
0001
1000
0100
1000
0100
0001
0000
0100
1000
,
0001
0010
1000
0010
0010
0000
0001
0100
1000
0100
0001
0010
0010
0100
0100
1000
,
0001
0010
1000
0010
0010
0001
0100
1000
0000
0100
0001
0010
0100
0000
2002
0000
,
3003
0000
0000
0000
;

//---------------dance-single - ----------------
#NOTES:
     dance-single:
     9646_DSP:
     Medium:
     5:
     0.381267,0.474995,0.476584,0.317723,0.000000,336.000000,276.000000,60.000000,40.000000,0.000000,0.000000,0.381267,0.474995,0.476584,0.317723,0.000000,336.000000,276.000000,60.000000,40.000000,0.000000,0.000000:
0000
0000
0000
0000
,
0000
0000
0000
0000
,
0000
0000
0000
0000
,
0000
0000
0000
0000
,
0000
0000
0000
0000
,
1000
1000
0001
0001
1000
0100
0001
0000
,
1000
1000
0001
0001
1000
0010
0001
0000
,
1000
0010
0001
0001
1000
1000
0100
0000
,
0001
0100
1000
1000
0001
0001
0010
0000
,
1000
0010
0001
0010
1000
0001
0010
0010
,
0001
0100
1000
0100
0001
1000
0100
0100
,
1000
0010
0100
0010
1000
1000
0002
0003
,
1000
1000
0001
0001
1000
0100
0010
0001
,
2000
0100
0100
0100
,
3002
0100
0100
0100
,
2003
0100
3002
0100
,
1003
1000
0100
0000
0001
0001
0100
0010
,
1000
1000
1000
1000
0100
0100
0100
0100
,
0001
0001
0001
0001
0010
0010
0010
0010
,
1000
1000
0100
0100
0001
0001
0010
0010
,
1000
0110
0001
0110
2000
0000
0000
3000
,
0102
0000
0013
2100
0000
3010
0210
0301
,
1100
0101
1100
0101
0110
1000
1001
0001
,
2100
0000
3010
0102
0000
0013
0210
1300
,
0101
1100
0101
1100
0110
0001
1001
1000
,
1000
0100
0101
0100
1000
0100
0101
0100
,
1000
0010
0011
0010
1000
0010
0011
0010
,
1000
0100
0110
0001
0001
0100
0110
1000
,
0001
1000
0110
0001
0000
1000
0001
0110
,
2200
3300
0202
0303
0022
0033
2020
3030
,
2002
3003
0002
0000
1003
0100
0001
0000
,
0200
0000
1300
0010
0002
0000
1003
0000
,
2002
3003
2000
0000
3001
0010
1000
0000
,
0020
0000
0031
0100
2000
0000
3001
0000
,
1000
1000
0001
0001
0010
1000
0010
0000
,
0001
0001
1000
1000
0002
0000
1003
0000
,
0001
0001
0010
0010
0100
0100
1000
1000
,
0010
0001
0100
1000
0002
0000
0000
0003
,
2010
0000
3100
0012
0000
0103
0120
1030
,
0011
1010
0011
1010
0110
0001
1001
1000
,
0012
0000
0103
2010
0100
3100
0120
0031
,
1010
0011
1010
0011
0110
1000
1001
0001
,
0001
0010
1010
0010
0001
0010
1010
0010
,
0001
0100
1100
0100
0001
0100
1100
0100
,
0001
0010
0110
1000
1000
0010
0110
0001
,
1000
0001
0110
1000
0000
0001
1000
0220
,
0330
0000
0000
0000
;

//---------------dance-single - ----------------
#NOTES:
     dance-single:
     9646_BSP:
     Easy:
     3:
     0.237157,0.310574,0.095317,0.262121,0.000000,209.000000,197.000000,12.000000,33.000000,0.000000,0.000000,0.237157,0.310574,0.095317,0.262121,0.000000,209.000000,197.000000,12.000000,33.000000,0.000000,0.000000:
0000
0000
0000
0000
,
0000
0000
0000
0000
,
0000
0000
0000
0000
,
0000
0000
0000
0000
,
0000
0000
0000
0000
,
1000
0000
0001
0000
1000
0100
0001
0000
,
0001
0000
1000
0000
0001
0100
1000
0000
,
0001
0000
1000
0000
0010
0001
0010
0000
,
1000
0000
0001
0000
0010
1000
0010
0000
,
0200
0000
1300
0000
0010
0010
0010
0000
,
0200
0000
0301
0000
0010
0010
0010
0000
,
0001
0000
1000
0000
1000
0100
0010
0000
,
0001
0100
1000
0000
1000
0010
0001
0000
,
2000
0000
0000
0000
,
3002
0000
0000
0003
,
2000
3000
0002
0003
,
1000
0100
0001
0010
,
1000
1000
1000
1000
,
0001
0001
0001
0001
,
1000
1000
1000
0000
0001
0001
0001
0000
,
0010
0000
1000
0000
0002
0000
0000
0003
,
0220
0000
0330
2002
3003
0010
0200
0300
,
0001
1000
0001
1000
0002
0000
1003
0000
,
2001
0000
3100
0010
0000
0010
0200
0300
,
1000
0001
1000
0001
2000
0000
3001
0000
,
1000
0100
0001
0000
1000
0100
0001
0000
,
1000
0010
0001
0000
1000
0010
0001
0000
,
0001
0100
1000
0000
0001
0100
1000
0000
,
0001
0010
1000
0001
0000
1000
0100
0001
,
1001
0110
1001
0110
,
2001
0100
0000
3100
,
0002
0100
0000
0103
,
2001
0100
0010
3100
,
0002
0100
0020
0033
,
1000
0001
0001
0000
1000
0001
0001
0000
,
1000
0100
0001
0100
2000
0000
3001
0000
,
1000
0000
1000
0000
0010
0001
0010
0000
,
1000
0100
0001
0010
2000
0000
0000
3000
,
0220
0000
0330
2002
3003
0100
0020
0030
,
0001
1000
0001
1000
0002
0000
1003
0000
,
2001
0000
3010
0100
0000
0100
0020
0030
,
1000
0001
1000
0001
2000
0000
3001
0000
,
1000
0010
0001
0000
1000
0010
0001
0000
,
1000
0100
0001
0000
1000
0100
0001
0000
,
0001
0010
1000
0000
0001
0010
1000
0000
,
0001
0100
1000
0001
0000
1000
0010
0002
,
0003
0000
0000
0000
;
