#TITLE:Come Clean;
#SUBTITLE:(Monday 2 Friday Mix);
#ARTIST:Master Blaster;
#TITLETRANSLIT:;
#SUBTITLETRANSLIT:;
#ARTISTTRANSLIT:;
#CREDIT:;
#BANNER:Come Clean.png;
#BACKGROUND:Come Clean - bg.png;
#LYRICSPATH:;
#CDTITLE:cdtitle.png;
#MUSIC:Come Clean (Monday 2 Friday Mix).mp3;
#OFFSET:-0.420;
#SAMPLESTART:45.214;
#SAMPLELENGTH:13.180;
#SELECTABLE:YES;
#BPMS:0.000=71.000,33.000=142.000,71.000=71.000,72.000=142.000,168.000=71.000,170.000=142.000,240.000=71.000,241.000=142.000;
#STOPS:;
#BGCHANGES:;

//---------------dance-single - ----------------
#NOTES:
     dance-single:
     :
     Hard:
     8:
     0.504,0.618,0.385,0.378,0.128: // measure 1
0000
0000
0000
0000
,  // measure 2
0000
0000
0000
0000
,  // measure 3
0000
0000
0002
0003
2000
3000
0002
0003
,  // measure 4
2000
3000
0020
0030
0200
0300
0020
0030
,  // measure 5
0200
0000
0300
0001
0002
0000
0000
0200
0000
0000
0000
0000
0000
0000
0303
0000
,  // measure 6
0100
0010
1000
0001
0002
0000
0000
2000
0000
0000
0000
0000
0000
0000
3003
0000
,  // measure 7
0001
1000
0010
0100
0020
0000
1030
2000
0000
0000
0000
3002
0000
0000
0000
1003
,  // measure 8
0000
1000
0200
0000
0000
0000
0000
0000
0000
0000
0300
0000
0000
0000
0000
0000
,  // measure 9
0000
0000
0000
1000
1001
0000
0000
0000
0001
0000
0000
0000
0100
0000
0000
0000
,  // measure 10
1000
0100
0001
1000
,  // measure 11
0010
0100
0001
0010
,  // measure 12
1000
0010
0001
1000
,  // measure 13
0100
0010
0001
0100
,  // measure 14
0010
1000
0100
1000
,  // measure 15
0010
0000
1000
0001
1000
0001
1000
0001
,  // measure 16
1000
0001
1000
0010
0100
0010
0100
0010
,  // measure 17
0100
0010
0210
0000
0000
0000
0000
0000
,  // measure 18
0000
0300
0101
0000
0101
0000
0210
0000
,  // measure 19
0302
0000
2003
0000
3200
0000
0300
0100
,  // measure 20
1000
1000
0000
0002
0000
1003
0010
0002
,  // measure 21
0000
0003
0020
0000
2030
0000
3000
0001
,  // measure 22
0010
0000
0000
0010
0000
0000
0010
0000
0000
0000
0001
0000
0100
0000
0020
0000
,  // measure 23
0000
0130
0100
0001
0010
0100
1000
1100
,  // measure 24
0000
0110
0000
0011
0000
1000
0010
2000
,  // measure 25
0000
0000
3002
0000
0203
0000
0300
0001
,  // measure 26
1000
0000
0000
1000
0000
0000
2000
0000
0000
0000
0000
0000
0000
0000
3000
0000
,  // measure 27
0001
0010
0100
0010
0001
1000
0010
1000
,  // measure 28
0100
1000
0010
0100
0001
0100
0010
0100
,  // measure 29
0001
0010
0100
1000
0010
1000
0100
1000
,  // measure 30
0001
0100
1000
0100
0001
0100
0010
2000
,  // measure 31
0000
3001
0010
1000
0010
0001
0100
0101
,  // measure 32
0000
0110
0000
1010
0000
0001
1000
0002
,  // measure 33
0000
0000
0023
0000
0230
0000
0300
0010
,  // measure 34
0001
0000
0000
0001
0000
0000
0001
0000
0000
0000
1000
0000
0010
0000
0100
0000
,  // measure 35
0101
0000
0000
0101
0000
0000
0001
0000
0011
0000
0000
0011
0000
0000
0001
1000
,  // measure 36
0010
0000
0000
0110
0000
0000
0110
0000
0101
0000
0001
0000
0011
0000
0001
0000
,  // measure 37
1001
0000
0000
1001
0000
0000
1000
0000
1100
0000
0000
1100
0000
0000
0100
1000
,  // measure 38
0001
0000
0000
0011
0000
0000
0011
0000
1001
0000
1000
0000
1010
0000
1000
0000
,  // measure 39
1100
0000
0000
1100
0000
0000
1000
0000
1010
0000
0000
1010
0000
0000
1000
0001
,  // measure 40
0010
0000
0000
0110
0000
0000
0110
0000
1100
0000
1000
0000
1010
0000
1000
0000
,  // measure 41
1001
0000
0000
1001
0000
0000
0001
0000
0101
0000
0000
0101
0000
0000
0100
0001
,  // measure 42
1000
0000
0000
1010
0000
0000
1010
0000
1000
0000
0100
0000
0010
0000
0200
0000
,  // measure 43
0000
0000
0000
0000
0300
1000
0100
0010
0001
0000
0000
0000
0100
0000
0000
0000
,  // measure 44
1000
0100
0001
0100
,  // measure 45
1000
0100
0001
0010
,  // measure 46
1000
0010
0001
0010
,  // measure 47
1000
0010
0001
0101
,  // measure 48
0001
0011
1000
1100
,  // measure 49
1000
1010
0010
0110
,  // measure 50
1000
0000
1001
0000
0001
0100
0001
0100
,  // measure 51
0010
0100
0010
0100
0010
0000
1000
0000
0001
0000
0100
0000
0010
0000
0100
0000
,  // measure 52
0001
0100
1000
0100
0001
0100
0010
0100
,  // measure 53
0001
1000
0100
1000
0001
1000
0010
1000
,  // measure 54
0001
1000
0100
1000
0001
0010
0100
0010
,  // measure 55
0001
0010
1000
0010
0001
0010
0100
0010
,  // measure 56
0001
0100
0010
1000
0010
0100
0001
0010
,  // measure 57
0100
1000
0002
0000
0100
0000
1000
0000
,  // measure 58
0100
2003
0010
0001
,  // measure 59
0010
3001
0021
0100
,  // measure 60
0100
0130
1001
1001
,  // measure 61
1002
2003
3002
0203
,  // measure 62
0300
0100
0001
0001
0000
2000
0000
3001
,  // measure 63
0010
2000
0000
3000
0020
0000
0032
0000
,  // measure 64
0003
0000
1000
0000
0010
0000
0000
0010
0000
0000
0010
0000
0000
0000
1000
0000
,  // measure 65
0100
0020
0000
0130
0100
1000
0010
0100
,  // measure 66
0001
0101
0000
0110
0000
1010
0000
0001
,  // measure 67
0010
0002
0000
0000
2003
0000
3200
0000
,  // measure 68
0300
0000
1000
0000
0001
0000
0000
0001
0000
0000
0002
0000
0000
0000
0000
0000
,  // measure 69
0000
0003
1000
0010
0100
0010
1000
0001
,  // measure 70
0010
0001
0100
0001
0010
0100
1000
0100
,  // measure 71
0010
0100
1000
0010
0100
0001
0010
0001
,  // measure 72
0100
0001
1000
0100
0001
0100
1000
0100
,  // measure 73
0010
0002
0000
1003
0010
0001
0010
1000
,  // measure 74
0100
1100
0000
0110
0000
0011
0000
1000
,  // measure 75
0001
2000
0000
0000
3020
0000
0230
0000
,  // measure 76
0300
0000
0010
0000
1000
0000
0000
1000
0000
0000
2000
0000
0000
0000
0000
0000
,  // measure 77
0000
3001
0000
0000
;
