#VERSION:0.83;
#TITLE:Beautiful Morning;
#SUBTITLE:;
#ARTIST:Ace of Base;
#TITLETRANSLIT:;
#SUBTITLETRANSLIT:;
#ARTISTTRANSLIT:;
#GENRE:;
#ORIGIN:;
#CREDIT:;
#BANNER:banner.png;
#BACKGROUND:Beautiful Morning-bg.png;
#PREVIEWVID:;
#JACKET:jacket.png;
#CDIMAGE:;
#DISCIMAGE:;
#LYRICSPATH:;
#CDTITLE:;
#MUSIC:Beautiful Morning.ogg;
#OFFSET:-1.756080;
#SAMPLESTART:80.100166;
#SAMPLELENGTH:12.000000;
#SELECTABLE:YES;
#BPMS:0.000=98.000;
#STOPS:;
#DELAYS:;
#WARPS:;
#TIMESIGNATURES:0.000=4=4;
#TICKCOUNTS:0.000=4;
#COMBOS:0.000=1;
#SPEEDS:0.000=1.000=0.000=0;
#SCROLLS:0.000=1.000;
#FAKES:;
#LABELS:0.000=Song Start;
#BGCHANGES:;
#KEYSOUNDS:;
#ATTACKS:
;

//---------------dance-single - ----------------
#NOTEDATA:;
#CHARTNAME:;
#STEPSTYPE:dance-single;
#DESCRIPTION:;
#CHARTSTYLE:;
#DIFFICULTY:Beginner;
#METER:1;
#RADARVALUES:0.100479,0.137624,0.005538,0.000000,0.000000,127.000000,126.000000,1.000000,0.000000,0.000000,0.000000,0.000000,0.000000,0.000000,0.100479,0.137624,0.005538,0.000000,0.000000,127.000000,126.000000,1.000000,0.000000,0.000000,0.000000,0.000000,0.000000,0.000000;
#CREDIT:;
#NOTES:
0000
0000
0000
0000
,
0000
0000
0000
0000
,
0000
0000
0000
0000
,
0000
0000
0000
0000
,
1000
0000
0000
0000
,
0001
0000
0000
0000
,
0100
0000
0000
0000
,
0010
0000
0000
0000
,
1000
0000
1000
0000
,
0100
0000
0100
0000
,
0010
0000
0010
0000
,
0001
0000
0000
0000
,
0001
0000
0001
0000
,
0100
0000
0100
0000
,
0010
0000
0010
0000
,
1000
0000
0000
0000
,
0001
0001
0001
0000
,
0010
0000
0100
0100
,
0100
0000
1000
1000
,
1000
0000
0001
0001
,
0001
0000
0100
0000
,
0100
0000
0010
0000
,
0010
0000
1000
1000
,
1000
0000
0001
0000
,
1000
0000
0000
0000
,
0100
0000
0000
0000
,
0010
0000
0010
0000
,
0001
0000
0000
0000
,
0001
0000
0000
0000
,
0100
0000
0000
0000
,
0010
0000
0010
0000
,
1000
0000
0000
0000
,
1000
1000
1000
0000
,
0001
0000
0010
0010
,
0010
0000
0100
0100
,
0100
0000
1000
1000
,
1000
0000
0001
0000
,
0001
0000
0100
0100
,
0100
0000
0010
0010
,
0010
0000
1000
0000
,
1000
0000
0001
0000
,
0001
0000
0000
0000
,
0100
0000
0100
0000
,
0010
0000
0000
0000
,
1000
0000
1000
0000
,
0100
0000
0000
0000
,
0010
0000
0010
0000
,
0010
0000
0001
0000
,
0001
0000
0000
0000
,
0100
0000
0000
0000
,
0010
0000
0000
0000
,
1000
0000
0000
0000
,
0001
0000
0000
0000
,
0010
0000
0000
0000
,
0100
0000
0000
0000
,
1000
0000
1000
0000
,
1000
0000
0010
0010
,
0010
0000
0010
0000
,
0100
0000
0100
0000
,
0001
0000
0001
0000
,
0010
0000
0100
0100
,
0100
0000
1000
0000
,
0010
0000
0010
0000
,
0100
0000
0100
0000
,
0001
0000
0001
0000
,
0010
0000
0010
0000
,
0100
0000
0100
0000
,
1000
0000
1000
0000
,
0001
0000
0001
0000
,
0100
0000
0100
0000
,
0010
0000
0010
0000
,
1001
0000
0000
0000
;

//---------------dance-single - ----------------
#NOTEDATA:;
#CHARTNAME:;
#STEPSTYPE:dance-single;
#DESCRIPTION:;
#CHARTSTYLE:;
#DIFFICULTY:Easy;
#METER:3;
#RADARVALUES:0.166146,0.239250,0.083073,0.099688,0.000000,210.000000,195.000000,15.000000,18.000000,0.000000,0.000000,0.000000,0.000000,0.000000,0.166146,0.239250,0.083073,0.099688,0.000000,210.000000,195.000000,15.000000,18.000000,0.000000,0.000000,0.000000,0.000000,0.000000;
#CREDIT:;
#NOTES:
0000
0000
0000
0000
,
0000
0000
0000
0000
,
0000
0000
0000
0000
,
0000
0000
0000
0000
,
1000
1000
0001
0001
,
0100
0000
0100
0000
,
0001
0000
0001
0000
,
1000
0000
0000
0000
,
0001
0001
0001
0000
,
0010
0010
0010
0000
,
0100
1000
0010
0100
,
0001
0000
0000
0000
,
1000
1000
1000
0000
,
0100
0100
0100
0000
,
0010
0001
0100
0010
,
1000
0000
1001
0000
,
0001
0001
0010
0100
,
1000
0000
1000
0010
,
0100
0000
0001
0100
,
0010
0000
1000
0001
,
0100
0100
0001
1000
,
0100
0000
1000
0001
,
0010
0000
0001
1000
,
2002
0000
3003
0000
,
1000
0100
0001
0000
,
0001
0100
1000
0000
,
1000
0010
0001
0010
,
0100
0000
0001
0001
,
1001
0000
0110
0000
,
1001
0001
1000
0000
,
0001
0010
0100
1000
,
0001
0001
1001
0000
,
0001
0010
0100
1000
,
0001
0000
1000
0100
,
0010
0000
0001
0100
,
0010
0000
1000
1000
,
0001
0001
1000
0010
,
0100
0000
0001
0010
,
0100
0000
1000
0100
,
0010
0010
0001
0001
,
2000
0000
3010
0000
,
0002
0100
0103
0000
,
2000
0000
3100
0000
,
0002
0010
0013
0000
,
2000
0000
3001
0000
,
0002
1000
1003
0000
,
0001
0100
0010
1000
,
0001
0000
0001
0010
,
0200
0000
0000
0000
,
2300
0000
0000
0000
,
3020
0000
0000
0000
,
0230
0000
0000
0000
,
0302
0000
1003
0000
,
2000
0000
3001
0000
,
0002
0010
0013
0000
,
0200
0000
0000
0300
,
1000
0010
0100
0001
,
1000
0000
0001
0010
,
1100
0001
0101
0000
,
1000
0001
0100
0000
,
0001
1000
0100
0010
,
0001
0000
1000
0001
,
0011
1000
1010
0000
,
1000
0001
0100
0000
,
0001
0010
0100
1000
,
0010
0000
0100
0001
,
0011
0100
1100
1000
,
0010
0010
0100
0100
,
0001
0000
1000
0100
,
0001
0100
1000
0010
,
1010
0010
0110
0100
,
2002
0000
0000
0000
,
3003
0000
0000
0000
;

//---------------dance-single - ----------------
#NOTEDATA:;
#CHARTNAME:;
#STEPSTYPE:dance-single;
#DESCRIPTION:;
#CHARTSTYLE:;
#DIFFICULTY:Medium;
#METER:4;
#RADARVALUES:0.214408,0.259188,0.038767,0.077535,0.002769,271.000000,264.000000,7.000000,14.000000,0.000000,0.000000,0.000000,0.000000,0.000000,0.214408,0.259188,0.038767,0.077535,0.002769,271.000000,264.000000,7.000000,14.000000,0.000000,0.000000,0.000000,0.000000,0.000000;
#CREDIT:;
#NOTES:
0000
0000
0000
0000
,
0000
0000
0000
0000
,
0000
0000
0000
0000
,
0000
0000
0000
0000
,
1000
0000
0100
0010
0001
0000
0100
0000
,
0010
0000
0100
0000
,
0001
0000
0000
0010
0100
0000
0100
0000
,
1000
0000
0000
0000
0001
0000
1000
1000
,
1000
0000
0010
0000
0100
0000
0001
0001
,
0001
0000
0010
0000
0100
0000
1000
1000
,
1000
0001
0100
0010
,
1000
0000
0000
0000
0001
0000
1000
1000
,
1000
0000
0100
0000
0010
0000
0001
0001
,
0001
0000
0100
0000
0010
0000
1000
1000
,
1000
0001
1000
0010
,
1000
0000
1001
0000
,
0001
0000
0100
0000
0010
0100
0010
0000
,
0100
0000
0000
0000
0001
0010
0001
0000
,
1000
0000
0000
0000
0100
1000
0100
0000
,
1000
0000
0010
0010
,
0100
0000
0001
0000
0010
0000
0100
0010
,
0100
0000
0000
0000
1000
0000
0001
1000
,
0001
0000
0000
0000
1000
0000
0010
0100
,
0010
0000
0100
0000
0000
0001
0001
0010
,
0100
0000
0010
0000
0001
0000
1000
0010
,
0100
0000
0010
0000
1000
0000
0001
0100
,
0010
0100
0001
0001
,
0001
0000
1000
0100
,
1001
0000
0000
0000
0000
0000
0000
1001
0000
0000
0000
0000
0000
0000
0000
0000
,
0101
0000
0001
0000
0010
0100
0010
0000
,
0100
0000
1000
0000
0010
0100
0010
0000
,
1000
0000
1001
0000
,
0001
0000
0010
0000
0100
0010
0100
0000
,
1000
0000
0000
0000
0010
0100
0010
0000
,
1000
0000
0000
0000
0001
0100
0001
0000
,
1000
0100
1000
0100
,
0010
0000
0001
0000
1000
0000
0010
0100
,
0010
0000
0000
0000
0100
0000
0001
0010
,
0001
0000
0000
0000
1000
0000
0010
0100
,
0010
1000
0001
0010
,
0100
0000
0000
0200
0000
0000
0300
0000
,
1000
1000
1000
0000
0010
0000
0100
0000
,
0001
0000
0000
0002
0000
0000
0003
0000
,
0100
0100
0100
0000
0010
0000
1000
0000
,
0002
0000
0000
2000
0000
0000
3003
0000
,
0001
1000
0001
0000
0010
0000
0100
0000
,
1000
1000
0001
0001
,
0100
0000
0001
1000
,
0020
0000
0000
0000
,
0230
0000
0000
0000
,
0302
0000
0000
0000
,
2003
0000
0000
0000
,
3200
0000
0000
0000
,
0320
0000
0000
0000
,
0031
0000
1000
0001
0001
0010
0100
0000
,
0220
0000
0000
0330
,
1001
0000
0001
0000
0100
0010
1000
0000
,
0001
0000
1000
0000
0100
0000
0010
0001
,
0100
0000
0010
1000
0100
0000
0010
0000
,
0100
1000
0001
1000
,
0010
0000
0100
0000
0001
1000
0100
0000
,
1000
0000
0001
0000
0010
0000
0001
0100
,
0010
0000
1000
0100
0010
0000
0100
0000
,
1000
0000
0001
0000
,
1000
0000
0010
0100
0001
0000
0001
0010
,
0100
0000
0010
0000
0001
0000
1000
0010
,
0100
0000
0100
0010
1000
0000
0001
0000
,
0010
0000
0001
1000
0100
1000
0001
0000
,
1000
0000
0001
0100
0010
0000
1000
0000
,
0100
0000
0010
0000
0100
0000
1000
0010
,
0100
0000
0100
0001
1000
0000
0000
0100
,
0020
0000
0000
0002
0000
0000
0000
0000
,
0033
0000
0000
0000
;

//---------------dance-single - ----------------
#NOTEDATA:;
#CHARTNAME:;
#STEPSTYPE:dance-single;
#DESCRIPTION:;
#CHARTSTYLE:;
#DIFFICULTY:Hard;
#METER:6;
#RADARVALUES:0.303019,0.319000,0.143993,0.177222,0.002769,383.000000,357.000000,26.000000,32.000000,0.000000,0.000000,0.000000,0.000000,0.000000,0.303019,0.319000,0.143993,0.177222,0.002769,383.000000,357.000000,26.000000,32.000000,0.000000,0.000000,0.000000,0.000000,0.000000;
#CREDIT:;
#NOTES:
// measure 0
0000
0000
0000
0000
,  // measure 1
0000
0000
0000
0000
,  // measure 2
0000
0000
0000
0000
,  // measure 3
0000
0000
0000
0000
,  // measure 4
1000
0100
0010
0001
0100
0010
0001
0010
,  // measure 5
1000
0001
0100
0010
,  // measure 6
1000
0000
0000
0001
0010
0000
0100
0000
,  // measure 7
1000
0000
0001
0000
1000
0001
1001
0001
,  // measure 8
2000
0000
0010
0000
3100
0000
0001
0100
,  // measure 9
0002
0000
0010
0000
0103
0000
1000
0100
,  // measure 10
0010
0000
0001
0000
0100
0010
0001
0010
,  // measure 11
1000
0000
0100
0000
1001
0000
0001
0010
,  // measure 12
0200
0000
0001
0000
1300
0000
1000
0010
,  // measure 13
0200
0000
1000
0000
0301
0010
0100
1000
,  // measure 14
0001
0000
1000
0000
0001
0100
0010
1000
,  // measure 15
0001
0000
0010
0000
0100
0010
1001
0000
,  // measure 16
0101
0001
0010
0100
1000
0100
0001
0100
,  // measure 17
2000
0000
3001
0000
1000
0010
0100
0010
,  // measure 18
2000
0000
3001
0000
0001
0010
0100
0010
,  // measure 19
0002
0000
1003
0000
1000
1000
0001
0001
,  // measure 20
1001
0001
0100
0010
1000
0100
0010
0100
,  // measure 21
2000
0000
3001
0000
0001
0100
0010
0100
,  // measure 22
0002
0000
1003
0000
1000
0100
0001
0100
,  // measure 23
0020
0000
0000
0000
0000
0001
0031
1000
,  // measure 24
0101
0000
0001
0000
1000
0000
0001
1000
,  // measure 25
1100
0000
1000
0000
0001
0100
0010
1000
,  // measure 26
0001
0000
0010
0000
1000
0010
0001
0100
,  // measure 27
0010
0000
0100
0000
0001
0000
1000
0100
,  // measure 28
1001
0000
0000
0000
0000
0000
0000
0110
0000
0000
0000
0000
0000
0000
0000
0000
,  // measure 29
0011
0000
0100
0000
1000
0100
0001
0100
,  // measure 30
1000
0000
0010
0000
0001
0010
1000
0100
,  // measure 31
0010
0000
0100
0000
1000
0001
0110
0000
,  // measure 32
1001
0001
0010
0100
1000
0010
0001
0010
,  // measure 33
2000
0000
3001
0000
0001
0010
1000
0010
,  // measure 34
0002
0000
1003
0000
1000
0100
0001
0100
,  // measure 35
2000
0000
3001
0000
0001
0100
0010
0010
,  // measure 36
1010
1000
0010
0100
1000
0100
0001
0010
,  // measure 37
0200
0000
0301
0000
0001
0100
1000
0010
,  // measure 38
0200
0000
1300
0000
1000
0100
0001
0010
,  // measure 39
0200
0000
0010
0000
0310
0100
1001
0000
,  // measure 40
2100
0010
0100
3001
,  // measure 41
0001
0010
0100
1000
0010
0000
0100
0000
,  // measure 42
0102
0010
0100
1003
,  // measure 43
1000
0010
0100
0001
0010
0000
0100
0000
,  // measure 44
2001
0100
0010
3001
,  // measure 45
0001
1000
0001
1000
0010
0100
0010
0100
,  // measure 46
0002
1000
2003
0001
,  // measure 47
3001
0000
0100
0000
0010
1000
0100
0010
,  // measure 48
0200
0000
0000
0000
,  // measure 49
2300
0000
0000
0000
,  // measure 50
3020
0000
0000
0000
,  // measure 51
0230
0000
0000
0000
,  // measure 52
0302
0000
0000
0000
,  // measure 53
0023
0000
0000
0000
,  // measure 54
0130
1000
0010
0100
0001
0010
0100
0000
,  // measure 55
0020
0000
0000
0030
,  // measure 56
1001
0001
0100
0010
0001
0010
1000
0100
,  // measure 57
0010
0000
1000
0000
0010
0000
0001
0001
,  // measure 58
0101
0000
1000
1000
1100
0000
0001
0010
,  // measure 59
0100
0000
0100
0001
0100
1000
0010
0100
,  // measure 60
0001
0000
0001
0100
1000
0100
0001
0010
,  // measure 61
0100
0000
0010
0000
0001
0000
1000
1000
,  // measure 62
0101
0000
0001
0001
1100
0000
0001
1000
,  // measure 63
0020
0000
0100
0230
0000
0001
0301
0000
,  // measure 64
1000
0100
0001
0100
1000
0010
0001
0010
,  // measure 65
1000
0000
0001
0000
0001
0000
1000
0010
,  // measure 66
0101
0000
0001
0010
1100
0000
0001
1000
,  // measure 67
0010
0000
0010
1000
0100
0010
0001
0100
,  // measure 68
0010
0000
0100
0001
0010
0100
1000
0100
,  // measure 69
0001
0000
0100
0000
1000
0000
0001
1000
,  // measure 70
1010
0000
1000
0001
0011
0000
0000
0001
,  // measure 71
0200
0000
0000
0020
0000
0000
0000
0000
,  // measure 72
0330
0000
0000
0000
;
