#VERSION:0.83;
#TITLE:Apollo;
#SUBTITLE:;
#ARTIST:Last Dinosaurs;
#TITLETRANSLIT:;
#SUBTITLETRANSLIT:;
#ARTISTTRANSLIT:;
#GENRE:Indie Rock;
#ORIGIN:;
#CREDIT:;
#BANNER:[ZIvision Song Contest] - Apollo.png;
#BACKGROUND:[ZIvision Song Contest] - Apollo-bg.png;
#PREVIEWVID:;
#JACKET:[ZIvision Song Contest] - Apollo-jacket.png;
#CDIMAGE:;
#DISCIMAGE:;
#LYRICSPATH:;
#CDTITLE:cdtitle.png;
#MUSIC:[ZIvision Song Contest] - Apollo.ogg;
#OFFSET:1.887944;
#SAMPLESTART:45.357155;
#SAMPLELENGTH:15.118111;
#SELECTABLE:YES;
#BPMS:0.000=127.000,
164.000=63.500,
180.000=127.000,
212.000=63.500,
216.000=127.000;
#STOPS:;
#DELAYS:;
#WARPS:;
#TIMESIGNATURES:0.000=4=4;
#TICKCOUNTS:0.000=4;
#COMBOS:0.000=1;
#SPEEDS:0.000=1.000=0.000=0;
#SCROLLS:0.000=1.000;
#FAKES:;
#LABELS:0.000=Song Start;
#BGCHANGES:3.813=[ZIvision Song Contest] - Apollo.avi=1.000=1=0=1===CrossFade==,
99999=-nosongbg-=1.000=0=0=0 // don't automatically add -songbackground-
;
#KEYSOUNDS:;
#ATTACKS:
;

//---------------dance-single - ----------------
#NOTEDATA:;
#CHARTNAME:;
#STEPSTYPE:dance-single;
#DESCRIPTION:;
#CHARTSTYLE:;
#DIFFICULTY:Hard;
#METER:7;
#RADARVALUES:0.412198,0.498157,0.064278,0.471375,0.171409,404.000000,395.000000,9.000000,66.000000,0.000000,0.000000,0.000000,0.000000,0.000000,0.412198,0.498157,0.064278,0.471375,0.171409,404.000000,395.000000,9.000000,66.000000,0.000000,0.000000,0.000000,0.000000,0.000000;
#CREDIT:;
#NOTES:
// measure 0
0000
0000
0000
0000
,  // measure 1
0000
0000
0000
0000
,  // measure 2
0000
0000
0000
0000
,  // measure 3
0000
0000
0000
0000
,  // measure 4
0000
0000
0000
0000
,  // measure 5
1000
0010
1000
0010
1000
0001
1000
0100
,  // measure 6
0010
0100
1000
0001
0200
0001
0301
0000
,  // measure 7
0001
0010
0001
0010
0001
1000
0001
0100
,  // measure 8
1000
0100
0001
0010
0100
1000
0002
0000
,  // measure 9
1003
0010
0100
0001
2000
0000
3001
1000
,  // measure 10
0100
0100
0020
0000
0230
0000
2300
0000
,  // measure 11
3001
0100
0010
1000
0002
0000
1003
0100
,  // measure 12
0010
0010
0002
0000
0203
0000
0320
0000
,  // measure 13
1030
0010
0100
0001
2000
0000
3100
0010
,  // measure 14
0002
0000
0203
0000
2300
0000
3100
0010
,  // measure 15
0100
0000
0001
0000
1000
0000
0000
0000
1100
0000
0000
0101
0000
0000
0001
0000
,  // measure 16
0100
0000
0001
0000
0011
0000
0000
1010
0000
0000
1000
0000
0010
0000
0100
0000
,  // measure 17
0002
0023
2030
3200
,  // measure 18
0301
0000
0010
0001
0100
0001
0100
0010
,  // measure 19
2000
3020
0032
0203
,  // measure 20
1300
0000
0010
1000
0100
1000
0100
0010
,  // measure 21
0002
0203
2300
3200
,  // measure 22
0301
0000
1000
0100
0010
0001
0100
0010
,  // measure 23
2000
0000
0000
0000
3100
0000
0010
0000
0100
0000
0000
0100
1000
0000
0000
0000
,  // measure 24
0001
0100
0010
0000
0100
0000
0110
0000
,  // measure 25
2001
0000
0001
0000
3001
0010
0100
0010
,  // measure 26
2000
0000
0010
0000
3010
0100
0010
0001
,  // measure 27
2000
0000
0001
0000
3001
0100
0010
0000
,  // measure 28
1000
0100
0010
0001
0100
0010
1000
0000
,  // measure 29
1002
0000
1000
0000
1003
0010
0100
0010
,  // measure 30
0002
0000
0010
0000
0013
1000
0100
0002
,  // measure 31
0000
1003
0010
0002
0000
0103
0010
0000
,  // measure 32
1000
0100
0001
0100
1000
0001
0001
0000
,  // measure 33
1000
0000
0010
0000
0000
0100
0000
0000
0001
0000
0000
1000
0000
0000
0001
0000
,  // measure 34
0010
0000
0000
0001
0000
0000
0100
0000
0010
0000
1000
0000
1000
0000
0000
0000
,  // measure 35
0010
0000
0100
0000
0000
0001
0000
0000
1000
0000
0000
0100
0000
0000
0010
0000
,  // measure 36
0100
0000
0001
0000
0000
0100
0000
0000
1000
0000
0010
0000
0200
0000
0000
0000
,  // measure 37
0301
0000
0010
0000
0000
0100
0000
0000
1000
0000
0000
0001
0000
0000
1000
0000
,  // measure 38
0010
0000
0000
1000
0000
0000
0100
0000
0010
0000
0001
0000
0001
0000
0000
0000
,  // measure 39
0010
0000
0100
0000
0000
1000
0000
0000
0001
0000
0000
0100
0000
0000
0010
0000
,  // measure 40
0100
0000
1000
0000
0000
0100
0000
0000
0010
0000
1000
0000
0001
0000
0100
0000
,  // measure 41
0020
0000
2030
0000
0002
0000
0000
0000
3003
0000
0000
0001
0100
0010
1000
0001
,  // measure 42
0020
0000
0032
0000
2000
0000
0000
0000
3003
0000
0000
1000
0010
0100
0001
1000
,  // measure 43
0200
0000
0000
0000
0320
0000
0000
0000
0002
0000
0000
0000
0000
0000
0000
0000
0033
0000
1000
0000
0000
0001
0000
0000
1000
0000
0000
0001
0000
0000
0200
0000
,  // measure 44
0010
0000
0000
0000
0010
0000
0000
0000
0010
0000
0000
0000
0310
0000
0000
0000
1000
0000
0000
1000
0000
0000
0001
0000
0000
0001
0000
0000
0010
0000
0100
0000
,  // measure 45
2000
0000
0010
0000
3010
0000
0001
0010
,  // measure 46
2000
0000
0000
0000
0100
0000
0000
0000
3100
0000
0000
0010
0000
0000
0001
0000
,  // measure 47
0100
0000
0010
0000
0100
0000
1000
0100
,  // measure 48
0002
0000
0000
0000
0013
0000
0100
0000
2000
0000
0000
3002
0000
0000
0103
0000
,  // measure 49
0100
0020
1000
0000
1030
0010
1000
0100
,  // measure 50
0020
0000
0000
0000
0130
0000
1000
0000
0002
0000
0000
0203
0000
0000
0310
0000
,  // measure 51
2000
0000
3001
0020
0000
0130
1000
0000
,  // measure 52
0001
0100
1000
0100
0001
1000
1000
0000
,  // measure 53
2002
0000
0000
3003
0000
1000
0001
0010
0200
0000
0000
0000
1300
0010
0100
0001
,  // measure 54
2000
0000
0100
0000
3100
1000
0010
0000
,  // measure 55
1000
0010
0001
0010
1000
0100
0010
0000
,  // measure 56
2001
0000
0001
0000
3001
0100
0010
0100
,  // measure 57
2000
0000
0100
0000
3100
0001
0010
2000
,  // measure 58
0000
3001
0100
2000
0000
3001
0100
0000
,  // measure 59
0001
0010
1000
0010
0001
1000
1000
0000
,  // measure 60
0001
0000
0100
0000
0000
0010
0000
0000
1000
0000
0000
0001
0000
0000
1000
0000
,  // measure 61
0100
0000
0000
0010
0000
0000
0100
0000
1000
0000
0001
0000
0001
0000
0000
0000
,  // measure 62
0100
0000
0010
0000
0000
1000
0000
0000
0001
0000
0000
0010
0000
0000
0100
0000
,  // measure 63
0010
0000
1000
0000
0000
0010
0000
0000
0001
0000
0100
0000
0020
0000
0000
0000
,  // measure 64
1030
0000
0100
0000
0000
0010
0000
0000
0001
0000
0000
1000
0000
0000
0001
0000
,  // measure 65
0100
0000
0000
0010
0000
0000
0100
0000
0001
0000
1000
0000
1000
0000
0000
0000
,  // measure 66
0100
0000
0010
0000
0000
0001
0000
0000
1000
0000
0000
0010
0000
0000
0100
0000
,  // measure 67
0010
0000
0001
0000
0000
0010
0000
0000
1000
0000
0100
0000
0001
0000
0100
0000
,  // measure 68
2000
0000
0000
0000
,  // measure 69
0000
0000
0000
3000
;

//---------------dance-single - ----------------
#NOTEDATA:;
#CHARTNAME:;
#STEPSTYPE:dance-single;
#DESCRIPTION:;
#CHARTSTYLE:;
#DIFFICULTY:Challenge;
#METER:9;
#RADARVALUES:0.578505,0.622697,0.214261,0.635642,0.532082,567.000000,537.000000,30.000000,89.000000,0.000000,0.000000,0.000000,0.000000,0.000000,0.578505,0.622697,0.214261,0.635642,0.532082,567.000000,537.000000,30.000000,89.000000,0.000000,0.000000,0.000000,0.000000,0.000000;
#CREDIT:;
#NOTES:
// measure 0
0000
0000
0000
0000
,  // measure 1
0000
0000
0000
0000
,  // measure 2
0000
0000
0000
0000
,  // measure 3
0000
0000
0000
0000
,  // measure 4
0000
0000
0000
0000
,  // measure 5
1000
0000
0010
0000
1000
0001
0000
0001
1000
0000
0100
0000
0010
0000
0100
1000
,  // measure 6
0001
0000
0100
0000
0010
1000
0000
1000
0001
0000
0101
0000
1100
0000
0000
0000
,  // measure 7
0001
0000
0010
0000
0001
1000
0000
1000
0001
0000
0100
0000
1000
0000
0100
0010
,  // measure 8
0100
0000
0001
0000
0010
0001
0000
0001
1000
0000
1010
0000
0011
0000
0000
0000
,  // measure 9
0001
0100
0010
0100
2000
0000
3001
0010
,  // measure 10
1000
0000
0100
0000
0010
0001
0000
0001
0100
0000
0000
0000
1001
0000
0000
0000
,  // measure 11
1000
0100
0010
0100
0002
0000
1003
0010
,  // measure 12
0001
0000
0100
0000
0010
1000
0000
1000
0100
0000
0000
0000
1001
0000
0000
0000
,  // measure 13
0001
0100
1000
0100
0002
0000
1003
0100
,  // measure 14
0001
0000
0100
0000
0010
0001
0000
0001
2000
0000
0000
0000
3010
0000
0100
0000
,  // measure 15
0001
0000
0100
0000
0010
1000
0000
1000
0200
0000
0000
0301
0000
0000
0100
0010
,  // measure 16
0100
0000
0010
0000
0001
1000
0000
0010
0000
0100
0010
0100
0000
0001
0000
0000
,  // measure 17
1000
0000
0010
0000
0100
0010
0000
0010
1000
0000
0001
0000
0020
0000
0000
0000
,  // measure 18
0130
1000
0010
0100
1000
0100
0010
1000
,  // measure 19
0001
0000
0010
0000
0100
0010
0000
0010
0001
0000
1000
0000
0020
0000
0000
0000
,  // measure 20
0130
0001
0010
0100
0001
0100
0010
0001
,  // measure 21
1000
0000
0010
0000
0100
0001
0000
0001
1000
0000
0100
0000
0020
0000
0000
0000
,  // measure 22
0130
1000
0010
0100
0010
0001
0010
1000
,  // measure 23
0200
0000
0010
0000
0310
0000
0001
0000
1000
0000
0000
1000
0000
0000
0001
0100
,  // measure 24
0001
0000
0100
0000
0010
0000
1000
0000
0100
0010
0000
0010
0001
0000
0100
0010
,  // measure 25
2000
3010
1000
0010
0001
0020
2030
3200
,  // measure 26
0302
0000
0000
0000
0000
0000
0000
0000
0000
0000
0000
0000
0000
0000
0000
0000
0000
0000
0000
0000
0000
0000
0000
0000
0103
0000
0000
0000
0000
0000
0000
0000
0000
0000
0000
0000
0000
0000
0000
0000
0000
0000
0000
0000
0000
0000
0000
0000
1000
0000
0000
0000
0000
0000
0000
0000
0000
0000
0000
0000
0000
0000
0000
0000
0000
0000
0000
0000
0000
0000
0000
0000
0001
0000
0000
0000
0000
0000
0000
0000
0000
0000
0000
0000
0000
0000
0000
0000
0000
0000
0000
0000
0000
0000
0000
0000
0100
0000
0000
0000
0000
0000
0000
0000
0000
0000
0000
0000
0000
0000
0000
0000
0000
0000
0000
0000
0000
0000
0000
0000
0020
0000
0000
0000
0000
0000
0000
0000
0000
0000
0000
0000
0000
0000
0000
0000
0000
0000
0000
0000
0000
0000
0000
0030
0020
0000
0000
0000
0000
0000
0000
0000
0000
0000
0000
0000
0000
0000
0000
0000
0000
0000
0000
0000
0000
0000
0000
0000
2030
0000
0000
0000
0000
0000
0000
0000
0000
0000
0000
0000
0000
0000
0000
0000
0000
0000
0000
0000
0000
0000
0000
0000
,  // measure 27
3002
0013
0001
0010
1000
0001
1000
0010
,  // measure 28
0001
0100
1000
0001
0020
0130
0020
1030
,  // measure 29
0002
0023
0032
0013
1000
0020
0031
0200
,  // measure 30
2300
0000
0000
0000
0000
0000
0000
0000
0000
0000
0000
0000
0000
0000
0000
0000
0000
0000
0000
0000
0000
0000
0000
0000
3100
0000
0000
0000
0000
0000
0000
0000
0000
0000
0000
0000
0000
0000
0000
0000
0000
0000
0000
0000
0000
0000
0000
0000
0001
0000
0000
0000
0000
0000
0000
0000
0000
0000
0000
0000
0000
0000
0000
0000
0000
0000
0000
0000
0000
0000
0000
0000
1000
0000
0000
0000
0000
0000
0000
0000
0000
0000
0000
0000
0000
0000
0000
0000
0000
0000
0000
0000
0000
0000
0000
0000
0100
0000
0000
0000
0000
0000
0000
0000
0000
0000
0000
0000
0000
0000
0000
0000
0000
0000
0000
0000
0000
0000
0000
0000
0020
0000
0000
0000
0000
0000
0000
0000
0000
0000
0000
0000
0000
0000
0000
0000
0000
0000
0000
0000
0000
0000
0000
0030
0020
0000
0000
0000
0000
0000
0000
0000
0000
0000
0000
0000
0000
0000
0000
0000
0000
0000
0000
0000
0000
0000
0000
0000
0032
0000
0000
0000
0000
0000
0000
0000
0000
0000
0000
0000
0000
0000
0000
0000
0000
0000
0000
0000
0000
0000
0000
0000
,  // measure 31
1003
0010
1000
0020
0031
1000
0001
0010
,  // measure 32
1000
0100
0001
1000
0010
0011
1001
0000
,  // measure 33
1000
0000
0010
0000
0100
0001
0000
0001
0010
0000
0000
2001
0000
0000
3001
0100
,  // measure 34
0001
0000
0000
0000
0000
0000
0000
0000
0000
0000
0000
0000
0000
0000
0000
0000
0000
0000
0000
0000
0000
0000
0000
0000
1000
0000
0000
0000
0000
0000
0000
0000
0000
0000
0000
0000
0200
0000
0000
0000
0000
0000
0000
0000
0000
0000
0000
0000
0000
0000
0000
0000
0000
0000
0000
0000
0000
0000
0000
0000
0010
0000
0000
0000
0000
0000
0000
0000
0000
0000
0000
0000
0000
0000
0000
0000
0000
0000
0000
0000
0000
0000
0000
0300
0100
0000
0000
0000
0000
0000
0000
0000
0000
0000
0000
0000
1000
0000
0000
0000
0000
0000
0000
0000
0000
0000
0000
0000
0000
0000
0000
0000
0000
0000
0000
0000
0000
0000
0000
0000
1100
0000
0000
0000
0000
0000
0000
0000
0000
0000
0000
0000
0000
0000
0000
0000
0000
0000
0000
0000
0000
0000
0000
0000
2001
0000
0000
0000
0000
0000
0000
0000
0000
0000
0000
0000
0000
0000
0000
0000
0000
0000
0000
0000
0000
0000
0000
0000
0000
0000
0000
0000
0000
0000
0000
0000
0000
0000
0000
0000
0000
0000
0000
0000
0000
0000
0000
0000
0000
0000
0000
0000
,  // measure 35
3001
0000
0100
0000
0010
1000
0000
1000
0100
0000
0000
0120
0000
0000
0130
1000
,  // measure 36
0001
0000
0100
0000
1000
0100
0000
0100
0001
0000
0110
0000
1002
0000
0000
1003
,  // measure 37
0001
0000
0010
0000
0100
1000
0000
1000
0010
0000
0000
1002
0000
0000
1003
0100
,  // measure 38
1000
0000
0000
0000
0000
0000
0000
0000
0000
0000
0000
0000
0000
0000
0000
0000
0000
0000
0000
0000
0000
0000
0000
0000
0001
0000
0000
0000
0000
0000
0000
0000
0000
0000
0000
0000
0200
0000
0000
0000
0000
0000
0000
0000
0000
0000
0000
0000
0000
0000
0000
0000
0000
0000
0000
0000
0000
0000
0000
0000
0010
0000
0000
0000
0000
0000
0000
0000
0000
0000
0000
0000
0000
0000
0000
0000
0000
0000
0000
0000
0000
0000
0000
0300
0100
0000
0000
0000
0000
0000
0000
0000
0000
0000
0000
0000
0001
0000
0000
0000
0000
0000
0000
0000
0000
0000
0000
0000
0000
0000
0000
0000
0000
0000
0000
0000
0000
0000
0000
0000
0101
0000
0000
0000
0000
0000
0000
0000
0000
0000
0000
0000
0000
0000
0000
0000
0000
0000
0000
0000
0000
0000
0000
0000
1002
0000
0000
0000
0000
0000
0000
0000
0000
0000
0000
0000
0000
0000
0000
0000
0000
0000
0000
0000
0000
0000
0000
0000
0000
0000
0000
0000
0000
0000
0000
0000
0000
0000
0000
0000
0000
0000
0000
0000
0000
0000
0000
0000
0000
0000
0000
0000
,  // measure 39
1003
0000
0100
0000
0010
0001
0000
0001
0100
0000
0000
0120
0000
0000
0130
0001
,  // measure 40
1000
0000
0100
0000
0001
0100
0000
0100
1000
0000
0010
0000
0100
0010
0100
0000
,  // measure 41
0002
0000
0203
0000
0020
0000
0000
0000
0330
0000
0000
0001
0100
0010
1000
0001
,  // measure 42
2000
0000
3200
0000
0020
0000
0000
0000
0330
0000
0000
1000
0100
0010
0001
0100
,  // measure 43
0020
0000
0000
0000
2030
0000
0000
0000
0002
0000
0000
0000
0000
0000
0000
0000
3003
0000
2000
0000
0000
3200
0000
0000
0302
0000
0000
0203
0000
0000
2300
0000
,  // measure 44
0001
0000
0000
0000
0001
0000
0000
0000
3001
0000
0000
0000
1001
0000
0000
0000
1000
0010
0000
0010
0100
0000
0001
0010
0000
0010
0100
0000
1000
0000
0001
1000
,  // measure 45
0002
0000
0000
0000
0100
0000
0000
0000
0103
0000
0000
0000
0001
0100
0010
2000
,  // measure 46
0001
0000
0000
0000
0100
0000
0000
0000
3100
0000
0000
0020
0000
0031
1000
0001
,  // measure 47
0000
0100
0000
0010
0000
0100
0000
1000
0000
0100
0000
0010
0000
0100
0001
0000
,  // measure 48
2000
0000
0000
0000
3100
0000
0100
0010
0002
0000
0000
0103
0000
0100
0000
1000
,  // measure 49
0100
0000
0002
0000
1000
0000
0000
0000
1003
0100
1000
0100
0010
0001
1000
0001
,  // measure 50
0200
0000
0000
0000
0310
0000
0010
0100
0002
0000
0000
1003
0000
1000
0000
0100
,  // measure 51
0020
0000
0000
0000
0130
1000
0002
0000
0000
0000
0100
0000
0103
0000
0000
0010
,  // measure 52
1000
0001
1000
0000
0100
0010
0000
0010
0001
1000
0001
0000
0100
0000
0010
0100
,  // measure 53
0020
0000
0000
0000
0030
0010
1000
0001
0020
0000
0000
0000
0031
0010
1000
0010
,  // measure 54
0002
0103
0001
0100
1000
0001
1000
0100
,  // measure 55
0001
0010
1000
0001
0200
1300
0002
1003
,  // measure 56
0020
0230
0320
0130
1000
0200
0301
2000
,  // measure 57
3200
0000
0000
0000
0000
0000
0000
0000
0000
0000
0000
0000
0000
0000
0000
0000
0000
0000
0000
0000
0000
0000
0000
0000
0301
0000
0000
0000
0000
0000
0000
0000
0000
0000
0000
0000
0000
0000
0000
0000
0000
0000
0000
0000
0000
0000
0000
0000
0100
0000
0000
0000
0000
0000
0000
0000
0000
0000
0000
0000
0000
0000
0000
0000
0000
0000
0000
0000
0000
0000
0000
0000
1000
0000
0000
0000
0000
0000
0000
0000
0000
0000
0000
0000
0000
0000
0000
0000
0000
0000
0000
0000
0000
0000
0000
0000
0001
0000
0000
0000
0000
0000
0000
0000
0000
0000
0000
0000
0000
0000
0000
0000
0000
0000
0000
0000
0000
0000
0000
0000
0200
0000
0000
0000
0000
0000
0000
0000
0000
0000
0000
0000
0000
0000
0000
0000
0000
0000
0000
0000
0000
0000
0000
0300
0200
0000
0000
0000
0000
0000
0000
0000
0000
0000
0000
0000
0000
0000
0000
0000
0000
0000
0000
0000
0000
0000
0000
0000
0302
0000
0000
0000
0000
0000
0000
0000
0000
0000
0000
0000
0000
0000
0000
0000
0000
0000
0000
0000
0000
0000
0000
0000
,  // measure 58
0013
0100
0010
0200
0301
0100
1000
0010
,  // measure 59
0001
0000
1000
0000
0001
0000
0010
0000
1000
0010
1000
0000
0001
0000
1000
0100
,  // measure 60
0010
0000
0001
0000
0100
0010
0000
0010
1000
0000
0000
0102
0000
0000
1003
0100
,  // measure 61
1000
0000
0000
0000
0000
0000
0000
0000
0000
0000
0000
0000
0000
0000
0000
0000
0000
0000
0000
0000
0000
0000
0000
0000
0010
0000
0000
0000
0000
0000
0000
0000
0000
0000
0000
0000
2000
0000
0000
0000
0000
0000
0000
0000
0000
0000
0000
0000
0000
0000
0000
0000
0000
0000
0000
0000
0000
0000
0000
0000
0001
0000
0000
0000
0000
0000
0000
0000
0000
0000
0000
0000
0000
0000
0000
0000
0000
0000
0000
0000
0000
0000
0000
3000
1000
0000
0000
0000
0000
0000
0000
0000
0000
0000
0000
0000
0100
0000
0000
0000
0000
0000
0000
0000
0000
0000
0000
0000
0000
0000
0000
0000
0000
0000
0000
0000
0000
0000
0000
0000
1100
0000
0000
0000
0000
0000
0000
0000
0000
0000
0000
0000
0000
0000
0000
0000
0000
0000
0000
0000
0000
0000
0000
0000
0201
0000
0000
0000
0000
0000
0000
0000
0000
0000
0000
0000
0000
0000
0000
0000
0000
0000
0000
0000
0000
0000
0000
0000
0000
0000
0000
0000
0000
0000
0000
0000
0000
0000
0000
0000
0310
0000
0000
0000
0000
0000
0000
0000
0000
0000
0000
0000
,  // measure 62
0100
0000
0001
0000
0010
0001
0000
0001
0100
0000
0000
2010
0000
0000
3001
0100
,  // measure 63
0001
0000
0010
0000
1000
0010
0000
0010
0001
0000
0110
0000
1002
0000
0000
1003
,  // measure 64
0010
0000
1000
0000
0100
0010
0000
0010
0001
0000
0000
2100
0000
0000
3001
0100
,  // measure 65
0001
0000
0000
0000
0000
0000
0000
0000
0000
0000
0000
0000
0000
0000
0000
0000
0000
0000
0000
0000
0000
0000
0000
0000
0010
0000
0000
0000
0000
0000
0000
0000
0000
0000
0000
0000
0002
0000
0000
0000
0000
0000
0000
0000
0000
0000
0000
0000
0000
0000
0000
0000
0000
0000
0000
0000
0000
0000
0000
0000
1000
0000
0000
0000
0000
0000
0000
0000
0000
0000
0000
0000
0000
0000
0000
0000
0000
0000
0000
0000
0000
0000
0000
0003
0001
0000
0000
0000
0000
0000
0000
0000
0000
0000
0000
0000
0100
0000
0000
0000
0000
0000
0000
0000
0000
0000
0000
0000
0000
0000
0000
0000
0000
0000
0000
0000
0000
0000
0000
0000
0101
0000
0000
0000
0000
0000
0000
0000
0000
0000
0000
0000
0000
0000
0000
0000
0000
0000
0000
0000
0000
0000
0000
0000
1200
0000
0000
0000
0000
0000
0000
0000
0000
0000
0000
0000
0000
0000
0000
0000
0000
0000
0000
0000
0000
0000
0000
0000
0000
0000
0000
0000
0000
0000
0000
0000
0000
0000
0000
0000
0310
0000
0000
0000
0000
0000
0000
0000
0000
0000
0000
0000
,  // measure 66
0100
0000
1000
0000
0010
1000
0000
1000
0100
0000
0000
0012
0000
0000
1003
0100
,  // measure 67
1000
0000
0010
0000
0001
0010
0000
0010
1000
0000
0100
0000
0010
0100
0010
0000
,  // measure 68
2002
0000
0000
0000
,  // measure 69
0000
0000
0000
3003
;

//---------------dance-single - ----------------
#NOTEDATA:;
#CHARTNAME:;
#STEPSTYPE:dance-single;
#DESCRIPTION:;
#CHARTSTYLE:;
#DIFFICULTY:Medium;
#METER:5;
#RADARVALUES:0.294864,0.323802,0.064278,0.428522,0.000000,289.000000,280.000000,9.000000,60.000000,0.000000,0.000000,0.000000,0.000000,0.000000,0.294864,0.323802,0.064278,0.428522,0.000000,289.000000,280.000000,9.000000,60.000000,0.000000,0.000000,0.000000,0.000000,0.000000;
#CREDIT:;
#NOTES:
// measure 0
0000
0000
0000
0000
,  // measure 1
0000
0000
0000
0000
,  // measure 2
0000
0000
0000
0000
,  // measure 3
0000
0000
0000
0000
,  // measure 4
0000
0000
0000
0000
,  // measure 5
1000
0010
0100
0001
,  // measure 6
1000
0000
0100
0000
0020
0001
0031
0000
,  // measure 7
1000
0010
0001
0010
,  // measure 8
1000
0000
0100
0000
0010
0001
0002
0000
,  // measure 9
1003
0000
1000
0000
2000
0000
3000
0010
,  // measure 10
1000
0001
0020
0000
0230
0000
2300
0000
,  // measure 11
3001
0000
0001
0000
0002
0000
0003
0010
,  // measure 12
0001
1000
0020
0000
0230
0000
0302
0000
,  // measure 13
1003
0000
0100
0000
0200
0000
0300
0010
,  // measure 14
0002
0000
0203
0000
2300
0000
3100
0010
,  // measure 15
0100
0010
1000
1000
,  // measure 16
0100
0010
0001
0000
0001
0000
1000
0000
,  // measure 17
0002
0023
0230
0320
,  // measure 18
0031
0000
0001
0010
0001
1000
0010
0000
,  // measure 19
2000
3020
0230
0320
,  // measure 20
1030
0000
1000
0010
1000
0001
0010
0000
,  // measure 21
0002
0203
2300
3200
,  // measure 22
0301
0000
0001
0100
0010
1000
0001
0000
,  // measure 23
2000
3100
0010
0010
,  // measure 24
0001
0100
0010
0000
0100
0000
0110
0000
,  // measure 25
1002
0000
0103
0000
0000
0001
0100
0010
,  // measure 26
2000
0000
3100
0000
0000
1000
0100
0010
,  // measure 27
0002
1000
0000
1003
,  // measure 28
0001
0100
1001
0110
,  // measure 29
0001
1000
0002
0000
0003
0020
0000
0031
,  // measure 30
2000
0000
3010
0000
0000
0010
1000
0200
,  // measure 31
0000
0310
0001
0200
0000
0000
0310
0000
,  // measure 32
0000
0000
0010
0000
1000
0001
0001
0000
,  // measure 33
1000
0100
0001
0010
,  // measure 34
1000
0000
0100
0000
0010
0001
1000
0000
,  // measure 35
0001
0100
1000
0010
,  // measure 36
0001
0000
0100
0000
0010
1000
1000
0000
,  // measure 37
0001
0010
1000
0100
,  // measure 38
0001
0000
0010
0000
0100
1000
0001
0000
,  // measure 39
1000
0010
0001
0100
,  // measure 40
1000
0000
0010
0000
0100
0001
0100
0001
,  // measure 41
2000
0100
0002
0000
3003
0000
1000
1000
,  // measure 42
0002
0100
2000
0000
3003
0000
0001
0001
,  // measure 43
0020
1000
0200
0000
0000
0000
0330
0000
,  // measure 44
0001
1000
0001
1000
0220
0000
0000
0330
,  // measure 45
2002
0000
0000
0000
3003
0000
0001
0010
,  // measure 46
0200
0000
0000
0000
0300
0000
1000
0010
,  // measure 47
1000
0100
0001
0010
,  // measure 48
2000
3000
0100
0010
,  // measure 49
0001
2000
0000
0000
3001
0100
0001
1000
,  // measure 50
0200
0000
0301
0100
,  // measure 51
2000
0000
3010
0200
0000
0000
0300
0000
,  // measure 52
0001
0010
0100
0000
1000
0010
0100
0000
,  // measure 53
0220
0000
0000
0000
0330
0000
1000
0001
,  // measure 54
2000
0010
0000
3010
,  // measure 55
1000
0100
1001
0110
,  // measure 56
1000
0001
2000
0000
0000
3020
0000
1030
,  // measure 57
0002
0000
0013
0000
0000
0010
0001
0200
,  // measure 58
0000
0310
1000
0200
0000
0000
0310
0000
,  // measure 59
0000
0000
0010
0000
0001
1000
1000
0000
,  // measure 60
0001
0100
1000
0010
,  // measure 61
0001
0000
0100
0000
0010
1000
0001
0000
,  // measure 62
1000
0100
0001
0010
,  // measure 63
1000
0000
0100
0000
0010
0001
0001
0000
,  // measure 64
1000
0010
0001
0100
,  // measure 65
1000
0000
0010
0000
0100
0001
1000
0000
,  // measure 66
0001
0010
1000
0100
,  // measure 67
0001
0000
0010
0000
0100
1000
0100
1000
,  // measure 68
0002
0000
0000
0000
,  // measure 69
0000
0000
0000
0003
;

//---------------dance-single - ----------------
#NOTEDATA:;
#CHARTNAME:;
#STEPSTYPE:dance-single;
#DESCRIPTION:;
#CHARTSTYLE:;
#DIFFICULTY:Easy;
#METER:3;
#RADARVALUES:0.207119,0.249079,0.064278,0.314250,0.000000,203.000000,194.000000,9.000000,44.000000,0.000000,0.000000,0.000000,0.000000,0.000000,0.207119,0.249079,0.064278,0.314250,0.000000,203.000000,194.000000,9.000000,44.000000,0.000000,0.000000,0.000000,0.000000,0.000000;
#CREDIT:;
#NOTES:
// measure 0
0000
0000
0000
0000
,  // measure 1
0000
0000
0000
0000
,  // measure 2
0000
0000
0000
0000
,  // measure 3
0000
0000
0000
0000
,  // measure 4
0000
0000
0000
0000
,  // measure 5
1000
1000
0010
1000
,  // measure 6
0001
0010
0002
0003
,  // measure 7
0001
0001
0010
0001
,  // measure 8
0100
0010
1000
0000
,  // measure 9
0001
1000
0002
0003
,  // measure 10
1000
0100
0010
0100
,  // measure 11
1000
0001
2000
3000
,  // measure 12
0001
0100
0010
0100
,  // measure 13
0001
1000
0002
0003
,  // measure 14
0010
0001
1000
0010
,  // measure 15
0200
0300
0100
0000
,  // measure 16
0010
0010
1000
0000
,  // measure 17
0001
0010
0001
0020
,  // measure 18
0030
0001
0010
0100
,  // measure 19
1000
0010
1000
0020
,  // measure 20
0030
1000
0010
0100
,  // measure 21
0001
1000
0001
2000
,  // measure 22
3000
0001
0010
0100
,  // measure 23
2000
0000
3001
0000
,  // measure 24
0100
0100
0010
0010
,  // measure 25
1002
0000
1003
0100
,  // measure 26
0120
0000
0031
0100
,  // measure 27
0120
0000
1030
0000
,  // measure 28
0100
0100
0010
0010
,  // measure 29
2002
3003
0001
0100
,  // measure 30
0120
0000
1030
0010
,  // measure 31
0002
0000
0203
0000
,  // measure 32
1300
1000
0001
0001
,  // measure 33
1000
0100
0010
0000
,  // measure 34
0001
0000
1000
0000
,  // measure 35
0001
0100
0010
0000
,  // measure 36
1000
0100
0010
0000
,  // measure 37
0001
0100
1000
0000
,  // measure 38
0100
0000
0001
0000
,  // measure 39
1000
0100
0001
0000
,  // measure 40
0001
0100
1000
0001
,  // measure 41
0200
0020
0330
1000
,  // measure 42
0200
0020
0330
0001
,  // measure 43
2000
0020
0000
3030
,  // measure 44
2000
0000
3000
0002
0023
0002
0000
0033
,  // measure 45
2002
0000
3003
1000
,  // measure 46
0200
0000
0300
0010
,  // measure 47
0001
0100
0010
1000
,  // measure 48
0002
0003
2000
3000
,  // measure 49
0200
0300
1000
0100
,  // measure 50
0002
0003
0001
0100
,  // measure 51
1000
0001
0200
0300
,  // measure 52
0010
0010
1000
0001
,  // measure 53
2002
0000
0000
0000
3003
0000
0001
1000
,  // measure 54
0002
0000
0013
0000
,  // measure 55
0001
0001
0100
0100
,  // measure 56
2002
3003
1000
0100
,  // measure 57
0120
0000
0031
0010
,  // measure 58
2000
0000
3200
0000
,  // measure 59
0301
0001
1000
1000
,  // measure 60
0001
0100
0010
0000
,  // measure 61
1000
0000
0001
0000
,  // measure 62
1000
0100
0010
0000
,  // measure 63
0001
0100
0010
0000
,  // measure 64
1000
0100
0001
0000
,  // measure 65
0100
0000
1000
0000
,  // measure 66
0001
0100
1000
0000
,  // measure 67
1000
0100
0001
0010
,  // measure 68
0200
0000
0000
0000
,  // measure 69
0000
0000
0000
0300
;

//---------------dance-single - ----------------
#NOTEDATA:;
#CHARTNAME:;
#STEPSTYPE:dance-single;
#DESCRIPTION:;
#CHARTSTYLE:;
#DIFFICULTY:Beginner;
#METER:1;
#RADARVALUES:0.080603,0.124539,0.007142,0.171409,0.000000,79.000000,78.000000,1.000000,24.000000,0.000000,0.000000,0.000000,0.000000,0.000000,0.080603,0.124539,0.007142,0.171409,0.000000,79.000000,78.000000,1.000000,24.000000,0.000000,0.000000,0.000000,0.000000,0.000000;
#CREDIT:;
#NOTES:
// measure 0
0000
0000
0000
0000
,  // measure 1
0000
0000
0000
0000
,  // measure 2
0000
0000
0000
0000
,  // measure 3
0000
0000
0000
0000
,  // measure 4
0000
0000
0000
0000
,  // measure 5
1000
0000
0000
0000
,  // measure 6
0010
0000
0000
0000
,  // measure 7
0100
0000
0000
0000
,  // measure 8
0001
0000
0000
0000
,  // measure 9
1000
0000
0000
0000
,  // measure 10
1000
0000
1000
0000
,  // measure 11
0001
0000
0000
0000
,  // measure 12
0001
0000
0001
0000
,  // measure 13
1000
0000
0000
0000
,  // measure 14
0100
0000
0010
0000
,  // measure 15
0200
0000
0300
0000
,  // measure 16
1000
0000
0000
0000
,  // measure 17
0010
0000
1000
0000
,  // measure 18
0000
0000
0001
0000
,  // measure 19
0010
0000
0001
0000
,  // measure 20
0000
0000
1000
0000
,  // measure 21
0010
0000
0100
0000
,  // measure 22
0000
0000
0001
0000
,  // measure 23
2000
0000
3000
0000
,  // measure 24
0001
0000
0001
0000
,  // measure 25
2000
0000
3000
0000
,  // measure 26
0200
0000
0300
0000
,  // measure 27
0020
0000
0030
0000
,  // measure 28
0001
0000
1000
0000
,  // measure 29
0002
0000
0003
0000
,  // measure 30
0200
0000
0300
0000
,  // measure 31
0010
0000
0020
0000
,  // measure 32
0030
0000
0000
0000
,  // measure 33
1000
0000
0000
0000
,  // measure 34
0010
0000
0000
0000
,  // measure 35
0100
0000
0000
0000
,  // measure 36
0001
0000
0000
0000
,  // measure 37
1000
0000
0000
0000
,  // measure 38
0100
0000
0000
0000
,  // measure 39
0010
0000
0000
0000
,  // measure 40
0001
0000
0000
0000
,  // measure 41
2000
0000
3000
0000
,  // measure 42
0002
0000
0003
0000
,  // measure 43
0200
0000
0300
0000
,  // measure 44
0020
0030
2002
3003
,  // measure 45
0002
0000
0003
0000
,  // measure 46
2000
0000
3000
0000
,  // measure 47
0001
0000
0100
0000
,  // measure 48
0010
0000
1000
0000
,  // measure 49
0002
0000
0003
0000
,  // measure 50
1000
0000
0001
0000
,  // measure 51
2000
0000
3000
0000
,  // measure 52
0100
0000
0010
0000
,  // measure 53
0002
0000
0003
0000
,  // measure 54
2000
0000
3000
0000
,  // measure 55
0010
0000
0100
0000
,  // measure 56
0002
0000
0003
0000
,  // measure 57
0020
0000
0030
0000
,  // measure 58
0100
0000
0200
0000
,  // measure 59
0300
0000
0000
0000
,  // measure 60
1000
0000
0000
0000
,  // measure 61
0010
0000
0000
0000
,  // measure 62
0100
0000
0000
0000
,  // measure 63
0001
0000
0000
0000
,  // measure 64
1000
0000
0000
0000
,  // measure 65
0100
0000
0000
0000
,  // measure 66
0010
0000
0000
0000
,  // measure 67
0001
0000
0000
0000
,  // measure 68
0200
0000
0000
0000
,  // measure 69
0000
0000
0000
0300
;
