#VERSION:0.83;
#TITLE:Swalla;
#SUBTITLE:feat. Nicki Minaj & Ty Dolla $ign;
#ARTIST:Jason Derulo;
#TITLETRANSLIT:;
#SUBTITLETRANSLIT:;
#ARTISTTRANSLIT:;
#GENRE:;
#ORIGIN:;
#CREDIT:;
#BANNER:[ZIv Academy III] - Swalla.png;
#BACKGROUND:[ZIv Academy III] - Swalla-bg.png;
#PREVIEWVID:;
#JACKET:[ZIv Academy III] - Swalla-jacket.png;
#CDIMAGE:;
#DISCIMAGE:;
#LYRICSPATH:;
#CDTITLE:;
#MUSIC:[ZIv Academy III] - Swalla.ogg;
#OFFSET:0.580000;
#SAMPLESTART:99.828003;
#SAMPLELENGTH:15.000000;
#SELECTABLE:YES;
#BPMS:0.000=98.000,
97.000=49.000,
99.000=98.000;
#STOPS:48.750=1.837,
130.500=0.612,
140.000=0.612,
153.750=1.837;
#DELAYS:;
#WARPS:;
#TIMESIGNATURES:0.000=4=4;
#TICKCOUNTS:0.000=4;
#COMBOS:0.000=1;
#SPEEDS:0.000=1.000=0.000=0;
#SCROLLS:0.000=1.000;
#FAKES:;
#LABELS:0.000=Song Start;
#BGCHANGES:0.750=[ZIv Academy III] - Swalla.avi=1.000=0=0=0=StretchNoLoop====,
99999=-nosongbg-=1.000=0=0=0 // don't automatically add -songbackground-
;
#KEYSOUNDS:;
#ATTACKS:
;

//---------------dance-single - ----------------
#NOTEDATA:;
#CHARTNAME:;
#STEPSTYPE:dance-single;
#DESCRIPTION:;
#CHARTSTYLE:;
#DIFFICULTY:Challenge;
#METER:9;
#RADARVALUES:0.585920,0.614399,0.408510,0.302297,0.588255,502.000000,452.000000,50.000000,37.000000,8.000000,0.000000,0.000000,0.000000,0.000000,0.585920,0.614399,0.408510,0.302297,0.588255,502.000000,452.000000,50.000000,37.000000,8.000000,0.000000,0.000000,0.000000,0.000000;
#CREDIT:;
#NOTES:
0000
0000
0000
0000
,
0000
0000
0000
0000
,
0000
0000
0000
0000
,
0000
0000
0000
0000
,
1100
0000
1001
0000
1100
0000
1010
0000
0100
0001
0100
0001
0010
0100
0010
0001
,
1000
0000
0000
0010
0001
0000
0010
1000
0002
0000
0013
0000
0200
0000
1300
0000
,
0010
0000
0000
0010
0100
1000
0100
0000
0001
0000
1000
0000
0020
0000
0130
0000
,
0001
0000
0000
0010
0200
0000
0310
0001
2000
0000
3010
0100
0000
0001
0000
0001
,
1000
0000
1100
0000
0010
0000
0110
0000
0001
1000
0001
1000
0100
0010
0100
1000
,
0002
0000
1003
0010
0100
0000
0010
0000
0110
0000
0001
0000
1000
0010
0001
0000
,
0020
0000
1030
0001
0010
0000
0100
0000
0110
0000
0001
0000
1010
0000
0010
0100
,
0002
0000
1003
0100
0001
0000
0100
0000
0110
0000
0001
0100
0020
0000
1030
0000
,
1001
0000
0000
1001
1000
0100
1000
0001
0100
0000
0010
1000
0001
0000
0010
1000
,
0020
0000
0000
0000
0130
0000
0000
0000
1000
0000
0000
0000
0000
0000
0001
0000
0010
0000
0000
0000
0001
0000
0000
0000
1000
0000
0000
0010
0000
0000
0010
0000
,
0002
0000
0000
0000
0103
0000
0000
0000
0010
0000
0000
0000
0000
0000
1000
0000
0100
0000
0000
0000
1000
0000
0000
0000
0001
0000
0000
0100
0000
0000
0100
0000
,
2000
0000
3010
0000
1001
0000
0101
0000
1100
0000
1001
0000
0001
0100
0001
0100
,
0010
1000
0100
0010
0001
0010
0001
1000
0010
0000
0100
0001
1000
0000
0100
0001
,
0200
0000
0000
0000
0320
0000
0000
0000
0031
0000
0000
0000
0000
0000
1000
0000
0100
0000
0000
0000
1000
0000
0000
0000
0001
0000
0000
0100
0000
0000
0100
0000
,
2000
0000
0000
0000
3020
0000
0000
0000
0130
0000
0000
0000
0000
0000
0001
0000
0010
0000
0000
0000
0001
0000
0000
0000
1000
0000
0000
0010
0000
0000
0010
0000
,
0002
0000
0103
0000
1001
0000
1010
0000
0011
0000
1001
0000
1000
0010
1000
0010
,
0100
0001
0010
0100
1000
0000
0100
1000
0010
0000
0001
0000
0010
1000
0100
0000
,
0001
0000
0100
0000
1000
0000
0000
1000
0001
0000
0110
0000
0001
0000
0000
0001
,
1000
0000
0110
0000
1000
0000
0010
1000
0100
0000
0001
0000
0100
1000
0010
0000
,
0001
0000
0010
0000
1000
0000
0000
1000
0001
0000
0110
0000
0001
0000
0110
0000
,
0001
0010
0100
0000
1001
0000
0000
0000
0000
0000
0000
0000
1000
0100
0010
0100
,
0001
0100
0010
0001
0010
0000
0010
0001
0100
0010
0001
0010
1000
0100
0010
1000
,
0010
0100
1000
0200
0000
0300
1000
0001
0010
0100
1000
0100
1100
0000
1001
0000
,
0101
0000
1001
0000
1000
0100
1000
0100
0010
0001
0100
0010
1000
0100
0010
0000
,
0100
0000
0000
0000
0001
0000
0100
0000
1000
0000
0000
0001
0000
0000
0100
0000
0010
0000
0000
0000
0010
0000
0100
0000
0001
0000
0010
0000
0100
0000
0000
0000
,
0010
0000
0000
0000
1000
0000
0010
0000
0001
0000
0000
1000
0000
0000
0010
0000
0100
0000
1000
0000
0001
0000
1000
0000
0100
0000
0000
0000
0001
0000
0000
0000
,
0010
0000
0000
0000
1000
0000
0010
0000
0001
0000
0000
1000
0000
0000
0010
0000
0100
0000
0000
0000
0010
0000
1000
0000
1010
0000
0000
0000
1001
0000
0000
0000
,
0011
0000
1001
0000
1000
0010
1000
0010
0100
0001
0010
0100
1000
1000
0010
0001
,
0010
0100
1000
0100
0020
0000
0130
0010
1000
0000
0101
0001
1000
0000
1000
0100
,
0010
0000
1000
0010
0100
0000
1000
0000
0001
0001
0100
0010
0001
0010
1000
0000
,
0100
0000
0010
1000
0010
0000
0100
0000
1100
0000
1001
0000
0101
0000
1001
0000
,
MMMM
0000
0000
0000
2000
0000
3001
0100
0010
0000
0100
0000
0110
0000
1000
0000
,
0001
0100
1000
0000
0200
0000
0301
1000
0100
0000
0010
0000
0110
0000
1000
0000
,
0101
0000
0100
0010
2000
0000
3001
0010
1000
0000
0010
0000
0110
0000
1000
0010
,
0200
0000
0301
0000
1001
0000
0000
1001
0001
0010
0001
1000
0010
0000
0100
0001
,
1000
0000
0100
0001
0200
0000
0320
0000
0031
0000
0000
1000
0100
0000
1000
0000
,
0001
0000
0000
0100
0000
0000
0100
0000
2000
0000
0000
0000
3020
0000
0000
0000
0130
0000
0000
0000
0000
0000
0001
0000
0010
0000
0000
0000
0001
0000
0000
0000
,
1000
0000
0000
0010
0000
0000
0010
0000
0002
0000
0000
0000
0103
0000
0000
0000
1001
0000
0000
0000
1010
0000
0000
0000
0011
0000
0000
0000
1001
0000
0000
0000
,
1000
0010
1000
0010
0100
0001
0010
0100
1000
0000
0100
1000
0010
0000
0001
0000
,
0010
0000
0000
1000
0000
0000
0100
0000
0020
0000
0000
0000
1000
0000
0000
0000
0130
0000
0000
0000
1000
0000
0100
0000
0020
0000
0000
0000
0032
0000
0000
0000
,
2003
0000
3010
0001
0020
0000
2030
0000
3001
0000
0010
0001
0100
0000
1000
0000
,
0100
0000
0000
0001
0000
0000
0010
0000
0200
0000
0000
0000
0001
0000
0000
0000
0310
0000
0100
0000
0010
0000
0001
0000
1000
0000
0010
0000
0001
0000
0010
0000
,
0100
0001
1000
0100
0110
0000
2100
0000
0002
0000
0000
0000
0000
0000
3003
0000
,
MMMM
0000
0000
0000
;

//---------------dance-single - ----------------
#NOTEDATA:;
#CHARTNAME:;
#STEPSTYPE:dance-single;
#DESCRIPTION:;
#CHARTSTYLE:;
#DIFFICULTY:Medium;
#METER:5;
#RADARVALUES:0.341981,0.363829,0.130723,0.171574,0.008170,293.000000,277.000000,16.000000,21.000000,0.000000,0.000000,0.000000,0.000000,0.000000,0.341981,0.363829,0.130723,0.171574,0.008170,293.000000,277.000000,16.000000,21.000000,0.000000,0.000000,0.000000,0.000000,0.000000;
#CREDIT:;
#NOTES:
0000
0000
0000
0000
,
0000
0000
0000
0000
,
0000
0000
0000
0000
,
0000
0000
0000
0000
,
1000
1000
0100
0100
0001
0001
0001
0001
,
0001
0000
0100
1000
0010
1000
0200
0000
,
0310
0000
0001
0100
0010
0100
0002
0000
,
1003
0000
0100
0000
0010
0001
1000
0000
,
0100
0100
0001
0001
0010
0010
0010
0010
,
1000
1000
1000
0000
0011
0000
0100
0010
,
0001
0001
0001
0000
1010
0000
0100
0010
,
1000
1000
1000
0000
0110
0000
0010
1000
,
0100
0000
0000
0110
0001
0000
0010
0000
1000
0000
0000
0000
0001
0000
0100
0000
,
2000
0000
3001
0000
0110
0000
1000
0100
,
0200
0000
0301
0000
0110
0000
0001
0010
,
0020
0000
1030
1000
0100
0100
0001
0001
,
0001
0001
1000
0100
0001
0000
1000
0010
,
0002
0000
1003
0000
0110
0000
0001
0010
,
0020
0000
1030
0000
0110
0000
1000
0100
,
0200
0000
0301
0001
0010
0010
1000
1000
,
1000
1000
0001
0010
0100
0010
0001
0010
,
0200
0000
1300
0010
0100
0010
1000
0010
,
0200
0000
0301
1000
0100
1000
0001
1000
,
0200
0000
0310
0001
0100
0010
1000
0100
,
0001
0002
1003
0000
0000
0000
0100
0000
,
0100
1000
0001
0000
0001
0100
0010
0000
,
0010
0100
0001
0000
0001
0010
0100
0100
,
1000
1000
0001
0001
0001
0001
1000
0100
,
0001
0000
0100
1000
0010
0000
0100
0001
,
0010
1000
0010
0010
0010
0000
0001
1000
,
0010
0000
0100
0001
1000
0000
0001
0001
,
0010
0010
0100
0100
0100
0100
1000
0100
,
0001
0100
1000
0100
0001
0110
0001
0100
,
1000
0100
0001
1001
1000
1000
0100
0000
,
0001
0001
0010
0000
1000
1000
0100
0100
,
0020
0030
0000
0000
0000
0000
0000
0000
0000
0000
0000
0000
0000
0000
0000
0000
0001
0000
0000
0000
0000
0000
0000
0000
0001
0000
0000
0000
0000
0000
0000
0000
0001
0000
0000
0000
0000
0000
0000
0000
0000
0000
0000
0000
0000
0000
0000
0000
1100
0000
0000
0000
0000
0000
0000
0000
0000
0000
0000
0000
0000
0000
0000
0000
,
0010
0100
1000
1000
1000
0000
0101
0000
,
0010
0100
0001
0001
0001
0000
0110
0000
,
0100
0000
0001
0000
0010
0000
0000
0110
1000
0000
0100
0000
0001
0000
0000
0000
,
1000
0010
0002
0000
1003
0000
0110
0000
,
0001
0010
0020
0000
1030
0000
0110
0000
,
1000
0100
0200
0000
0301
0001
0010
0010
,
1000
1000
1000
1000
0001
0010
0100
0010
,
0001
0010
0200
0000
1300
0010
0100
0010
,
1000
0010
0200
0000
0301
1000
0100
1000
,
0001
1000
0200
0000
0310
0001
0100
0010
,
1000
0100
0001
0002
2000
0000
0000
3003
;

//---------------dance-single - ----------------
#NOTEDATA:;
#CHARTNAME:;
#STEPSTYPE:dance-single;
#DESCRIPTION:;
#CHARTSTYLE:;
#DIFFICULTY:Hard;
#METER:7;
#RADARVALUES:0.487878,0.479999,0.375829,0.179744,0.326808,418.000000,372.000000,46.000000,22.000000,0.000000,0.000000,0.000000,0.000000,0.000000,0.487878,0.479999,0.375829,0.179744,0.326808,418.000000,372.000000,46.000000,22.000000,0.000000,0.000000,0.000000,0.000000,0.000000;
#CREDIT:;
#NOTES:
// measure 0
0000
0000
0000
0000
,  // measure 1
0000
0000
0000
0000
,  // measure 2
0000
0000
0000
0000
,  // measure 3
0000
0000
0000
0000
,  // measure 4
1000
0100
0001
0100
1100
0101
0011
1010
,  // measure 5
0100
0000
0000
0010
1000
0000
1001
0000
0001
0000
0000
1000
0100
0000
0110
0000
,  // measure 6
0010
0000
0000
0100
1000
0000
1001
0000
0001
0000
0000
1000
0010
0000
0110
0000
,  // measure 7
0100
0000
0000
0010
1000
0000
0001
0010
0100
0000
0010
0001
0000
0010
0000
0001
,  // measure 8
1000
0010
0001
0010
1010
0011
0101
1100
,  // measure 9
0001
0000
0010
0100
0000
0010
0001
0000
0001
0000
0100
0010
0000
0100
0001
0000
,  // measure 10
1000
0000
0100
0010
0000
0100
1000
0000
1000
0000
0010
0100
0000
0010
1000
0100
,  // measure 11
0010
0000
0100
1000
0000
0100
0010
0000
0010
0000
0100
0000
0010
0000
0002
0000
,  // measure 12
1003
0000
0000
1001
0001
0000
0100
0000
1000
0000
0010
0000
1000
0000
0100
0000
,  // measure 13
0002
0000
0000
0000
0000
0000
0000
0000
1003
0000
0000
0000
0000
0000
0000
0000
0011
0000
0000
0000
0000
0000
0000
0000
0001
0000
0000
1000
0000
0000
0100
0000
,  // measure 14
0020
0000
0000
0000
0000
0000
0000
0000
0130
0000
0000
0000
0000
0000
0000
0000
0011
0000
0000
0000
0000
0000
0000
0000
0010
0000
0000
0001
0000
0000
1000
0000
,  // measure 15
0020
0130
0001
0010
1000
0010
0011
1010
,  // measure 16
1100
0101
1000
0010
0001
0100
0001
0010
,  // measure 17
2000
0000
0000
0000
0001
0000
0000
0000
3001
0000
0000
0000
0000
0000
0000
0000
1100
0000
0000
0000
0000
0000
0000
0000
1000
0000
0000
0001
0000
0000
0010
0000
,  // measure 18
0200
0000
0000
0000
0010
0000
0000
0000
0310
0000
0000
0000
0000
0000
0000
0000
1100
0000
0000
0000
0000
0000
0000
0000
0100
0000
0000
1000
0000
0000
0001
0000
,  // measure 19
0200
0010
0301
0010
1000
0010
0011
1010
,  // measure 20
1100
0000
0101
0000
1000
0000
0001
0010
0100
0000
1000
0000
0010
0001
0010
0000
,  // measure 21
2000
0000
0001
0000
3001
0000
1000
0100
0010
0000
0001
0000
0100
1000
0100
0000
,  // measure 22
0002
0000
1000
0000
1003
0000
0100
0010
0001
0000
0100
0000
0010
1000
0100
0000
,  // measure 23
0002
0000
0100
0000
0103
0000
0010
0100
1000
0000
1010
0000
0100
0001
0010
0000
,  // measure 24
2010
0000
3010
0001
1000
0000
0000
0000
0000
0000
0000
0000
0001
0000
0000
1000
,  // measure 25
0100
0000
1000
0000
0010
0000
0000
0100
0001
0000
0010
0000
0100
0000
0000
0010
,  // measure 26
0001
0000
0100
0000
0010
0000
0000
1000
0100
0000
1000
0000
0010
0000
0001
0000
,  // measure 27
0010
0000
1000
0000
1100
0000
0101
0000
0011
0000
1010
0000
0001
0010
0100
0000
,  // measure 28
1000
0000
0000
0000
0010
0000
0000
0000
0001
0000
0000
0010
0000
0000
1000
0000
0001
0000
0000
0000
0001
0000
0000
0000
1000
0000
0100
0000
0010
0000
0000
0000
,  // measure 29
0001
0000
0000
0000
0100
0000
0000
0000
1000
0000
0000
0100
0000
0000
0001
0000
1000
0000
0000
0000
1000
0000
0000
0000
0001
0000
0000
0000
0010
0000
0000
0000
,  // measure 30
0100
0000
0000
0000
0010
0000
0000
0000
0001
0000
0000
0001
0000
0000
0100
0000
0010
0000
0000
0000
1000
0000
0000
0000
0100
0000
0000
0000
0001
0000
0000
0000
,  // measure 31
0100
0000
1000
0000
1010
0000
0011
0000
0101
0000
1100
0000
0001
0100
0001
0000
,  // measure 32
1000
0000
0100
0000
0001
0000
1000
0010
0001
0000
1001
0000
1000
0000
0010
0000
,  // measure 33
0001
0000
1000
0100
0001
0000
1001
0000
0001
0010
0001
0000
0010
0000
0100
0000
,  // measure 34
1000
0000
0010
1000
0010
0000
0100
0000
0001
0000
0010
0000
1000
0000
0010
0000
,  // measure 35
0002
0003
0000
0000
0000
0000
0000
0000
0000
0000
0000
0000
0000
0000
0000
0000
1000
0000
0000
0000
0000
0000
0000
0000
0100
0000
0000
0000
0010
0000
0000
0000
0000
0000
0000
0000
0100
0000
0000
0000
1000
0000
0000
0000
0000
0000
0000
0000
1000
0000
0000
0000
0000
0000
0000
0000
0010
0000
0000
0000
0100
0000
0000
0000
,  // measure 36
0000
0010
1000
0000
0001
0000
0010
0100
0000
0010
0001
0000
0001
0000
0100
0010
,  // measure 37
0000
0100
0001
0010
0100
0000
0010
0001
0000
0010
0100
0000
0100
0000
0010
0000
,  // measure 38
0100
0000
2000
0000
3001
0000
0000
1001
1000
0000
0010
0000
0001
0000
0100
0000
,  // measure 39
0001
0010
2000
0001
3001
0000
1100
0000
,  // measure 40
1000
0000
0000
0001
0000
0000
0010
0000
0200
0000
0000
0000
0010
0000
0000
0000
0310
0000
0000
0000
0000
0000
0000
0000
1100
0000
0000
0000
0000
0000
0000
0000
,  // measure 41
0100
0000
0000
1000
0000
0000
0001
0000
0200
0000
0000
0000
0010
0000
0000
0000
0301
0000
0000
0000
0010
0000
0000
0000
1000
0000
0000
0000
0010
0000
0000
0000
,  // measure 42
0011
0000
1010
0000
1100
0000
0101
0000
1000
0000
0001
0010
0100
0000
1000
0000
,  // measure 43
0010
0001
0010
0000
2000
0000
0001
0000
3001
0000
1000
0100
0010
0000
0001
0000
,  // measure 44
0100
1000
0100
0000
0002
0000
1000
0000
1003
0000
0100
0010
0001
0000
0100
0000
,  // measure 45
0010
1000
0100
0000
0002
0000
0100
0000
0103
0000
0010
0100
1000
0000
1010
0000
,  // measure 46
0100
0001
0010
0000
2010
0000
3010
0002
2000
0000
0000
0000
0000
0000
3003
0000
,  // measure 47
0100
0000
0000
0000
;

//---------------dance-single - ----------------
#NOTEDATA:;
#CHARTNAME:;
#STEPSTYPE:dance-single;
#DESCRIPTION:;
#CHARTSTYLE:;
#DIFFICULTY:Easy;
#METER:3;
#RADARVALUES:0.235769,0.248936,0.098042,0.122553,0.008170,202.000000,190.000000,12.000000,15.000000,0.000000,0.000000,0.000000,0.000000,0.000000,0.235769,0.248936,0.098042,0.122553,0.008170,202.000000,190.000000,12.000000,15.000000,0.000000,0.000000,0.000000,0.000000,0.000000;
#CREDIT:;
#NOTES:
0000
0000
0000
0000
,
0000
0000
0000
0000
,
0000
0000
0000
0000
,
0000
0000
0000
0000
,
0001
0000
1000
0000
0001
1000
0001
1000
,
0001
0100
1000
0010
,
0001
0010
1000
0100
,
0001
0010
1000
0010
,
0001
0000
1000
0000
0001
1000
0001
1000
,
0001
0000
0100
0010
0010
0000
0100
0000
,
0001
0000
1000
0001
0001
0000
1000
0000
,
0100
0000
0010
0100
0100
0000
0010
0000
,
0001
0000
0000
0001
1000
0000
0000
0000
0010
0000
0000
0000
0001
0000
0000
0000
,
0200
0300
1000
1001
,
0110
0000
0001
1001
,
0110
0000
0001
0000
1000
0000
0001
1000
,
0001
1000
0001
0000
0100
0000
1000
0000
,
0020
0032
1003
1001
,
0110
2000
3001
1001
,
0110
0000
1000
0000
0001
0000
1000
0001
,
1000
0001
1000
0000
0100
0000
0010
0000
,
2000
3001
0100
0010
,
0002
1003
0010
0100
,
2000
0000
3001
0000
0010
0100
0000
0100
,
0000
0002
0003
0000
0000
0000
1000
0000
,
0001
1000
1000
0100
,
0010
0100
0100
0010
,
0100
0000
0010
0100
0010
0100
0010
0000
,
0001
0100
0100
0010
,
0100
0001
0001
0001
,
0010
0100
0100
0010
,
0100
0000
0010
0100
0010
0100
0010
0000
,
0010
0100
1000
1000
,
0001
0100
0010
1000
,
0100
0010
0001
1000
,
0001
0000
1000
0000
0010
0100
0100
0000
,
0010
0000
1000
0000
0001
1000
1000
0000
,
0001
0000
0010
0000
0100
0010
0010
0000
,
0100
0000
0000
0000
1000
0000
0000
1000
0001
0000
0000
0000
0100
0000
0000
0000
,
1000
0020
0032
1003
,
1001
0110
2000
3001
,
1001
0110
1000
0001
,
1000
0001
1000
0001
1000
0000
0100
0000
,
0010
2000
3001
0100
,
0010
0002
1003
0010
,
0100
2000
3100
0001
,
1000
0000
0100
0020
0000
0000
0000
0030
;

//---------------dance-single - ----------------
#NOTEDATA:;
#CHARTNAME:;
#STEPSTYPE:dance-single;
#DESCRIPTION:;
#CHARTSTYLE:;
#DIFFICULTY:Beginner;
#METER:1;
#RADARVALUES:0.093374,0.114893,0.016340,0.008170,0.000000,80.000000,78.000000,2.000000,1.000000,0.000000,0.000000,0.000000,0.000000,0.000000,0.093374,0.114893,0.016340,0.008170,0.000000,80.000000,78.000000,2.000000,1.000000,0.000000,0.000000,0.000000,0.000000,0.000000;
#CREDIT:;
#NOTES:
0000
0000
0000
0000
,
0000
0000
0000
0000
,
0000
0000
0000
0000
,
0000
0000
0000
0000
,
0000
0000
0000
0000
,
0100
0000
0010
0000
,
0100
0000
1000
0000
,
0010
0000
0100
0000
,
0001
0000
0001
0000
,
0001
0000
0000
0000
,
1000
0000
0000
0000
,
0001
0000
0000
0000
,
1001
0000
1000
0000
,
0001
0000
0000
1000
,
1000
0000
0000
0001
,
0001
0001
0000
0010
,
0000
0000
0001
0000
,
1000
0000
0000
0001
,
0001
0000
0000
1000
,
1000
1000
0000
0010
,
0000
1000
0000
0001
,
0000
1000
0000
0100
,
0000
0010
0000
0001
,
0000
0100
0000
0100
,
0000
0100
0000
0000
,
0001
0000
0001
0000
,
1000
0000
0000
1000
,
0000
1000
0000
1000
,
0000
0001
0000
0010
,
0000
1000
0000
0100
,
0000
0001
0000
0010
,
0000
0010
0000
0010
,
0000
0100
0000
0000
,
0100
0000
1000
0000
,
0001
0000
1000
1000
,
0000
1000
0000
0000
,
0000
0001
0000
0000
,
0000
1000
0000
0000
,
0000
1001
0000
0001
,
0000
1000
0000
0000
,
0001
0001
0000
0000
,
1000
1000
1000
0000
,
0010
0000
1000
0000
,
0001
0000
1000
0000
,
0100
0000
0010
0000
,
0001
0000
0100
0000
,
0100
0000
0000
0000
0200
0000
0000
0300
;
