#TITLE:四月の雨;
#SUBTITLE:;
#ARTIST:cubesato;
#TITLETRANSLIT:Shigatsu no Ame;
#SUBTITLETRANSLIT:;
#ARTISTTRANSLIT:;
#GENRE:;
#CREDIT:;
#BANNER:[ZIv Academy III] - Shigatsu no Ame.png;
#BACKGROUND:[ZIv Academy III] - Shigatsu no Ame-bg.png;
#LYRICSPATH:;
#CDTITLE:;
#MUSIC:[ZIv Academy III] - Shigatsu no Ame.ogg;
#OFFSET:-0.057467;
#SAMPLESTART:91.176712;
#SAMPLELENGTH:15.189873;
#SELECTABLE:YES;
#BPMS:0.000000=79.000000
,40.000000=158.000000
,168.000000=79.000000
,184.000000=158.000000
,248.000000=79.000000
;
#STOPS:
;
#BGCHANGES:0.000=[ZIv Academy III] - Shigatsu no Ame.avi=1.000=0=0=0=StretchNoLoop==CrossFade_Fastest==,
99999=-nosongbg-=1.000=0=0=0 // don't automatically add -songbackground-
;
#KEYSOUNDS:;
#ATTACKS:;

//---------------dance-single - ----------------
#NOTES:
     dance-single:
     :
     Medium:
     6:
     0.401483,0.408383,0.239521,0.191617,0.000000,352.000000,322.000000,30.000000,24.000000,0.000000,0.000000,0.401483,0.408383,0.239521,0.191617,0.000000,352.000000,322.000000,30.000000,24.000000,0.000000,0.000000:
// measure 0
0000
0000
0000
0000
,  // measure 1
0000
0000
0000
0000
,  // measure 2
1000
0000
0010
0000
0100
0000
0001
1000
,  // measure 3
0001
0010
0100
1000
,  // measure 4
0001
0000
0100
0000
1000
0100
0001
0000
,  // measure 5
1000
0100
0001
0010
,  // measure 6
1000
0000
0100
0000
0010
0000
0001
1000
,  // measure 7
0001
0100
0010
1000
,  // measure 8
0002
0023
0230
2300
,  // measure 9
3002
0203
0320
1030
,  // measure 10
1000
0100
0010
0011
,  // measure 11
0001
0000
0100
0000
0010
1000
0010
0000
,  // measure 12
1000
0010
0100
0101
,  // measure 13
0001
0000
0010
0000
0100
1000
0100
1000
,  // measure 14
0001
0100
0010
1010
,  // measure 15
1000
0000
0100
0000
0010
0001
0010
0000
,  // measure 16
0001
0010
0100
1100
,  // measure 17
1000
0000
0010
0000
0100
0001
0100
0000
,  // measure 18
0001
0000
0011
0000
0010
0100
1000
0000
,  // measure 19
1000
0000
0010
0000
0100
0001
0100
0000
,  // measure 20
0001
0000
0101
0000
0100
0010
1000
0000
,  // measure 21
1000
0000
0100
0000
0010
0001
1000
0000
,  // measure 22
1000
0000
1010
0000
0010
0100
0001
0000
,  // measure 23
0001
0000
0010
0000
0100
1000
0100
0000
,  // measure 24
1000
0000
1100
0000
0100
0010
0001
0000
,  // measure 25
0001
0000
0100
0000
0010
1000
0001
0000
,  // measure 26
1000
0000
1010
0000
0010
0100
0001
0000
,  // measure 27
1000
0000
1100
0000
0100
0010
0001
0000
,  // measure 28
1000
0000
1001
0000
0001
0100
0010
0000
,  // measure 29
1000
0000
0100
0000
0010
0001
1000
0000
,  // measure 30
0001
0000
0011
0000
0010
0100
1000
0000
,  // measure 31
0001
0000
0101
0000
0100
0010
1000
0000
,  // measure 32
0001
0000
1001
0000
1000
0100
0010
0000
,  // measure 33
0001
0100
0010
0000
0100
0010
1000
0000
,  // measure 34
1000
1010
0010
0110
,  // measure 35
0100
0001
0100
0000
0001
0100
0001
0000
,  // measure 36
0010
0110
0100
1100
,  // measure 37
1000
0010
1000
0010
0100
0000
0101
0000
,  // measure 38
0001
0011
0010
0110
,  // measure 39
0100
1000
0100
0000
1000
0100
1000
0000
,  // measure 40
0010
0110
0100
0101
,  // measure 41
0001
0010
0001
0010
0100
0000
1100
0000
,  // measure 42
2000
0010
3002
0010
,  // measure 43
2003
0100
3002
0100
,  // measure 44
2003
0001
3020
1000
,  // measure 45
0230
0000
0010
0000
0302
0000
1003
0001
,  // measure 46
1000
0010
0100
0001
1000
0000
1001
0000
,  // measure 47
0001
0100
0010
1000
0010
0100
0001
0000
,  // measure 48
0001
0010
0100
1000
0001
0000
1001
0000
,  // measure 49
1000
0100
0010
0001
0010
0100
1000
0000
,  // measure 50
0001
0010
0100
1000
0001
0000
1001
0000
,  // measure 51
1000
0000
1100
0000
0100
0010
0001
0000
,  // measure 52
1000
0010
0100
0001
1000
0000
1001
0000
,  // measure 53
0001
0000
0101
0000
0100
0010
1000
0000
,  // measure 54
1000
0100
0010
0100
1000
0100
0001
0000
,  // measure 55
0100
0010
0001
0010
0100
1000
0000
1000
,  // measure 56
0001
0100
0010
0100
0001
0100
1000
0000
,  // measure 57
0100
0010
1000
0010
0100
0001
0020
0000
,  // measure 58
0130
0010
1000
0010
0001
0010
0100
0000
,  // measure 59
1000
0100
0001
0100
1000
0010
0100
0000
,  // measure 60
0001
0100
1000
0100
0001
0000
0010
0100
,  // measure 61
1000
0010
0001
0010
1000
0000
0010
0100
,  // measure 62
0002
0023
0230
2300
,  // measure 63
3020
0000
0000
0000
0230
0000
0000
0000
0302
0000
0000
0000
2003
0000
0000
3000
;

//---------------dance-single - ----------------
#NOTES:
     dance-single:
     :
     Easy:
     3:
     0.166524,0.204192,0.023952,0.239521,0.000000,146.000000,143.000000,3.000000,30.000000,0.000000,0.000000,0.166524,0.204192,0.023952,0.239521,0.000000,146.000000,143.000000,3.000000,30.000000,0.000000,0.000000:
// measure 0
0000
0000
0000
0000
,  // measure 1
0000
0000
0000
0000
,  // measure 2
0010
0000
0010
0000
,  // measure 3
0100
0000
0100
0000
,  // measure 4
1001
0000
1000
0000
,  // measure 5
0010
0000
0100
0000
,  // measure 6
0001
0000
0010
0000
,  // measure 7
0100
0000
1000
1000
,  // measure 8
0002
0000
0000
0000
,  // measure 9
0000
0000
0000
0003
,  // measure 10
1000
0000
1000
0000
,  // measure 11
0010
0000
0010
0000
,  // measure 12
0100
0000
0100
0000
,  // measure 13
0001
0010
0100
2000
,  // measure 14
0000
3000
1000
0000
,  // measure 15
0100
0000
0100
0000
,  // measure 16
0010
0000
0010
0000
,  // measure 17
0001
0100
0010
1000
,  // measure 18
0001
0000
0001
0000
,  // measure 19
0010
0000
0010
0000
,  // measure 20
0100
0000
0100
0000
,  // measure 21
1000
0010
0100
0002
,  // measure 22
0000
0003
0001
0000
,  // measure 23
0100
0000
0100
0000
,  // measure 24
0010
0000
0010
0000
,  // measure 25
1000
0000
1000
0000
,  // measure 26
1001
0000
0000
1000
,  // measure 27
0001
0000
0000
0001
,  // measure 28
0100
0000
0000
0100
,  // measure 29
0010
0000
0000
0010
,  // measure 30
1000
0000
0000
1000
,  // measure 31
0001
0000
0000
0001
,  // measure 32
0010
0000
0000
0010
,  // measure 33
0100
1000
0100
1000
,  // measure 34
0010
0000
0000
0010
,  // measure 35
0100
0000
0000
0100
,  // measure 36
0001
0000
0000
0001
,  // measure 37
1000
0000
0000
1000
,  // measure 38
0001
0000
0010
0001
,  // measure 39
0010
0000
0100
0010
,  // measure 40
0100
0000
1000
0100
,  // measure 41
1000
0100
0010
0001
,  // measure 42
2000
0000
3020
0000
,  // measure 43
0032
0000
0023
0000
,  // measure 44
2030
0000
3200
0000
,  // measure 45
0302
0203
0320
0030
,  // measure 46
0110
0000
0001
1000
,  // measure 47
0010
0000
0100
0010
,  // measure 48
1000
0000
0001
0010
,  // measure 49
0100
0000
0010
0010
,  // measure 50
0001
0010
0100
0010
,  // measure 51
0002
0003
2000
3000
,  // measure 52
0020
0030
0200
0300
,  // measure 53
0002
0003
2000
3000
,  // measure 54
0200
0000
0010
0000
,  // measure 55
1000
0000
0310
0010
,  // measure 56
0020
0000
0001
0000
,  // measure 57
0100
0000
0031
0000
,  // measure 58
1000
0010
0100
0001
,  // measure 59
2000
3000
0002
0003
,  // measure 60
0020
0000
0000
0030
,  // measure 61
0002
0000
0203
0000
,  // measure 62
0320
0000
2000
3000
0000
0000
0200
0300
,  // measure 63
0000
0000
0000
0000
0002
0000
0003
0000
0000
0000
0000
0000
0200
0000
0000
0330
;

//---------------dance-single - ----------------
#NOTES:
     dance-single:
     :
     Hard:
     9:
     0.583975,0.765719,0.223553,0.662675,0.407186,512.000000,484.000000,28.000000,83.000000,0.000000,0.000000,0.583975,0.765719,0.223553,0.662675,0.407186,512.000000,484.000000,28.000000,83.000000,0.000000,0.000000:
// measure 0
0000
0000
0000
0000
,  // measure 1
0000
0000
0000
0000
,  // measure 2
2000
0000
3200
0000
0302
0000
0203
0000
2300
0000
3001
0000
1001
0000
1000
0100
,  // measure 3
0010
0000
0001
0100
0010
0000
1000
0100
0001
0000
0100
0000
1000
0000
0001
0100
,  // measure 4
0001
0000
0010
0100
1000
0000
1000
0100
0010
0000
0100
0000
0110
0001
0000
0001
,  // measure 5
1000
0000
0001
0100
0010
0000
1000
0010
0100
0000
0001
1000
0002
0000
0003
0000
,  // measure 6
2000
0000
3020
0000
0032
0000
0023
0000
0130
0100
0000
0000
0010
0010
0000
1000
,  // measure 7
0001
0000
0010
0001
0010
0000
0100
0010
0100
0000
1000
0100
2000
0000
0002
3000
,  // measure 8
0010
0000
0000
0010
0000
0000
0023
0000
0100
0000
0000
0100
0000
0000
0230
0000
1000
0000
0000
1000
0000
0000
2300
0000
0010
0000
0000
0010
0000
0000
3020
0000
,  // measure 9
0100
0000
0000
0100
0000
0000
0230
0000
0001
0000
0000
0001
0000
0000
0302
0000
1000
0000
0000
1000
0000
0000
1003
0000
1001
0000
0000
0000
0000
0000
0000
0000
,  // measure 10
0001
0010
0100
0000
1000
0010
0100
0000
,  // measure 11
0001
0010
0100
0000
1000
0010
0100
0000
,  // measure 12
0001
0100
0010
0000
1000
0100
0010
0000
,  // measure 13
0001
0100
0001
0100
0001
0000
0001
0000
1000
0000
1000
0000
0020
0000
0000
0000
,  // measure 14
1000
1000
0230
0000
0301
0100
0010
0000
,  // measure 15
1000
0100
0010
0000
0001
0100
0010
0000
,  // measure 16
1000
0001
0010
0000
0001
1000
0010
0000
,  // measure 17
1000
0000
1000
0000
0200
0000
0300
0000
0100
0010
0100
0010
0200
0000
0000
0000
,  // measure 18
0001
0010
2000
0300
0100
0001
0020
3000
,  // measure 19
1000
0100
0002
0030
0010
1000
0020
0003
,  // measure 20
0001
0100
2000
0030
0010
0001
0200
3000
,  // measure 21
1000
0010
0301
0100
1000
0001
0001
0000
,  // measure 22
0100
0010
0220
0030
1000
0010
0002
0300
,  // measure 23
0010
0100
2000
0003
0001
0100
0020
3000
,  // measure 24
0001
0100
2000
0030
0010
0001
0200
3000
,  // measure 25
0302
2003
3020
0032
,  // measure 26
1003
0000
0000
0010
0000
0000
1000
0000
0010
0000
0000
0000
1010
0000
0000
0000
,  // measure 27
0100
0000
0000
0001
0000
0000
0100
0000
0001
0000
0000
0000
0101
0000
0000
0000
,  // measure 28
1000
0000
0000
0100
0000
0000
1000
0000
0100
0000
0000
0000
1100
0000
0000
0000
,  // measure 29
0010
0000
0000
0001
0000
0000
0010
0000
0001
0000
0000
0000
0011
0000
0000
0000
,  // measure 30
1000
0001
1002
0000
0010
0000
1003
0000
,  // measure 31
0010
0000
0000
0100
0000
0000
0010
0000
0100
0000
0000
0000
0110
0000
0000
0000
,  // measure 32
0010
0000
1000
0010
0001
1000
0200
0001
,  // measure 33
0320
0000
0100
0000
2030
0000
0100
0000
3001
0100
0010
1000
0001
0000
0000
0000
,  // measure 34
1000
0000
0000
0010
0000
0000
1000
0000
0001
0000
0010
0000
0011
0000
0000
0000
,  // measure 35
1100
0000
0000
0100
0000
0000
1000
0000
0001
0000
0100
0000
0101
0000
0000
0000
,  // measure 36
1010
0000
0000
0010
0000
0000
1000
0000
0001
0000
0100
0000
0110
0000
0000
0000
,  // measure 37
1001
0000
0000
0001
0000
0000
0010
0000
0100
0000
1000
0000
0022
0000
0033
0000
,  // measure 38
0100
1000
1100
0010
0001
0100
0101
0000
,  // measure 39
1100
1000
0010
0100
0001
0010
0011
0000
,  // measure 40
1010
0000
1000
0000
0100
0000
0010
0000
0001
0000
0100
0000
1000
0100
0010
0000
,  // measure 41
1000
0000
0100
0010
0001
0000
1000
0000
0010
0100
0010
0100
0020
0000
0000
0000
,  // measure 42
2030
0000
0000
0000
3200
0000
0000
0000
0010
0000
0000
0010
0000
0000
0310
0000
0002
0000
0000
0000
0203
0000
0000
0000
0010
0000
0000
0010
0000
0000
0310
0000
,  // measure 43
2000
0000
0000
0000
3002
0000
0000
0000
0100
0000
0000
0100
0000
0000
0103
0000
0002
0000
0000
0000
2003
0000
0000
0000
0100
0000
0000
0100
0000
0000
3100
0010
,  // measure 44
0002
0000
0000
0000
0203
0000
0000
0000
1300
0000
0000
0100
0000
0000
0001
0000
2000
0000
0000
0000
3200
0000
0000
0000
0301
0000
0000
0100
0000
0000
1000
0000
,  // measure 45
0001
0000
0000
0100
0000
0000
1000
0000
0001
0000
0000
0010
0000
0000
1000
0000
0001
0000
0000
0010
0000
0000
1000
0000
0020
0000
0000
0000
0031
0000
0000
0000
,  // measure 46
1002
0000
0000
0000
1003
0000
0010
0000
0100
0000
0001
0000
0010
0001
1000
0000
,  // measure 47
0200
0000
1300
0010
0100
0101
0000
0011
,  // measure 48
0200
0000
1300
0010
1000
0100
0010
0100
,  // measure 49
2000
0000
0000
0000
3002
0003
0020
0030
0200
0300
2000
3000
0020
0030
0200
0300
,  // measure 50
0001
1000
0110
0000
1000
0100
0001
0100
,  // measure 51
0020
0000
0000
0000
0031
0100
0001
0100
0001
0000
0010
0000
0001
0000
1000
0000
,  // measure 52
0020
0000
1030
0100
0001
0100
1000
0010
,  // measure 53
2000
0000
0000
0000
3010
0000
0010
0000
0100
0000
0100
0000
0001
0010
0100
1000
,  // measure 54
0002
0000
1003
0100
0010
1000
0010
0001
,  // measure 55
0200
0000
0310
0100
0001
1010
0000
1100
,  // measure 56
2000
0000
3001
1000
0200
0000
1300
0001
,  // measure 57
0020
0000
0000
0000
0130
0000
0010
0000
0002
0000
0000
0000
1003
0001
1000
0001
,  // measure 58
1000
0000
1000
0000
0010
0000
0010
1000
0100
0000
0100
0000
0001
0000
0001
0000
,  // measure 59
1000
0000
1000
0010
0000
0010
0001
0000
1000
0000
1000
0001
0000
0001
0100
0000
,  // measure 60
0010
0000
0010
1000
0000
1000
0001
0000
0010
0000
0010
0001
1000
0001
0100
0000
,  // measure 61
0001
0000
0010
0200
0000
0000
0310
0001
1000
0000
0010
0200
0000
0000
0310
1000
,  // measure 62
0001
0001
0010
0001
1000
0001
0200
0000
0310
0010
0001
0010
0100
0010
2000
0000
,  // measure 63
3100
0100
1000
0100
0010
0100
0002
0000
1003
1000
0100
1000
0001
1000
0010
0001
;

//---------------dance-single - ----------------
#NOTES:
     dance-single:
     :
     Challenge:
     11:
     0.775592,0.842290,0.063872,0.383234,1.005988,680.000000,672.000000,8.000000,48.000000,0.000000,0.000000,0.775592,0.842290,0.063872,0.383234,1.005988,680.000000,672.000000,8.000000,48.000000,0.000000,0.000000:
// measure 0
0000
0000
0000
0000
,  // measure 1
0000
0000
0000
0000
,  // measure 2
2000
0000
0000
0000
0100
0000
0000
0000
3002
0000
0000
0000
0010
0000
0000
0000
1003
0000
0000
0000
0010
0100
0010
0100
0010
0000
0000
0000
1000
0000
1000
0000
,  // measure 3
0001
0000
0000
0000
0100
0000
0001
0000
0010
0000
0000
0000
0110
0000
0000
0000
1000
0000
0000
0000
0001
0000
0010
0000
1000
0000
0010
0000
0001
1000
0001
1000
,  // measure 4
0002
0000
0010
1000
0203
0010
0320
0100
2030
0000
0100
0001
3010
1010
0000
0101
,  // measure 5
0200
0000
1000
0010
0302
0000
0100
1000
0023
0000
0001
0100
2030
0000
3010
0001
,  // measure 6
2000
0000
0000
0000
0010
0000
3020
0000
0001
0000
0032
0000
1000
0000
2003
0000
0100
0000
3100
0000
0001
0100
0010
1000
0001
0000
0001
0000
1000
0000
0010
0000
,  // measure 7
0100
0000
0001
0010
1000
0010
0001
0100
0010
0000
1000
0010
0001
0010
1000
0002
,  // measure 8
0010
0010
1000
1000
0010
1000
2003
0000
0010
0010
0001
0001
0010
0001
3002
0000
,  // measure 9
0100
0100
1000
1000
0100
1000
2003
0000
0100
0001
3010
0001
1001
0000
0000
0000
,  // measure 10
1000
0000
0010
0100
0000
0000
0001
0000
1000
0000
0100
0010
0100
0000
0000
0000
,  // measure 11
1000
0000
0100
0010
0000
0000
0100
0000
1000
0000
0010
0100
0010
0000
1000
0000
,  // measure 12
0001
0000
0010
0100
0000
0000
1000
0000
0001
0000
0100
0010
0100
0000
0000
0000
,  // measure 13
0100
0000
0000
0001
0000
0000
0010
0000
0000
0100
0000
0000
0010
0000
0000
0100
0000
0000
0010
0000
0000
0000
0000
0000
0001
0000
0000
0000
0000
0000
0100
0000
0000
0000
0000
0000
0010
0000
1000
0000
0010
0000
1000
0000
0010
0000
1000
0000
,  // measure 14
0010
0000
1000
0001
0000
0000
0010
0000
0100
0000
1000
0001
1000
0000
0000
0000
,  // measure 15
0100
0000
1000
0001
0000
0000
0100
0000
0010
0000
1000
0001
1000
0000
0100
0000
,  // measure 16
0010
0000
0001
1000
0000
0000
0010
0000
0100
0000
0001
1000
0001
0000
0000
0000
,  // measure 17
0100
0000
0001
0000
1000
0010
1000
0010
0100
0001
0100
0001
1000
0000
0000
0000
,  // measure 18
0001
0000
0010
0100
0000
0000
1000
0010
1000
0000
0100
0000
0010
0000
0000
0000
,  // measure 19
0001
0000
0100
0010
0000
0000
1000
0100
1000
0000
0010
0000
0100
0000
0001
0000
,  // measure 20
1000
0000
0010
0100
0000
0000
0001
0010
0001
0000
0100
0000
0010
0000
0000
0000
,  // measure 21
1000
0000
0100
0010
0000
0000
0001
0100
0001
0000
0010
0000
0100
0000
1000
0000
,  // measure 22
0001
0000
0100
1000
0000
0000
0100
0010
0100
0000
0001
0000
0010
0000
0000
0000
,  // measure 23
0001
0000
0010
1000
0000
0000
0010
0100
0010
0000
0001
0000
0010
0000
0100
0000
,  // measure 24
1000
0000
0100
0001
0000
0000
0100
0010
0100
0000
1000
0000
0010
0000
0000
0000
,  // measure 25
1000
0000
0010
0001
0010
0000
0100
0010
0100
0000
0001
0000
0010
0000
0100
0000
,  // measure 26
1000
0000
0000
0010
0000
0000
1000
0010
0100
0000
0000
0001
0000
0000
0100
0001
,  // measure 27
0010
0000
0000
0001
0000
0000
0010
0001
1000
0000
0000
0100
1000
0100
0000
0100
,  // measure 28
1000
0000
0000
0001
0000
0000
1000
0001
0010
0000
0000
0100
0000
0000
0010
0100
,  // measure 29
1000
0000
0000
0000
0000
0000
0000
0000
0000
0010
0000
0000
0000
0000
0000
0000
0000
0000
0100
0000
0000
0010
0000
0000
0100
0000
0000
0001
0000
0000
0100
0000
0000
0000
0000
0000
0001
0000
0010
0000
0001
0000
0010
0000
0001
0000
0010
0000
,  // measure 30
0001
0000
1000
0000
1002
0000
0000
0000
0103
0000
0000
0010
0000
0000
1000
0010
,  // measure 31
0001
0000
0000
0010
0000
0000
1000
0100
0001
0000
0000
0100
0000
0000
1000
0001
,  // measure 32
0010
0000
0000
0010
0001
0100
0001
0100
0010
1000
0010
1000
0100
0010
0100
0010
,  // measure 33
0001
1000
0010
0100
0001
1000
0100
0010
0001
1000
0010
0100
0200
0000
0300
0000
,  // measure 34
1001
0000
0001
1000
0000
0000
0001
0010
0100
0000
0010
0100
0000
0000
1000
0100
,  // measure 35
0001
0000
0100
0001
0000
0000
0100
0010
0001
0000
0010
0001
0000
0000
0001
0100
,  // measure 36
1000
0000
0100
1000
0000
0000
0100
0010
1000
0000
0010
1000
0000
0000
1000
0010
,  // measure 37
0001
0000
0010
0001
0000
0000
0010
0100
0001
0000
1000
0000
0002
0000
0000
0000
,  // measure 38
0013
0000
0100
0000
0110
0000
0010
0100
1000
0000
0001
0100
0000
0100
0001
0000
,  // measure 39
0010
0000
0001
1000
0000
1000
0001
0000
0100
0000
0001
1000
0001
0000
1000
0000
,  // measure 40
0010
0000
0100
0000
1000
0000
0100
0001
0100
0000
0001
0100
0010
1000
0100
1000
,  // measure 41
0010
0000
1000
0000
0001
0000
0100
0000
0010
0010
0100
0100
0020
0000
0000
0000
,  // measure 42
0032
0000
0000
0010
0000
0000
2003
0000
0010
0000
0000
0001
0000
0000
3200
0000
1000
0000
0000
0001
0000
0000
0320
0000
0001
0000
0000
0100
0000
0000
2030
0000
,  // measure 43
0010
0000
0000
0100
0000
0000
3002
0000
0100
0000
0000
1000
0000
0000
0023
0000
0001
0000
0000
1000
0000
0000
0230
0000
1000
0000
0000
0010
0000
0000
0302
0000
,  // measure 44
0100
0000
0000
0010
0000
0000
2003
0000
0100
0000
0000
0001
0000
0000
3020
0000
1000
0000
0000
0001
0000
0000
0230
0000
0001
0000
0000
0010
0000
0000
2300
0000
,  // measure 45
0100
0000
0000
0010
0000
0000
3002
0000
0010
0000
0000
1000
0000
0000
0203
0000
0001
0000
0000
1000
0000
0000
0010
0000
0320
0000
0000
0000
0230
0000
0000
0300
,  // measure 46
0110
0000
0010
1000
0010
0000
0100
0000
0001
0000
1000
0000
0100
0010
0001
0000
,  // measure 47
0100
0000
0010
1000
0010
0000
0100
0000
0001
0000
1000
0000
0100
0010
0000
0010
,  // measure 48
0001
0000
0010
0001
0010
0000
0100
0000
1000
0000
0001
0100
0010
0000
1000
0000
,  // measure 49
0100
0000
0010
0001
0010
0000
0100
0000
1000
0010
1000
0010
0100
0001
0100
0001
,  // measure 50
2000
0100
3002
0010
1003
0010
0100
0001
,  // measure 51
2000
0000
0010
0000
3010
0100
0001
0100
0001
0000
1000
0000
0010
0100
0001
0000
,  // measure 52
2000
0100
3100
0010
0002
0100
0103
0010
,  // measure 53
1000
0000
1000
0000
0100
1000
0100
0010
0100
0010
0001
1000
0001
0010
0100
1000
,  // measure 54
0001
0000
0100
0000
0010
1000
0010
0000
0100
0000
0001
0000
0010
0100
0010
0000
,  // measure 55
0001
0000
1000
0000
0100
0010
0100
0010
0001
1000
0000
0010
0100
0000
0001
0000
,  // measure 56
1000
0000
0100
0000
0010
0001
0010
0000
0100
0000
1000
0000
0010
0100
0010
0000
,  // measure 57
1000
0000
0000
0000
0000
0000
0001
0000
0000
0000
0000
0000
0100
0000
0000
0010
0000
0000
0100
0000
0000
0010
0000
0000
1000
0000
0000
0000
0000
0000
0100
0000
0000
0000
0000
0000
0010
0000
0001
0000
0010
0000
0001
0000
0010
0000
0001
0000
,  // measure 58
0010
0000
0010
0100
1000
0000
1000
0010
0100
0000
0100
0001
0100
0001
1000
0000
,  // measure 59
0100
0010
0100
0010
0000
0010
0001
0000
1000
0010
1000
0010
0100
0001
0100
0000
,  // measure 60
0001
0000
0010
0001
1000
0010
1000
0000
0001
0000
0100
0010
1000
0100
0010
0001
,  // measure 61
1000
0100
1000
0100
0010
0000
0001
0010
0001
0100
0001
0100
0010
0000
0010
1000
,  // measure 62
0002
0100
0100
0010
1003
0100
0010
0001
2000
0100
0100
0010
3001
0100
0010
1000
,  // measure 63
0002
0010
0010
0100
1003
0010
0100
0001
2000
0010
0010
0100
3001
0010
0100
1000
;

//---------------dance-single - ----------------
#NOTES:
     dance-single:
     :
     Beginner:
     1:
     0.104933,0.127246,0.000000,0.015968,0.000000,92.000000,92.000000,0.000000,2.000000,0.000000,0.000000,0.104933,0.127246,0.000000,0.015968,0.000000,92.000000,92.000000,0.000000,2.000000,0.000000,0.000000:
// measure 0
0000
0000
0000
0000
,  // measure 1
0000
0000
0000
0000
,  // measure 2
0010
0000
0000
0000
,  // measure 3
0010
0000
0000
0000
,  // measure 4
0100
0000
0000
0000
,  // measure 5
0100
0000
0000
0000
,  // measure 6
0010
0000
0000
0000
,  // measure 7
0010
0000
0000
0000
,  // measure 8
0020
0000
0000
0000
,  // measure 9
0000
0000
0030
0000
,  // measure 10
1000
0000
0000
0000
,  // measure 11
1000
0000
0000
0000
,  // measure 12
0010
0000
0000
0000
,  // measure 13
0010
0000
0000
0000
,  // measure 14
0100
0000
0000
0000
,  // measure 15
0100
0000
0000
0000
,  // measure 16
0001
0000
0000
0000
,  // measure 17
0001
0000
0000
0000
,  // measure 18
0010
0000
0000
0000
,  // measure 19
0010
0000
0000
0000
,  // measure 20
0100
0000
0000
0000
,  // measure 21
0100
0000
0000
0000
,  // measure 22
1000
0000
0000
0000
,  // measure 23
1000
0000
0000
0000
,  // measure 24
0001
0000
0000
0000
,  // measure 25
0001
0000
0000
0000
,  // measure 26
1000
0000
0000
1000
,  // measure 27
1000
0000
0000
0100
,  // measure 28
0100
0000
0000
0100
,  // measure 29
0100
0000
0000
0010
,  // measure 30
0010
0000
0000
0010
,  // measure 31
0010
0000
0000
0001
,  // measure 32
0001
0000
0000
0001
,  // measure 33
0001
0000
0000
0100
,  // measure 34
0100
0000
0000
0100
,  // measure 35
0100
0000
0000
0010
,  // measure 36
0010
0000
0000
0010
,  // measure 37
0010
0000
0000
1000
,  // measure 38
1000
0000
0000
1000
,  // measure 39
1000
0000
0000
0001
,  // measure 40
0001
0000
0000
0001
,  // measure 41
0001
0000
0000
1000
,  // measure 42
1000
0000
0000
0000
,  // measure 43
0010
0000
0000
0000
,  // measure 44
0100
0000
0000
0000
,  // measure 45
0001
0000
0000
0000
,  // measure 46
1000
0000
0000
1000
,  // measure 47
1000
0000
0001
0000
,  // measure 48
0001
0000
0000
0001
,  // measure 49
0001
0000
0010
0000
,  // measure 50
0010
0000
0000
0010
,  // measure 51
0010
0000
0100
0000
,  // measure 52
0100
0000
0000
0100
,  // measure 53
0100
0000
1000
0000
,  // measure 54
1000
0000
0000
1000
,  // measure 55
1000
0000
0001
0000
,  // measure 56
0001
0000
0000
0001
,  // measure 57
0001
0000
0100
0000
,  // measure 58
0100
0000
0000
0100
,  // measure 59
0100
0000
0010
0000
,  // measure 60
0010
0000
0000
0010
,  // measure 61
0010
0000
0010
0000
,  // measure 62
0020
0000
0000
0000
,  // measure 63
0000
0000
0000
0030
;
