#TITLE:"Schall" we step?;
#SUBTITLE:;
#ARTIST:red glasses;
#TITLETRANSLIT:;
#SUBTITLETRANSLIT:;
#ARTISTTRANSLIT:;
#GENRE:;
#CREDIT:;
#MENUCOLOR:;
#METERTYPE:DDR;
#BANNER:[ZIv Academy III] - Schall we step.png;
#BACKGROUND:[ZIv Academy III] - Schall we step-bg.png;
#LYRICSPATH:;
#CDTITLE:;
#MUSIC:[ZIv Academy III] - Schall we step.ogg;
#OFFSET:-5.873;
#SAMPLESTART:36.904;
#SAMPLELENGTH:10.787;
#SELECTABLE:YES;
#LISTSORT:;
#BPMS:0.000=178.000,212.000=89.000,228.000=178.000;
#STOPS:;
#BGCHANGES:;
#ATTACKS:;

//---------------dance-single - ----------------
#NOTES:
     dance-single:
     :
     Challenge:
     10:
     0.707,0.752,0.352,0.136,0.919:
0000
0000
0000
0000
,
0001
0010
0001
1000
,
0001
0100
0001
1000
,
0100
0010
0100
1000
,
0001
0000
0000
0010
0000
0000
0100
0000
0010
0001
0000
0000
,
2000
0000
0000
3000
,
0001
0000
0000
1000
0000
0010
0100
0010
0100
0010
0000
1000
,
0100
1000
0100
1000
0001
1000
0001
0100
0001
0100
0000
0000
,
0001
0000
0010
0001
0000
1000
0100
0010
0001
0010
0100
1000
,
0100
1000
0100
1000
0001
1000
0001
0100
0001
0010
0001
0010
,
0001
0000
0000
1000
0000
0010
0100
0010
0100
0010
0000
1000
,
0100
1000
0100
1000
0001
1000
0001
0100
0001
0100
0000
0000
,
0001
0000
0010
0001
0000
1000
0100
0010
0001
0010
0100
1000
,
0100
1000
0100
1000
0001
1000
0001
0100
0001
0010
0001
0010
,
0001
0000
0000
1000
0001
1000
0100
0000
0001
0000
0100
0000
,
1000
0000
0010
0000
0001
0000
0010
0000
2000
0000
3000
0000
,
1001
0000
0000
1000
0001
1000
0001
0000
0010
0000
1000
0000
,
0010
0000
0001
0000
0010
0000
0100
0000
1000
0000
1100
0000
,
2002
0000
3003
0001
0010
0001
0010
0100
0010
0100
1000
0100
,
0000
1100
0000
0100
0000
0110
0000
0000
0000
0010
0001
0010
,
0001
1000
0001
0100
0000
0101
0000
0110
0000
0010
0100
0010
,
2000
0000
0000
0000
0000
0000
3010
1000
0001
0010
0100
1000
,
0100
0010
0001
0010
0100
1000
0010
0000
0001
0000
0010
0000
,
1000
0000
0010
0100
0010
0100
0001
0100
0001
1000
0001
1000
,
0100
0000
1100
0000
0100
0000
0110
0000
0010
0000
0011
0000
,
0001
0000
0000
1000
0001
1000
0001
0100
0001
0100
0010
0100
,
0010
0000
0110
0000
0010
0000
1010
0000
1000
0000
1001
0000
,
0000
0000
0000
0001
0010
0100
2000
0000
3200
0000
0320
0000
,
0130
0010
0100
0020
0000
0000
0000
0000
0000
0031
0000
0010
,
0001
0000
1000
0001
1000
0001
1000
0010
1000
0010
0100
0010
,
0100
0000
0110
0000
0100
0000
0101
0000
0001
0000
1001
0000
,
0002
0000
0003
1000
0010
0001
0010
1000
0100
0010
0001
0010
,
0100
0000
1100
0000
1000
0000
1001
0000
0001
0100
0001
0100
,
0000
0000
0000
0010
0100
0010
1000
0000
0100
0000
0001
0000
,
0100
0000
0000
0000
1000
0000
0000
0000
0100
0000
0000
0000
2000
0000
0000
0000
0000
0000
0000
0000
0000
0000
0000
0000
3100
0000
0000
0000
0010
0000
0000
0000
0001
0000
0000
0000
0010
0000
0000
0001
0000
0000
0010
0000
0000
0001
0000
0000
,
1000
0001
0010
0001
0100
0001
0010
0100
,
1000
0001
0010
0001
1000
0100
0010
0100
,
1000
0100
1000
0100
0001
0100
0001
0100
,
1000
0010
1000
0100
0010
0001
0100
0001
,
0000
0000
1000
0001
0100
0010
0000
0100
,
0000
0100
0010
1000
0001
0010
0000
0001
,
1000
0100
0010
0000
0100
0010
0001
0000
,
1000
0001
1000
0000
0000
0000
0000
0000
,
0000
0001
0100
0010
1000
0010
0100
0001
,
0010
0001
0010
0100
0010
0001
1000
0010
,
0100
0010
1000
0010
1000
0001
0010
0001
,
1000
0001
0010
0001
1000
0010
1000
0001
,
0000
1000
0100
0010
0100
1000
0001
0100
,
0010
0100
0001
0010
0100
0010
0001
1000
,
0001
1000
1000
0000
0001
0001
0000
1000
,
0000
0010
0010
0000
0100
0100
0000
0010
,
0000
1000
1000
0000
0010
0010
0000
0100
,
0000
1001
0000
0110
0000
1001
1000
0000
,
0001
0000
0000
0100
0000
0000
0010
0000
1000
0100
0000
0010
0000
0000
0100
0000
,
0000
0000
0000
0000
0010
0001
0000
1000
0000
0000
0000
0001
0000
1000
0010
0000
,
1000
0000
0000
0001
0000
0000
0010
0000
0000
1000
0000
0000
0010
0001
0000
0000
,
1000
0000
0000
0001
0000
0000
0100
0010
1000
0001
0100
0000
0100
0010
0100
0010
,
1000
0000
0010
0100
0010
0100
0001
0100
0001
1000
0001
1000
,
0100
0000
1100
0000
0100
0000
0110
0000
0010
0000
0011
0000
,
0001
0000
0000
1000
0001
1000
0001
0100
0001
0100
0010
0100
,
0010
0000
0110
0000
0010
0000
1010
0000
1000
0000
1001
0000
,
0000
0000
0000
0001
0010
0100
2000
0000
3200
0000
0320
0000
,
0130
0010
0100
0020
0000
0000
0000
0000
0000
0031
0000
0010
,
0001
0000
1000
0001
1000
0001
1000
0010
1000
0010
0100
0010
,
0100
0000
0110
0000
0100
0000
0101
0000
0001
0000
1001
0000
,
1000
0000
0010
0001
0010
0001
0010
1000
0100
0010
0001
0010
,
0100
0000
1100
0000
1000
0000
1001
0000
0001
0100
0001
0100
,
0001
0100
1000
0100
,
0001
0010
0100
1000
0100
0010
0001
0010
0100
1000
0000
0000
,
1100
0100
0010
0001
,
1001
0001
0010
0100
,
1001
0001
0010
0100
,
1001
1000
0100
0010
,
0100
1000
0010
0000
0100
0001
0010
0000
,
0010
0001
0100
0000
0010
1000
0100
0000
,
0011
1100
1010
0101
,
1001
0110
1010
0101
,
0001
0000
0000
1000
0010
0000
0000
0100
0001
0000
0000
0001
0010
0000
0000
0100
,
1000
0000
0000
1000
0001
0000
0000
0001
1000
0000
0000
1000
0010
0000
0000
0010
,
0200
0000
0000
0000
,
0020
0000
0000
0000
,
0300
0000
0000
0030
;

//---------------dance-single - ----------------
#NOTES:
     dance-single:
     :
     Medium:
     7:
     0.441,0.588,0.152,0.152,0.236:
0000
0000
0000
0000
,
0001
1000
0001
1000
,
0010
0100
0010
0100
,
0001
0100
0010
1000
,
0001
0010
0100
1000
,
0100
0000
0000
0000
,
1000
0010
0100
0001
,
0010
0000
0000
0001
0000
0000
1000
0000
0001
0010
0000
0000
,
0100
0010
0001
0001
,
1000
0000
0000
0001
0000
0000
0100
0000
0010
1000
0000
0000
,
0100
1000
0001
1000
,
0010
0000
0000
0100
0000
0000
0001
0000
0010
0100
0000
0000
,
0010
0001
1000
0001
,
0100
0000
0000
0010
0000
0000
1000
0000
0001
1000
0000
1000
,
0100
0000
0000
1000
0100
1000
0001
0000
0000
0010
0000
0000
,
0001
1000
0000
0000
,
0100
0000
0000
0010
0001
1000
0001
0000
0000
0100
0000
0000
,
0001
1000
0100
1000
,
0010
0100
0001
0010
,
0000
0100
0000
1000
0000
0001
0000
0000
0000
0000
0000
0000
,
0000
1000
0000
0001
0000
0100
0000
0010
0000
2000
0000
0000
,
3010
0100
0001
0010
,
0001
0000
0000
1000
0000
0000
0100
0000
0010
0000
0000
0000
,
1001
0001
0010
0001
,
1000
0000
0100
0000
0010
0000
0100
0000
1000
0000
0001
0000
,
0100
0001
0010
0001
,
1000
0000
0001
0000
0010
0000
0001
0000
1000
0000
0100
0000
,
1000
0010
0100
0001
,
0010
1100
0000
1000
,
0001
0010
0100
0010
,
0001
0000
1000
0000
0010
0000
1000
0000
0001
0000
0010
0000
,
0100
0010
0001
1000
,
0010
0000
1000
0000
0100
0000
1000
0000
0001
0000
0100
0000
,
0010
1000
0001
0010
,
0100
0011
1000
0002
,
0103
0001
0010
0001
,
2000
3100
1000
0001
,
0100
0100
0010
0020
,
1030
0001
1000
0100
,
0000
0000
0010
0001
0010
0001
0000
0001
,
0000
1000
0001
1000
0001
1000
0000
1000
,
0001
0100
0001
0100
0010
1000
0100
1000
,
0001
0001
1000
0000
0000
0000
0000
0000
,
0001
0100
0010
1000
,
0010
0100
0001
0010
,
1000
0010
0100
1000
,
0100
0001
0100
0010
,
0001
1000
0010
1000
,
0001
0100
1000
0100
,
0000
0010
0100
0000
0010
0100
0000
0010
,
0000
1000
0001
0000
1000
0001
0000
1000
,
0000
0001
0100
0000
0010
1000
0000
0100
,
0000
0011
0000
1100
0000
0010
0200
0000
,
1300
0000
0000
0001
0000
0000
1000
0000
0001
1000
0000
0001
0000
0000
0010
0000
,
0000
0000
0000
0000
0100
0010
0000
0001
0000
0000
0000
0000
0000
0001
1000
0000
,
0001
0000
0000
0100
0000
0000
0010
0000
0000
1000
0000
0000
0010
0100
0000
0000
,
0001
0000
0000
1000
0000
0000
0001
0100
0010
1000
0000
0000
0000
0000
0000
0000
,
0100
0010
0001
1000
,
0010
0000
1000
0000
0001
0000
0010
0000
0001
0000
1000
0000
,
0100
1000
0001
0010
,
0100
0000
0010
0000
0001
0000
1000
0000
0010
0000
0100
0000
,
0001
0010
0100
0010
,
0001
1010
0000
1000
,
0001
0010
1000
0010
,
0100
0000
0010
0000
0001
0000
0010
0000
0100
0000
1000
0000
,
0001
0100
1000
0100
,
0010
1000
0001
0100
,
0001
1000
0100
1000
,
0010
0000
0010
0000
0100
0000
0100
0000
0010
0000
1000
0000
,
0002
0100
0100
0103
,
2000
0100
0100
3100
,
0002
0010
0010
0013
,
2000
0010
0010
3010
,
2000
3100
0020
0031
,
0002
0103
0200
0310
,
1100
1100
0101
0101
,
0011
0011
1010
1010
,
1002
0013
2010
3100
,
1020
0130
0102
0013
,
2200
0000
0000
0000
,
0000
0000
0000
0000
,
3000
0000
0000
0300
;

//---------------dance-single - ----------------
#NOTES:
     dance-single:
     :
     Beginner:
     2:
     0.129,0.221,0.000,0.000,0.000:
0000
0000
0000
0000
,
1000
0000
0000
0000
,
0001
0000
0000
0000
,
0100
0000
0000
0000
,
0010
0000
0000
0000
,
1000
0000
0000
0000
,
0001
0000
0001
0000
,
0001
0000
0000
0000
,
1000
0000
1000
0000
,
1000
0000
0000
0000
,
0010
0000
0100
0000
,
0010
0000
0000
0000
,
1000
0000
0001
0000
,
1000
0000
0000
0000
,
0100
0000
0000
0000
,
1000
0000
0000
0000
,
0001
0000
0000
0000
,
0100
0000
0001
0000
,
1000
0000
0000
0000
,
0100
0000
0000
0000
,
0100
0000
0000
0000
,
0010
0000
0000
0000
,
0001
0000
0000
0000
,
1000
0000
0001
0000
,
0100
0000
0000
0000
,
0010
0000
0010
0000
,
1000
0000
0000
0000
,
0001
0000
1000
0000
,
0100
0100
0000
1000
,
1000
0000
0001
0000
,
0100
0000
0000
0000
,
0010
0000
0010
0000
,
0100
0000
0000
0000
,
0001
0000
1000
0000
,
0001
0001
0000
1000
,
1000
0000
0000
0000
,
0010
0000
0000
0000
,
0100
0000
0000
0000
,
0001
0000
0000
0000
,
1000
0000
0000
0000
,
0100
0000
0000
0000
,
1000
0000
0000
0000
,
0001
0000
0000
0000
,
0100
0000
0000
0000
,
0010
0000
0000
0000
,
1000
0000
0000
0000
,
0001
0000
0000
0000
,
0001
0000
0000
0000
,
1000
0000
0000
0000
,
0010
0000
0000
0000
,
0100
0000
0000
0000
,
0010
0000
0000
0000
,
0000
0000
0000
0000
,
1000
0000
0000
1000
,
0000
0000
0001
0000
,
0000
0001
0000
0000
,
0100
0000
0000
0000
,
0001
0000
1000
0000
,
0001
0000
0000
0000
,
0100
0000
0010
0000
,
0100
0000
0000
0000
,
0010
0000
1000
0000
,
0001
0001
0000
0100
,
0100
0000
0010
0000
,
1000
0000
0000
0000
,
0001
0000
1000
0000
,
0100
0000
0000
0000
,
1000
0000
0001
0000
,
0100
0000
0010
0000
,
1000
0000
0000
0000
,
0001
0000
0000
0000
,
0100
0000
0000
0000
,
0010
0000
0000
0000
,
1000
0000
1000
0000
,
0001
0000
0001
0000
,
0100
0000
0100
0000
,
0010
0000
0010
0000
,
1000
1000
0001
0001
,
1000
1000
0001
0001
,
1000
0000
0000
0000
;

//---------------dance-single - ----------------
#NOTES:
     dance-single:
     :
     Easy:
     4:
     0.312,0.356,0.064,0.120,0.060:
0000
0000
0000
0000
,
1000
0000
0001
0000
,
0010
0000
0100
0000
,
1000
0000
0001
0000
,
1000
0000
0001
0000
,
0020
0000
0000
0000
,
0130
0010
0100
0010
,
0200
0000
1300
0000
,
0001
1000
0001
1000
,
0020
0000
0130
0000
,
0001
0010
0100
1000
,
0002
0000
0103
0000
,
0010
0100
0010
1000
,
0002
0000
1003
0000
,
0000
1001
1000
0100
,
1000
0000
0001
0000
0000
0200
0000
0000
,
0301
0101
0001
0010
,
0001
1000
0100
0010
,
0001
0000
1000
0000
,
0000
0100
0000
0100
0000
0100
0000
0000
0000
1000
0000
0000
,
0000
0010
0000
0010
0000
0010
0000
0100
0000
0001
0000
0000
,
1000
0000
0100
0000
,
0010
0000
0001
0000
,
1000
0001
1000
0001
,
1000
0100
0010
0001
,
0000
0001
0100
0001
,
0010
0001
1000
0010
,
0000
0100
0010
0100
,
0010
0100
0001
0010
,
0100
0010
0001
1000
,
0001
1000
0010
1000
,
0000
1000
0100
0010
,
0100
1000
0001
0100
,
0000
0010
0010
0100
,
0010
1000
0002
0000
,
1003
0000
0010
0000
,
1000
0010
1000
0000
,
0100
0010
0001
0010
,
0100
1000
0100
0010
,
0000
0001
0001
1000
,
0001
1000
0100
0100
,
0010
0100
1000
0001
,
1000
0001
1000
0000
,
0000
0010
1000
0010
,
0100
0010
0100
0001
,
0100
0001
0010
0100
,
1000
0001
0010
0001
,
0000
1000
0100
1000
,
0001
0100
0001
1000
,
0010
0000
0010
0000
,
0100
0000
0100
0000
,
0010
0000
0010
1000
,
0000
0010
0000
1000
0000
0010
0000
0000
,
1000
0000
0000
0000
0000
0100
0000
0000
0000
0010
0000
0000
0000
0000
0001
0000
0000
0000
0002
0000
0000
0000
0000
0000
,
0003
0000
0000
0000
0000
0000
1000
0000
0000
0000
0000
1000
0000
0000
0000
0000
0000
0010
0000
0000
0000
1000
0000
0000
,
0010
0000
0000
0000
0000
0100
0000
0000
0000
0010
0000
0000
0000
0000
0110
0000
0000
0000
0000
0000
0100
0000
0000
0000
,
0001
0000
0000
0000
0000
0010
0000
0000
0000
0000
0100
0000
0000
0000
1000
0000
0000
0000
0000
0000
0000
0000
0000
0000
,
1000
0001
1000
0001
,
1000
0100
0010
0001
,
0000
0001
0100
0001
,
0010
0001
1000
0010
,
0000
0100
0010
0100
,
0010
0100
0001
0010
,
0100
0010
0001
1000
,
0001
1000
0010
1000
,
0000
1000
0100
0010
,
0100
1000
0001
0100
,
0000
0010
0010
0100
,
0010
1000
0002
0000
,
2003
0000
0000
0000
,
3200
0000
0000
0000
,
0320
0000
0000
0000
,
0032
0000
0000
0000
,
1003
0001
1000
0001
,
1000
0100
0010
0001
,
0100
0001
0100
0001
,
0010
0001
0010
0001
,
1001
0000
0110
0000
,
1001
0000
0110
0000
,
2002
0000
0000
0000
,
0000
0000
0000
0000
,
3003
0000
0000
0000
;

//---------------dance-single - ----------------
#NOTES:
     dance-single:
     :
     Hard:
     9:
     0.584,0.684,0.248,0.240,0.588: // measure 1
0000
0000
0000
0000
,  // measure 2
1000
1000
0100
0100
,  // measure 3
0010
0000
0000
0001
0000
1000
0001
0000
0000
1001
0000
0000
,  // measure 4
1000
1000
0010
0010
,  // measure 5
0100
0100
0001
0001
,  // measure 6
1000
0000
0010
0000
0001
0000
0001
0000
0010
0000
1000
0000
,  // measure 7
0001
0000
0000
1001
0000
0000
0001
0100
0001
0100
0000
0000
,  // measure 8
0010
0000
0100
0010
0000
1000
0010
0000
1000
0100
0000
0000
,  // measure 9
1000
0000
0000
1001
0000
0000
1000
0100
1000
0100
1000
0001
,  // measure 10
1000
0000
0010
1000
0000
0010
0100
0000
0001
0100
0000
0001
,  // measure 11
0010
0000
0000
0110
0000
0000
0100
1000
0100
1000
0000
0000
,  // measure 12
1001
0000
1000
0001
0000
1000
0010
0000
0100
0010
0000
0000
,  // measure 13
0101
0000
0000
1001
0000
0000
1000
0100
0010
0100
0000
0000
,  // measure 14
1000
0000
0010
0001
0000
0010
1000
0000
0001
1000
0000
0000
,  // measure 15
1001
0000
0000
0001
0000
0100
0010
0000
0100
0000
0010
0000
,  // measure 16
1000
0000
0100
0000
2000
0000
0000
0000
3001
0000
0000
0000
,  // measure 17
1001
0000
0000
1000
0000
0010
0100
0000
0010
0000
1000
0000
,  // measure 18
0100
0000
0010
0000
0001
0000
0010
0000
0100
0000
1000
0000
,  // measure 19
0002
2003
3002
0000
,  // measure 20
0000
1000
0003
1000
0000
1000
0000
0000
0000
0100
0000
0010
,  // measure 21
0000
0100
0000
0100
0000
0100
0000
1000
0000
0001
1000
0001
,  // measure 22
0200
0000
0000
0000
0000
0000
0301
0000
0010
0100
0000
1000
,  // measure 23
0100
0000
0010
0001
0000
1000
0001
0000
1000
0000
0000
0000
,  // measure 24
0001
0000
0100
0001
0000
0100
0010
0000
0100
0010
0000
1000
,  // measure 25
0010
0000
1000
0000
0100
0000
0001
0000
0100
0000
1000
0000
,  // measure 26
0000
1100
0110
0011
,  // measure 27
0001
0000
0010
0000
1000
0000
0010
0000
0001
0000
1000
0000
,  // measure 28
0000
0000
0000
0010
1000
0010
1000
0000
0010
0000
0100
0000
,  // measure 29
0001
0000
0010
0200
0000
0000
0000
0000
0000
0310
0000
0001
,  // measure 30
1000
0000
0001
1000
0000
0010
1000
0000
0001
1000
0000
0100
,  // measure 31
0001
0000
0100
0000
1000
0000
0100
0000
1000
0000
0100
0000
,  // measure 32
0001
0000
0000
0100
0000
1000
0010
0000
0001
0010
0000
1000
,  // measure 33
0010
0000
0100
0000
0001
0000
0010
0000
0100
1000
0100
1000
,  // measure 34
0000
0000
0000
0002
0000
0000
1003
0000
0001
0000
0100
0000
,  // measure 35
0010
0100
0010
0100
0000
0000
0110
0000
0000
1001
0000
0000
,  // measure 36
1000
0100
0010
0100
0010
0001
0010
0100
,  // measure 37
1000
0001
1000
0001
1000
0100
1000
0100
,  // measure 38
2000
0000
3020
0000
,  // measure 39
2030
0000
3002
0000
,  // measure 40
0003
0000
1000
0001
0100
0001
0000
0110
,  // measure 41
0000
0010
1000
0010
1000
0100
0000
1000
,  // measure 42
0002
0023
0230
2300
,  // measure 43
3001
1000
0002
0000
1000
0000
1003
0000
,  // measure 44
0000
0001
0010
0100
1000
0100
0010
0001
,  // measure 45
0010
1000
0010
0001
1000
0100
0001
0100
,  // measure 46
1000
0100
0010
0001
0010
0100
1000
0010
,  // measure 47
0100
0001
0010
0100
1000
0001
1000
0001
,  // measure 48
0000
1000
0200
0000
0310
0001
0010
0001
,  // measure 49
0010
0100
0010
0001
1000
0100
0010
0001
,  // measure 50
0000
1000
1000
0000
0010
0010
0000
1000
,  // measure 51
0000
0001
0001
0000
1000
1000
0000
0010
,  // measure 52
0000
0100
0100
0000
0010
0010
0000
1000
,  // measure 53
0000
1001
0000
1100
0000
1000
0100
0000
,  // measure 54
1001
0000
0000
0002
0000
0000
0203
0000
0310
0100
0000
0020
0000
0000
1030
0000
,  // measure 55
0000
0000
0000
0000
0001
0010
0000
0100
0000
0000
0000
1000
0000
0000
0100
0000
,  // measure 56
0010
0000
0000
0001
0000
0000
1000
0000
0000
0001
0000
0000
0100
0001
0000
0000
,  // measure 57
1000
0000
0000
0100
0000
0000
0010
0001
0010
0001
0000
0000
2000
0000
0000
0000
,  // measure 58
3001
0000
0100
0001
0000
0100
0010
0000
0100
0010
0000
1000
,  // measure 59
0010
0000
1000
0000
0100
0000
0001
0000
0100
0000
1000
0000
,  // measure 60
0000
1100
0110
0011
,  // measure 61
0001
0000
0010
0000
1000
0000
0010
0000
0001
0000
1000
0000
,  // measure 62
0000
0000
0000
0010
1000
0010
1000
0000
0010
0000
0100
0000
,  // measure 63
0001
0000
0010
0200
0000
0000
0000
0000
0000
0310
0000
0001
,  // measure 64
1000
0000
0001
1000
0000
0010
1000
0000
0001
1000
0000
0100
,  // measure 65
0001
0000
0100
0000
1000
0000
0100
0000
1000
0000
0100
0000
,  // measure 66
0001
0000
0000
0100
0000
1000
0010
0000
0001
0010
0000
1000
,  // measure 67
0010
0000
0100
0000
0001
0000
0010
0000
0100
1000
0100
1000
,  // measure 68
0002
0000
0000
0203
0000
0000
0301
0000
0010
0100
0000
0000
,  // measure 69
1000
0100
0010
0001
,  // measure 70
2000
0100
0001
3100
,  // measure 71
0020
0001
1000
0031
,  // measure 72
2000
0010
0100
3010
,  // measure 73
0200
0001
0010
0301
,  // measure 74
0010
0100
0010
0001
,  // measure 75
0010
0100
1000
0100
,  // measure 76
1001
0110
1001
0101
,  // measure 77
1001
0110
1001
1010
,  // measure 78
0010
1000
0010
1000
0001
1000
0001
0100
0001
0010
0001
0010
,  // measure 79
0001
1000
1001
0110
,  // measure 80
2000
0000
0000
0000
,  // measure 81
0002
0000
0000
0000
,  // measure 82
0000
0000
3003
0000
;
