#TITLE:Sayonara Planet Wars;
#SUBTITLE:;
#ARTIST:黒魔;
#TITLETRANSLIT:;
#SUBTITLETRANSLIT:;
#ARTISTTRANSLIT:Chroma;
#GENRE:;
#CREDIT:;
#BANNER:[ZIv Academy III] - Sayonara Planet Wars.png;
#BACKGROUND:[ZIv Academy III] - Sayonara Planet Wars-bg.png;
#LYRICSPATH:;
#CDTITLE:cdtitle.png;
#MUSIC:[ZIv Academy III] - Sayonara Planet Wars.mp3;
#OFFSET:0.440000;
#SAMPLESTART:1.660000;
#SAMPLELENGTH:15.000000;
#SELECTABLE:YES;
#BPMS:0.000000=112.000000
,20.000000=224.000000
,120.000000=112.000000
,121.000000=224.000000
,123.000000=112.000000
,124.000000=224.000000
,126.000000=112.000000
,127.000000=224.000000
,129.000000=112.000000
,130.000000=224.000000
,132.000000=112.000000
,133.000000=224.000000
,135.000000=112.000000
,136.000000=224.000000
,220.000000=112.000000
,236.750000=224.000000
,240.500000=896.000000
,248.500000=224.000000
;
#STOPS:86.000000=0.100000,
86.375000=0.100000,
86.750000=0.060000,
117.250000=0.260000,
166.500000=0.135000,
174.000000=0.135000,
181.500000=0.135000,
189.000000=0.135000,
220.000000=0.520000,
236.750000=0.600000,
273.000000=0.270000
;
#BGCHANGES:;
#KEYSOUNDS:;
#ATTACKS:;

//---------------dance-single - ----------------
#NOTES:
     dance-single:
     :
     Hard:
     10:
     0.940076,0.916218,0.290074,0.712752,0.522133,673.000000,35.000000,86.000000,0.000000,0.000000,0.000000,0.940076,0.916218,0.290074,0.712752,0.522133,673.000000,35.000000,86.000000,0.000000,0.000000,0.000000:
// measure 0
0000
0000
0000
0000
,  // measure 1
0000
0000
0000
0000
,  // measure 2
0000
0000
0000
0000
,  // measure 3
2002
0000
0000
0000
0003
0000
3020
0200
0000
0000
0330
0000
0000
0100
0001
0100
,  // measure 4
0010
0000
0100
0001
0000
1000
0100
0020
0000
0000
0000
0000
0031
1000
0001
1000
,  // measure 5
0001
0000
0100
0000
0001
0000
0100
0001
1000
0000
0010
0000
1000
0000
0010
1000
,  // measure 6
0001
0000
0010
0000
0100
0000
0010
0001
0100
0000
0000
0010
0000
0000
1000
0000
,  // measure 7
0002
0000
0003
0000
1000
0001
0020
0000
0030
0000
0001
1000
0020
0000
0000
0000
,  // measure 8
0100
0000
0130
0000
0100
0001
0100
0010
,  // measure 9
1000
0000
0001
0000
1000
0000
0001
0100
0001
0000
0100
0000
0001
0000
0100
0001
,  // measure 10
0010
0000
0100
0000
0010
0000
0100
1000
0100
0000
0000
1000
0000
0000
0001
0000
,  // measure 11
2000
0000
3000
0000
0001
1000
0200
0000
0300
0000
1000
0001
0020
0000
0000
0000
,  // measure 12
0001
0000
0031
0000
0001
1000
0100
0000
,  // measure 13
1000
0100
1000
0001
0010
0001
0200
0000
0302
0000
2003
0000
,  // measure 14
3010
0000
0000
0100
0001
0000
1000
0100
0000
1000
0100
0000
0001
0000
0100
1000
,  // measure 15
0000
0001
0100
0000
0001
1000
0000
0000
1000
0100
1000
0000
0001
0010
0001
0000
,  // measure 16
0010
0000
0000
0110
0000
0000
0100
0000
0000
1100
0000
0000
1000
0000
0000
1010
,  // measure 17
0000
0000
0010
0000
0000
0110
0000
0000
1001
0000
0000
0110
0000
0000
1001
0000
,  // measure 18
2002
0000
0000
0000
3003
0000
0000
0000
1000
0000
0100
0000
0010
0000
0001
0100
,  // measure 19
0002
0000
0000
0103
0000
0000
1000
0000
0001
0000
0000
0010
0000
0000
1000
0000
,  // measure 20
0100
0000
0000
0001
0000
0000
1000
0000
0010
0000
0000
0001
0000
0000
2000
0000
,  // measure 21
0002
0000
0000
0000
0000
0000
0000
0000
3003
0000
0000
0000
0000
0000
0000
0000
1001
0000
0000
0110
0000
0000
1001
0000
0001
0000
0000
0000
0100
0000
0000
0000
,  // measure 22
1000
0100
0001
0010
0100
1000
0001
0010
,  // measure 23
1000
0010
0001
1000
0010
0100
0001
0100
,  // measure 24
0010
1000
0001
0010
0001
1000
0010
0100
,  // measure 25
0001
0000
1000
0000
0001
0000
0100
0000
0010
0000
1000
0000
0002
0000
0000
2003
,  // measure 26
0000
0000
3200
0000
0320
0000
0000
0000
0230
0000
0000
2300
0000
0000
3002
0000
,  // measure 27
0203
0000
0000
0000
0310
0000
0100
0000
0001
0000
1000
0100
0010
0000
0100
0000
,  // measure 28
0010
0100
0010
0001
1000
0100
0010
0001
,  // measure 29
1000
0000
0000
0001
0000
0000
2002
0000
3003
0000
0000
0000
1000
0000
0000
0100
0000
0000
0000
0000
0000
0000
0000
0000
,  // measure 30
0001
0100
0000
0000
1000
0000
0100
0000
0000
0000
0000
0000
0001
0100
0000
0000
,  // measure 31
1000
0100
0000
0000
0002
0203
0310
0000
,  // measure 32
0000
0000
1000
0001
0100
0000
0001
0000
0010
0000
0000
0020
0000
0000
0000
0000
,  // measure 33
0230
0000
0000
0000
1300
0000
0000
2000
0000
0000
0000
0000
3002
0000
2003
0000
,  // measure 34
3001
0100
0001
0020
0000
0031
0100
0001
,  // measure 35
0010
0000
0100
0000
1000
0000
0020
0000
0000
0000
0030
0000
0100
0001
0100
0001
,  // measure 36
1000
0000
0000
0100
0000
0000
1000
0000
0001
0000
0000
0000
1000
0100
1000
0100
,  // measure 37
0010
0000
0000
0100
0000
0000
0010
0000
0001
0000
0000
0000
0100
0010
0100
0010
,  // measure 38
0100
0000
0000
0001
0000
0000
1000
0000
0010
0000
0000
0100
0000
0000
0001
0000
,  // measure 39
0010
0000
0000
0100
0000
0000
1000
0000
0001
0000
0001
0000
0000
0000
0012
0000
,  // measure 40
0000
0103
0010
0100
0001
0010
0100
0010
,  // measure 41
0001
0000
0100
0000
0010
0100
0010
0100
0010
0000
1000
0000
1002
0000
0000
0000
,  // measure 42
1003
0100
1000
0010
0100
0010
1000
0100
,  // measure 43
0010
0000
0001
0010
0001
0010
0001
0000
0100
0000
0201
0000
0000
0000
0301
0000
,  // measure 44
0010
0100
1000
0010
0100
0001
0010
0100
,  // measure 45
1000
0010
1000
0010
1000
0000
0001
0000
1020
0000
0000
0000
0130
0000
0001
0000
,  // measure 46
0100
0000
0010
0000
1000
0000
0100
0000
0010
0000
0001
0000
0100
0000
0010
1000
,  // measure 47
0010
1000
0010
0000
0100
0000
0220
0000
0000
0000
0330
0000
1000
0000
0001
0000
,  // measure 48
0100
0001
1000
0010
0100
0001
1000
0010
,  // measure 49
1000
0100
0010
0001
1000
0100
0010
0001
,  // measure 50
1000
0001
0100
0010
1000
0001
0010
0100
,  // measure 51
1000
0000
0001
0000
0100
0000
0010
0000
1000
0001
1000
0000
0001
1000
0001
0000
,  // measure 52
0100
0010
0100
0000
0010
0100
0010
0000
1000
0100
1000
0000
0100
1000
0100
0000
,  // measure 53
0010
0001
0010
0000
0001
0100
0001
0000
1000
0000
0001
0000
1000
0000
0001
0000
,  // measure 54
1000
0000
0001
0000
1000
0000
0001
0000
1000
0001
1000
0001
1000
0001
1000
0001
,  // measure 55
0100
0000
0000
0000
0001
0000
0100
0000
2000
0000
0000
0000
3000
0000
0100
0200
,  // measure 56
0000
0000
0000
0000
0000
0000
0300
0000
0000
0000
0001
0000
0010
0000
1000
0000
0010
0000
0000
0000
0001
0000
0100
0000
0000
0000
0010
0000
1000
0010
1000
0000
,  // measure 57
0000
0100
1000
0100
1000
0000
0001
0000
0200
0000
0000
0000
0300
0000
0001
0002
,  // measure 58
0000
0000
0000
0003
0000
1000
0100
1000
0002
0000
0103
0010
0000
1000
0100
0010
,  // measure 59
0000
0220
0000
0330
,  // measure 60
1001
2002
0000
0000
0000
0000
0000
0000
,  // measure 61
0000
0000
0000
0000
,  // measure 62
0000
3003
0000
1000
0100
1000
0001
0000
,  // measure 63
0001
0100
0000
0100
0010
1000
0000
1000
,  // measure 64
0001
0010
0200
0000
0000
0000
0310
0000
,  // measure 65
0011
1001
0101
0110
,  // measure 66
1010
0000
1100
0100
1000
0001
0020
0000
,  // measure 67
0000
0000
0000
0000
0000
0000
0031
0100
,  // measure 68
0001
0100
0001
1000
0010
0000
0000
0000
1000
0000
0000
0000
0001
0000
0100
0000
,  // measure 69
0000
0000
0001
1000
0020
0000
2000
0000
0030
0000
0000
0000
0001
0000
0000
0000
,  // measure 70
3001
0000
0100
0001
0010
0000
0010
0100
,  // measure 71
0000
0000
0100
1000
0002
0000
0200
0000
0003
0000
0000
0000
0010
0000
0000
0000
,  // measure 72
0310
0000
0000
0000
0001
0000
1000
0000
0020
0000
0030
0000
1000
0001
0020
0000
,  // measure 73
0030
0000
0001
1000
0200
0000
0000
0000
1000
0000
0000
0000
0010
0000
0000
0000
,  // measure 74
1300
0000
0000
0000
1000
0000
0100
0000
0020
0000
0030
0000
0100
1000
0002
0000
,  // measure 75
0003
0000
1000
0100
0020
0000
0000
0000
0001
0000
0000
0000
0100
0000
0000
0000
,  // measure 76
0032
0000
1003
0100
1000
0001
0010
0200
,  // measure 77
0000
0000
1300
0001
0010
0000
0020
0000
0030
0000
0000
0000
0011
0000
0000
0000
,  // measure 78
1010
0000
0001
0100
0010
1000
0001
0200
,  // measure 79
0000
0000
0310
1000
0001
0000
0002
0000
0003
0000
0000
0000
1100
0000
0000
0000
,  // measure 80
0101
0000
0000
0000
0100
0000
0001
0000
0020
0000
0030
0000
0001
1000
0020
0000
,  // measure 81
0030
0000
1000
0001
0200
0000
0000
0000
0001
0000
0000
0000
1000
0000
0000
0000
,  // measure 82
0301
0000
0000
0000
1000
0000
0100
0000
0020
0000
0030
0000
0001
1000
0020
0000
,  // measure 83
0030
0000
0100
0001
2000
0000
0000
0000
0001
0000
0000
0000
3100
0000
0000
0000
,  // measure 84
0001
1000
0001
0020
0000
0000
0030
0000
,  // measure 85
0100
0200
0000
0000
1300
2000
0000
0000
,  // measure 86
3001
0002
1003
0000
0100
0200
0000
0000
,  // measure 87
0310
0020
0031
0000
1000
0000
0100
0010
,  // measure 88
0001
0000
0011
0000
0001
0100
1000
0100
,  // measure 89
0001
0000
0101
0000
1000
0100
0001
0100
,  // measure 90
1000
0000
1100
0000
0100
0010
0100
1000
,  // measure 91
0000
1000
0010
1000
0010
0100
0001
0100
,  // measure 92
0000
0101
0100
0001
1000
0100
1000
0200
,  // measure 93
0000
0000
1300
0001
0010
0000
0100
0000
1000
0000
0001
0000
0100
0000
0002
0000
,  // measure 94
0000
0000
1003
0100
1000
0000
0001
0000
0010
0000
0100
0000
1000
0000
0020
0000
,  // measure 95
0000
0000
0130
0001
1000
0000
0001
0000
0010
0000
1000
0000
0100
0000
0001
0000
,  // measure 96
0010
0000
0100
0000
0001
0000
1000
0000
0100
0000
0010
0001
0010
0001
0010
0000
,  // measure 97
0100
0000
1000
0000
0001
0000
0010
0000
0100
1000
0100
1000
0100
0000
0010
0000
,  // measure 98
0001
0000
1000
0000
0100
0010
0100
0010
0100
0000
1000
0000
0001
0000
0010
0100
,  // measure 99
1000
0000
0001
0000
0010
0000
0100
1000
0001
0000
0100
0000
0010
0000
1000
0001
,  // measure 100
0200
0000
0300
0000
;
