#TITLE:REAL EXISTENCE;
#SUBTITLE:;
#ARTIST:BAND-MAID;
#TITLETRANSLIT:;
#SUBTITLETRANSLIT:;
#ARTISTTRANSLIT:;
#GENRE:J-Metal;
#CREDIT:Gameoson x mf32892;
#BANNER:[ZIv Academy III] - REAL EXISTENCE.png;
#BACKGROUND:[ZIv Academy III] - REAL EXISTENCE-bg.png;
#LYRICSPATH:;
#CDTITLE:cdtitle.png;
#MUSIC:[ZIv Academy III] - REAL EXISTENCE.ogg;
#OFFSET:0.985690;
#SAMPLESTART:64.934258;
#SAMPLELENGTH:10.378384;
#LASTBEATHINT:0.186948;
#SELECTABLE:YES;
#BPMS:0.000000=185.000000
;
#STOPS:199.500000=0.973000
;
#BGCHANGES:3.063=[ZIv Academy III] - REAL EXISTENCE.avi=1.000=1=0=0=StretchNoLoop==CrossFade==,
99999=-nosongbg-=1.000=0=0=0 // don't automatically add -songbackground-
;
#KEYSOUNDS:;
#ATTACKS:;

//---------------dance-single - ----------------
#NOTES:
     dance-single:
     :
     Challenge:
     10:
     0.781220,0.921842,0.715682,0.422069,0.357841,596.000000,518.000000,78.000000,46.000000,0.000000,0.000000,0.781220,0.921842,0.715682,0.422069,0.357841,596.000000,518.000000,78.000000,46.000000,0.000000,0.000000:
0000
0000
0000
0000
,
0000
0000
0000
0000
,
0000
0000
0000
0000
,
0000
0000
0000
0000
,
0000
0000
0000
0000
,
0000
0000
0000
0000
,
0000
0000
0000
0000
,
1010
0000
1010
0000
0000
0000
0001
0100
0001
0000
0000
0000
0011
0000
0011
0000
,
0000
0000
1000
0100
1000
0000
0000
0000
0001
0000
0100
0010
1000
0000
0000
0000
,
0110
0000
0110
0000
0000
0000
1000
0001
1000
0000
0100
0000
1001
0000
2002
0000
,
0000
0000
0000
0000
0000
0000
0000
0000
3003
0000
0000
0000
1000
0010
0100
0001
,
1000
0100
0110
0010
0001
0100
0101
0001
,
1000
0100
1100
1000
0001
0100
2010
0000
,
3001
0100
0110
0010
1000
0100
1100
1000
,
0001
0100
0101
0001
1000
0100
0012
0000
,
0103
0010
1010
1000
0001
0010
0011
0001
,
1000
0010
0110
0100
0001
0010
2100
0000
,
3100
0010
0011
0001
1000
0010
1010
1000
,
0001
0010
0001
0010
0100
0000
1000
0000
0010
0000
0100
0000
0001
0000
1000
0002
,
0010
0010
1000
1000
,
0100
0000
0100
0000
1003
0000
0010
2000
,
0100
0100
0001
0001
,
0010
0000
0010
0000
3001
0000
1000
0020
,
0100
0100
0001
0001
,
0100
0000
0100
0000
1030
0000
0001
0020
,
0100
0100
1000
1000
,
0031
0000
0010
0000
0010
0000
0100
1000
0001
0000
1000
0000
0000
0000
2001
0000
,
0000
3001
0010
0001
0100
0010
1000
0100
,
0010
0100
2000
0000
3010
1000
0100
1200
,
0000
1300
0100
1000
0010
0100
0001
0010
,
0100
0010
0002
0000
0013
0001
0100
0201
,
0000
0301
0100
0010
0100
1000
0100
0001
,
1000
0100
0020
0000
0031
0010
1000
0010
,
0002
0000
1003
0020
0000
0130
0002
0000
,
0013
0000
0100
0000
0100
0000
0010
0001
1000
0000
0001
0000
0000
0000
0000
0000
,
2100
0000
0000
0000
0000
0000
3001
0010
0001
0000
0000
0000
0100
0000
0000
0000
,
0010
0000
1010
0000
0000
0000
0010
0100
0002
0000
0000
0000
1003
0000
0000
0000
,
0012
0000
0000
0000
0000
0000
1003
0100
1000
0000
0000
0000
0001
0000
0000
0000
,
0100
0000
0110
0000
0000
0000
0001
1000
0010
0000
0100
0000
0010
0100
0010
0100
,
0001
0000
0010
0000
0100
1000
0100
0000
1000
0000
0010
0000
0100
0001
0100
0000
,
0001
0000
0010
0000
0100
0010
0100
0000
1000
0000
0010
0000
0100
0010
2000
0000
,
0000
0000
3000
0010
1001
0000
0011
0000
,
0001
0010
0100
1000
0001
0000
1000
0000
1001
0000
1001
0000
0000
0000
0202
0000
,
0000
0000
0000
0303
,
0220
0000
0000
0000
0300
0000
1000
0000
0000
0000
1030
0000
0001
0000
0010
0200
,
2000
0000
0000
3300
,
0220
0000
0000
0000
0000
0000
0000
0000
0030
0000
0310
0001
1000
0000
0000
0000
,
0001
0001
0100
0010
1000
1000
0001
0010
,
0100
0100
1000
0010
0100
0100
0001
1000
,
0100
0100
0010
0010
0001
0100
0110
1010
,
0000
0000
1002
0000
0000
0000
0013
0000
0100
0000
0010
0001
1000
0000
0001
0100
,
0001
0000
0010
0000
0100
0000
0100
0000
1000
0000
0001
0100
0010
0000
1000
0010
,
1000
0000
2001
0000
0000
0000
3010
0000
0100
0000
0010
1000
0001
0000
1000
0100
,
1000
0000
0001
0000
0100
0000
0100
0000
1000
0000
0100
0010
0100
0000
0010
1000
,
0001
0000
1002
0000
0000
0000
0013
0000
0100
0000
1000
0001
0100
0000
0010
0100
,
0010
0000
1000
0000
0100
0000
0100
0000
0010
0000
0100
1000
0100
0000
0010
0001
,
1000
0000
2001
0000
0000
0000
3100
0000
0010
0000
0001
0100
0010
0000
1000
0100
,
1000
0000
0001
0000
0100
0000
0100
0000
1000
0000
0100
0010
0100
0000
0010
1000
,
0002
0000
0000
0000
1003
0000
0001
0100
0001
0000
1000
0100
1000
0000
0001
0100
,
0001
0000
1000
0100
1000
0000
0001
0010
0001
0000
1000
0010
1000
0000
0001
0010
,
0001
0000
1000
0010
1000
0000
0001
0010
0001
0000
0010
0100
0010
0000
0100
1000
,
0100
0000
1000
0010
1000
0000
0010
0100
0010
0000
0100
0001
0100
0000
0001
1000
,
0100
0000
0011
0011
0000
1100
1100
0000
,
1010
1010
0000
0101
0202
0000
0000
0300
,
0003
0000
1001
1001
0000
1100
1100
0000
,
1001
1001
0000
0011
2002
0000
0000
0000
,
3003
0000
0000
0000
0001
0100
0001
0100
0001
0100
0001
0100
0010
1000
0001
0100
,
0010
1000
1010
1010
0000
0000
0000
0000
,
0000
0202
0303
1001
0000
0000
0000
0000
,
0000
0000
1100
1100
0000
0000
0000
0000
,
0000
0000
0220
0000
0330
0000
1001
0000
0001
0000
0100
0000
0100
0000
0010
1000
,
0002
0000
0003
0000
1010
0000
1000
0000
0100
0000
0010
0001
1000
0000
0000
0000
,
1010
0000
0000
0000
0110
0000
0101
0000
0000
0000
0001
1000
0010
0000
1000
0001
,
0010
0000
0000
0000
0011
0000
0010
0000
0100
0000
1000
0001
0100
0000
0000
0000
,
0101
0000
0000
0000
0110
0000
1010
0000
0000
0000
1000
0001
0010
0000
0100
0000
,
0010
0100
0010
0100
1000
0000
0010
0000
0100
0010
1000
0000
0001
0000
0010
0000
,
0100
0010
0001
0000
0100
0000
1000
0000
0100
0010
0100
0000
1000
0000
0100
0000
,
0001
1000
0001
0000
0010
0000
0100
0000
0010
0001
1000
0000
0010
0000
0100
0000
,
0010
1000
0001
0000
0010
0000
1000
0000
0010
0100
0010
0000
1000
0000
0010
0000
,
0001
1000
0001
0000
1001
0000
1001
0000
0000
0000
0000
0000
0000
0000
0000
0000
,
0000
2020
3030
0101
0000
0000
0000
0000
;

//---------------dance-single - ----------------
#NOTES:
     dance-single:
     :
     Medium:
     7:
     0.490229,0.516231,0.348665,0.339490,0.000000,374.000000,336.000000,38.000000,37.000000,0.000000,0.000000,0.490229,0.516231,0.348665,0.339490,0.000000,374.000000,336.000000,38.000000,37.000000,0.000000,0.000000:
// measure 0
0000
0000
0000
0000
,  // measure 1
0000
0000
0000
0000
,  // measure 2
0000
0000
0000
0000
,  // measure 3
0000
0000
0000
0000
,  // measure 4
0000
0000
0000
0000
,  // measure 5
0000
0000
0000
0000
,  // measure 6
0000
0000
0000
0000
,  // measure 7
1010
0100
0001
0011
,  // measure 8
0100
1000
1001
1001
,  // measure 9
0101
0000
0010
0000
1000
0000
0002
2000
,  // measure 10
0000
0000
0000
3003
,  // measure 11
1000
0100
1000
0000
0100
0010
0100
0000
,  // measure 12
0010
0001
0010
0000
0001
0100
0020
0000
,  // measure 13
1030
0010
1000
0000
0010
0100
0010
0000
,  // measure 14
0100
0001
0100
0000
0001
1000
0200
0000
,  // measure 15
0310
0001
0010
0000
0100
1000
0100
0000
,  // measure 16
1000
0010
1000
0000
0001
0100
0020
0000
,  // measure 17
1030
0001
1000
0000
0100
0010
0100
0000
,  // measure 18
1000
0000
1000
0000
0010
0100
0001
1000
,  // measure 19
0002
0010
0010
0010
,  // measure 20
0010
0000
0010
0000
0013
0000
0001
2000
,  // measure 21
0001
0010
0010
0010
,  // measure 22
0010
0000
0010
0000
3010
0000
1000
0002
,  // measure 23
1000
0100
0100
0100
,  // measure 24
0100
0000
0100
0000
0103
0000
0001
2000
,  // measure 25
0001
0100
0100
3100
,  // measure 26
0010
0100
0010
0100
1000
0001
0000
1002
,  // measure 27
0000
0100
0103
0000
0100
0000
0010
0100
,  // measure 28
0010
0000
1000
0000
0001
1000
0001
2000
,  // measure 29
0000
0100
3100
0000
0100
0000
0010
0100
,  // measure 30
0010
0000
0001
0000
1000
0010
1000
0020
,  // measure 31
0000
0100
0130
0000
0100
0000
0010
1000
,  // measure 32
0001
0000
0010
0000
0100
1000
0100
1000
,  // measure 33
0001
0100
1000
0100
,  // measure 34
0001
1000
0001
1000
0100
0010
0000
0000
,  // measure 35
0012
0000
0000
0100
0103
0000
0010
0000
,  // measure 36
1000
0100
0000
0010
0001
0000
0100
0000
,  // measure 37
2010
0000
0000
0100
3100
0000
0010
0000
,  // measure 38
0001
0100
0000
0010
1000
0000
0010
0100
,  // measure 39
0001
0000
1000
0100
1000
0000
0001
0100
,  // measure 40
0001
0000
1000
0100
0010
0000
0001
0200
,  // measure 41
0000
0000
0000
0010
0310
0000
1001
0000
,  // measure 42
1000
0001
1000
0001
1000
0100
0000
0022
,  // measure 43
0000
0000
0000
0033
,  // measure 44
2200
0000
0000
3300
,  // measure 45
0202
0000
0000
0303
,  // measure 46
2010
0000
0000
0000
0000
0001
3001
0000
,  // measure 47
1000
1000
0010
0010
,  // measure 48
0001
0001
0100
0100
,  // measure 49
1000
0000
0010
0000
0001
0000
0100
1000
,  // measure 50
0000
2020
0000
3030
0110
0000
0101
0000
,  // measure 51
0001
1000
0001
1000
0000
0200
0000
0310
,  // measure 52
0000
0022
0000
0033
0110
0000
1100
0000
,  // measure 53
1000
0001
1000
0001
0000
0200
0000
0310
,  // measure 54
0000
2020
0000
3030
1001
0000
0011
0000
,  // measure 55
1000
0010
1000
0001
0000
0020
0000
0130
,  // measure 56
0000
0022
0000
0033
1001
0000
1010
0000
,  // measure 57
0001
0100
0001
1000
0000
0200
0000
0000
,  // measure 58
0310
0000
0001
0000
1000
0010
1000
0000
,  // measure 59
0001
0010
0001
0000
1000
0010
1000
0000
,  // measure 60
0001
0100
0001
0000
1000
0100
1000
0000
,  // measure 61
0001
0100
0001
0000
1000
0100
0010
0000
,  // measure 62
0001
0000
1000
0010
0000
0010
1000
0000
,  // measure 63
1000
0001
0000
0001
0020
0000
0000
0000
,  // measure 64
0030
0000
0100
0010
0000
0010
0001
0000
,  // measure 65
0100
0010
0000
0020
2000
0000
0000
0000
,  // measure 66
0030
0001
0001
3001
,  // measure 67
0001
1000
0100
0100
0000
0000
0000
0000
,  // measure 68
0000
1001
0000
1001
0000
0000
0000
0000
,  // measure 69
0000
0000
0100
0100
0000
0000
0000
0000
,  // measure 70
0000
1001
0000
1001
0000
0000
0100
0000
,  // measure 71
1001
1010
0100
0001
,  // measure 72
0011
0100
1000
1001
,  // measure 73
1001
0101
0010
1000
,  // measure 74
1100
0000
0010
0000
0001
0000
1000
0010
,  // measure 75
1000
0010
0100
0000
0010
1000
0100
0000
,  // measure 76
0010
0001
0100
0000
0010
1000
0100
0000
,  // measure 77
0010
0001
1000
0000
0100
1000
0010
0000
,  // measure 78
0100
0001
0010
0000
0100
1000
0010
0000
,  // measure 79
0100
0000
0010
0010
0000
0000
0000
0000
,  // measure 80
0000
1001
0000
1001
0000
0000
0000
0000
;

//---------------dance-single - ----------------
#NOTES:
     dance-single:
     :
     Beginner:
     2:
     0.197927,0.294531,0.119280,0.183508,0.000000,151.000000,138.000000,13.000000,20.000000,0.000000,0.000000,0.197927,0.294531,0.119280,0.183508,0.000000,151.000000,138.000000,13.000000,20.000000,0.000000,0.000000:
// measure 0
0000
0000
0000
0000
,  // measure 1
0000
0000
0000
0000
,  // measure 2
0000
0000
0000
0000
,  // measure 3
0000
0000
0000
0000
,  // measure 4
0000
0000
0000
0000
,  // measure 5
0000
0000
0000
0000
,  // measure 6
0000
0000
0000
0000
,  // measure 7
1000
0000
1000
0000
,  // measure 8
0001
0000
0001
0000
,  // measure 9
1000
0000
0001
0000
,  // measure 10
0020
0000
0000
0030
,  // measure 11
0001
0000
0001
0000
,  // measure 12
0100
0000
0100
0000
,  // measure 13
0010
0000
0010
0000
,  // measure 14
1000
0000
1000
0000
,  // measure 15
0100
0000
0100
0000
,  // measure 16
0010
0000
0010
0000
,  // measure 17
0001
0000
0001
0000
,  // measure 18
0100
0000
0010
0000
,  // measure 19
2000
0000
0000
0000
,  // measure 20
3000
0000
0000
0000
,  // measure 21
0002
0000
0000
0000
,  // measure 22
0003
0000
0000
0000
,  // measure 23
2000
0000
0000
0000
,  // measure 24
3000
0000
0000
0000
,  // measure 25
0200
0000
0000
0000
,  // measure 26
0300
0000
0100
0000
,  // measure 27
1000
1000
1000
0000
,  // measure 28
0010
0000
1000
0000
,  // measure 29
0001
0001
0001
0000
,  // measure 30
0010
0000
0001
0000
,  // measure 31
0100
0100
0100
0000
,  // measure 32
0010
0000
1000
0000
,  // measure 33
0001
0001
0001
0000
,  // measure 34
1000
0000
0100
0000
,  // measure 35
2002
0000
3003
0000
,  // measure 36
0001
0000
0100
0000
,  // measure 37
2002
0000
3003
0000
,  // measure 38
1000
0000
0100
0000
,  // measure 39
1000
1000
1000
0000
,  // measure 40
0001
0001
0001
0000
,  // measure 41
0200
0000
0300
0000
,  // measure 42
0100
0100
0100
0000
,  // measure 43
2002
0000
3003
0000
,  // measure 44
0220
0000
0330
0000
,  // measure 45
0220
0000
0330
0000
,  // measure 46
2002
0000
3003
0000
,  // measure 47
1000
0000
1000
0000
,  // measure 48
0001
0000
0001
0000
,  // measure 49
1000
0000
0001
0001
,  // measure 50
0000
1000
1000
1000
,  // measure 51
0000
0010
0000
0100
,  // measure 52
0000
0001
0001
0001
,  // measure 53
0000
0010
0000
0100
,  // measure 54
0000
1000
1000
1000
,  // measure 55
0000
0010
0000
1000
,  // measure 56
0000
0001
0001
0001
,  // measure 57
0000
0010
0000
0001
,  // measure 58
0000
0100
0100
0100
,  // measure 59
0000
0010
0010
0010
,  // measure 60
0000
1000
1000
1000
,  // measure 61
0000
0001
0001
0001
,  // measure 62
0000
1000
0000
0000
,  // measure 63
1000
0000
0000
0000
,  // measure 64
0000
0001
0000
0000
,  // measure 65
0001
0000
2002
0000
,  // measure 66
0000
0000
0000
3003
,  // measure 67
0000
0110
0000
0000
,  // measure 68
0000
0110
0000
0000
,  // measure 69
0000
1001
0000
0000
,  // measure 70
0000
1001
0000
0000
,  // measure 71
0000
1000
0000
0100
,  // measure 72
0000
1000
0000
0100
,  // measure 73
0000
0010
0000
0001
,  // measure 74
0000
0010
0000
0001
,  // measure 75
0000
1000
1000
1000
,  // measure 76
0000
0010
0010
0010
,  // measure 77
0000
0100
0100
0100
,  // measure 78
0000
0001
0001
0001
,  // measure 79
0000
1001
0000
0000
,  // measure 80
0000
0110
0000
0000
;

//---------------dance-single - ----------------
#NOTES:
     dance-single:
     :
     Hard:
     9:
     0.588537,0.737473,0.339490,0.596401,0.032114,449.000000,412.000000,37.000000,65.000000,0.000000,0.000000,0.588537,0.737473,0.339490,0.596401,0.032114,449.000000,412.000000,37.000000,65.000000,0.000000,0.000000:
0000
0000
0000
0000
,
0000
0000
0000
0000
,
0000
0000
0000
0000
,
0000
0000
0000
0000
,
0000
0000
0000
0000
,
0000
0000
0000
0000
,
0000
0000
0000
0000
,
1000
1000
0010
1000
0100
0010
0001
0001
,
0000
0010
0001
0100
0010
0100
0001
0000
,
0001
0001
0010
0001
0100
0010
1000
1000
,
0000
0000
0000
0000
0000
0000
0000
0000
0000
0000
0000
0000
1000
0001
1000
0001
,
1000
0100
0010
0200
0000
2300
0000
3010
,
0100
0001
0010
0100
0001
0100
2000
0000
,
3001
0100
0010
0200
0000
0302
0000
0013
,
0100
1000
0010
0100
1000
0100
0002
0000
,
1003
0010
0100
0020
0000
2030
0000
3100
,
0010
1000
0010
0001
0100
0010
2000
0000
,
3001
0010
0100
0020
0000
0032
0000
0103
,
0010
0010
1000
1000
0001
0001
0010
0000
,
2001
0001
0001
0001
,
0010
0000
0010
0000
3010
0000
1000
0002
,
0100
0100
0100
0100
,
1000
0000
1000
0000
1003
0000
0010
2000
,
0100
0100
0100
0100
,
0001
0000
0001
0000
3001
0000
0010
0002
,
0100
0100
0100
0100
,
1003
0010
0010
0100
0001
1000
0000
1001
,
0000
0001
0010
0100
0010
0001
0100
0010
,
1000
0001
0200
0000
0310
0000
1000
0001
,
0000
0010
0100
1000
0001
1000
0010
1000
,
0100
0010
0002
0000
1003
0000
0001
0100
,
0000
0010
1000
0100
1000
0001
1000
0010
,
0100
0001
2000
0000
3001
0010
0100
1000
,
0001
0000
0100
0010
0000
1000
0002
0000
,
0013
0000
0100
0000
1001
1001
0000
0000
,
0021
0000
0130
0000
1100
0100
0000
0110
,
0000
1000
0100
0010
0011
0000
1001
0000
,
0201
0000
0301
0100
0010
1000
0000
1002
,
0000
0000
0013
0000
0001
0100
1000
0000
,
0100
0010
0100
0001
0010
0100
0010
0001
,
0100
1000
0100
0010
1000
0100
0010
0002
,
0000
0000
0000
1003
0001
0000
0100
0010
,
0100
0001
0100
0001
0100
0000
0000
0000
0010
0000
0010
0000
0000
0000
2002
0000
,
0000
0000
0000
0003
,
0200
0000
0000
3000
,
0020
0000
0000
0300
,
0002
0000
0000
0000
0000
0000
0030
0000
0003
0000
1000
0001
1000
0000
0000
0000
,
0001
0010
0001
0000
0100
0000
0100
0000
,
0010
1000
0010
0000
0100
0000
0100
0000
,
0001
1000
0001
0000
0010
0100
0010
0100
,
0000
1002
0000
0103
0010
0100
0001
0010
,
0100
1000
0010
0100
0000
0202
0300
1003
,
0001
0021
0000
0130
0010
0001
0010
0100
,
1000
0001
0100
0010
0000
1020
0000
0130
,
0001
2002
3000
0103
1000
0100
0001
1000
,
0100
0010
0001
1000
0000
1020
0000
0130
,
0001
0202
0003
0310
1000
0100
0001
0100
,
1000
0010
0100
0001
0000
0021
0000
0130
,
1000
0001
1100
0000
0001
0100
0001
0010
,
0001
0200
0010
0000
0301
0000
1000
0100
,
0001
0000
0110
0000
1000
0010
1000
0100
,
1000
0020
0100
0000
1030
0010
0100
0001
,
1000
0000
0001
0001
0020
0100
0230
0000
,
2300
3020
0030
0002
0023
0000
0000
0000
,
0030
0000
1000
1000
0200
1000
2300
3020
,
0100
0230
0300
0002
2000
0000
0000
0000
,
3003
0000
0000
0000
0001
0000
0100
0000
1000
0000
0100
0000
0001
0000
0000
0010
,
0000
0220
0000
0330
0000
0000
0000
0000
,
0000
2002
3003
1001
0000
0000
0000
0000
,
0000
0000
1100
1100
0000
0000
0000
0000
,
0000
0202
0303
0101
0001
1000
0010
1000
,
0200
0300
1100
0100
0010
0001
2000
0000
,
3010
0000
0100
0101
0000
0010
1000
0100
,
0010
0000
0011
0010
0100
1000
0002
0000
,
1003
0000
0010
1010
0000
0100
0001
1000
,
0020
0000
1030
0100
1000
1000
0001
0100
,
0001
0001
0010
0100
1000
1000
0010
0100
,
0001
0001
0010
0100
0001
0001
0100
0010
,
0001
0001
0100
0010
1000
1000
0100
0010
,
0001
0010
0100
0000
1001
0000
1001
0000
0000
0000
0000
0000
0000
0000
0000
0000
,
0000
0220
0330
1001
0000
0000
0000
0000
;

//---------------dance-single - ----------------
#NOTES:
     dance-single:
     :
     Easy:
     6:
     0.348665,0.442484,0.100929,0.293613,0.000000,266.000000,255.000000,11.000000,32.000000,0.000000,0.000000,0.348665,0.442484,0.100929,0.293613,0.000000,266.000000,255.000000,11.000000,32.000000,0.000000,0.000000:
// measure 0
0000
0000
0000
0000
,  // measure 1
0000
0000
0000
0000
,  // measure 2
0000
0000
0000
0000
,  // measure 3
0000
0000
0000
0000
,  // measure 4
0000
0000
0000
0000
,  // measure 5
0000
0000
0000
0000
,  // measure 6
0000
0000
0000
0000
,  // measure 7
1000
1000
0000
0000
0000
0000
0001
0001
,  // measure 8
0000
0000
0000
0000
,  // measure 9
0010
0010
0000
0000
0000
0000
0100
0100
,  // measure 10
0000
0000
0000
0000
,  // measure 11
1000
0100
1000
0010
,  // measure 12
0100
0001
1000
0002
,  // measure 13
0013
0001
0100
0001
,  // measure 14
1000
0010
0100
0002
,  // measure 15
1003
0100
1000
0001
,  // measure 16
0010
0100
1000
0002
,  // measure 17
1003
0010
0100
0001
,  // measure 18
1000
0001
0100
0020
,  // measure 19
1000
1000
1000
1000
,  // measure 20
1000
1000
1030
1000
,  // measure 21
1002
1000
1000
1000
,  // measure 22
1000
1000
1000
1003
,  // measure 23
1200
1000
1000
1000
,  // measure 24
1000
1000
1000
1300
,  // measure 25
1002
1000
1000
1000
,  // measure 26
1003
0000
0001
0000
0010
0010
0000
0001
,  // measure 27
0000
0100
0001
1000
,  // measure 28
0010
0000
1000
0000
0100
0000
1000
1000
,  // measure 29
0000
0010
1000
0100
,  // measure 30
1000
0000
0001
0000
0010
0000
0001
0001
,  // measure 31
0000
0100
0001
1000
,  // measure 32
0010
0100
0001
1000
,  // measure 33
0001
0010
0100
1000
,  // measure 34
0001
0000
0100
0000
0010
0010
0000
0000
,  // measure 35
2000
0000
3100
0000
,  // measure 36
1000
0001
0100
0000
0110
0000
1001
0000
,  // measure 37
0002
0000
0013
0000
,  // measure 38
0001
0000
1000
0000
0001
0100
0001
0000
,  // measure 39
1000
0010
0100
0001
,  // measure 40
1000
0000
0001
0000
0010
0000
0100
2000
,  // measure 41
0000
0000
3001
0000
,  // measure 42
1000
0000
0001
0000
0100
0100
0000
0020
,  // measure 43
0000
0000
0000
0030
,  // measure 44
2000
0000
0000
3000
,  // measure 45
0002
0000
0000
0003
,  // measure 46
0020
0000
0000
0030
,  // measure 47
0100
0100
1000
1000
,  // measure 48
0010
0010
0100
0100
,  // measure 49
0001
0000
1000
0000
0001
0000
0010
0010
,  // measure 50
0000
0002
0000
0000
0103
0000
0010
0000
,  // measure 51
1000
0000
0001
1000
0000
0002
0000
0003
,  // measure 52
0000
2000
0000
0000
3010
0000
1000
0000
,  // measure 53
0100
0000
1000
0001
0000
2000
0000
3000
,  // measure 54
0000
0200
0000
0000
0310
0000
0001
0000
,  // measure 55
0100
0000
0001
1000
0000
0020
0000
0030
,  // measure 56
0000
0200
0000
0000
0301
0000
1000
0000
,  // measure 57
0001
0000
0010
0100
0000
2000
0000
0000
,  // measure 58
3001
1000
0100
1000
,  // measure 59
0001
0100
0010
1000
,  // measure 60
0001
1000
0100
0010
,  // measure 61
0001
0100
0010
1000
,  // measure 62
0001
0000
1000
0100
0000
1000
0100
0000
,  // measure 63
0010
0001
0000
0010
0002
0000
0000
0000
,  // measure 64
1003
0000
0001
0100
0000
0001
0100
0000
,  // measure 65
0010
1000
0000
0010
2000
0000
0000
0000
,  // measure 66
3000
0002
0203
0320
,  // measure 67
2030
0000
3001
0001
0000
0000
0000
0000
,  // measure 68
0000
0020
0000
0130
0000
0000
0000
0000
,  // measure 69
0000
0000
1000
1000
0000
0000
0000
0000
,  // measure 70
0000
0020
0000
0130
0000
0000
0000
0000
,  // measure 71
0000
0001
0000
0101
,  // measure 72
0101
0010
0000
1010
,  // measure 73
1010
1000
0000
1001
,  // measure 74
1001
0001
0000
0010
,  // measure 75
0020
0031
0100
0001
,  // measure 76
1000
0010
0100
0001
,  // measure 77
1000
0100
0010
0100
,  // measure 78
1000
0010
0100
0001
,  // measure 79
1000
0000
0100
0100
0000
0000
0000
0000
,  // measure 80
0000
2000
0000
3001
0000
0000
0000
0000
;
