#VERSION:0.83;
#TITLE:インベーダーインベーダー;
#SUBTITLE:;
#ARTIST:きゃりーぱみゅぱみゅ;
#TITLETRANSLIT:Invader Invader;
#SUBTITLETRANSLIT:;
#ARTISTTRANSLIT:Kyary Pamyu Pamyu;
#GENRE:FEMINIST J-POP;
#ORIGIN:;
#CREDIT:;
#BANNER:[ZIv Academy III] - Invader Invader.png;
#BACKGROUND:[ZIv Academy III] - Invader Invader-bg.png;
#PREVIEWVID:;
#JACKET:[ZIv Academy III] - Invader Invader-jacket.png;
#CDIMAGE:;
#DISCIMAGE:;
#LYRICSPATH:;
#CDTITLE:;
#MUSIC:[ZIv Academy III] - Invader Invader.ogg;
#OFFSET:1.475000;
#SAMPLESTART:72.000000;
#SAMPLELENGTH:12.000000;
#SELECTABLE:YES;
#BPMS:0.000=160.000;
#STOPS:;
#DELAYS:;
#WARPS:;
#TIMESIGNATURES:0.000=4=4;
#TICKCOUNTS:0.000=4;
#COMBOS:0.000=1;
#SPEEDS:0.000=1.000=0.000=0;
#SCROLLS:0.000=1.000;
#FAKES:;
#LABELS:0.000=Song Start;
#BGCHANGES:3.500=[ZIv Academy III] - Invader Invader.avi=1.000=0=0=1=====,
99999=-nosongbg-=1.000=0=0=0 // don't automatically add -songbackground-
;
#KEYSOUNDS:;
#ATTACKS:
;

//---------------dance-single - ----------------
#NOTEDATA:;
#CHARTNAME:;
#STEPSTYPE:dance-single;
#DESCRIPTION:;
#CHARTSTYLE:;
#DIFFICULTY:Hard;
#METER:8;
#RADARVALUES:0.507146,0.545506,0.419895,0.334008,0.038172,372.000000,328.000000,44.000000,35.000000,0.000000,0.000000,0.000000,0.000000,0.000000,0.507146,0.545506,0.419895,0.334008,0.038172,372.000000,328.000000,44.000000,35.000000,0.000000,0.000000,0.000000,0.000000,0.000000;
#CREDIT:ohaiimian & Pie-kun;
#NOTES:
// measure 0
0000
0000
0000
0000
,  // measure 1
0000
0000
0000
0000
,  // measure 2
0000
0000
0000
1001
,  // measure 3
1000
0001
0000
0001
0100
0000
0110
0000
,  // measure 4
0001
1000
0000
1000
0100
0000
0110
0000
,  // measure 5
1000
0001
0000
0001
0010
0000
0100
1000
,  // measure 6
0010
0000
0100
0001
0000
1000
0100
0010
,  // measure 7
0001
0000
0001
1000
0000
1000
0010
0100
,  // measure 8
0001
0000
0001
1000
0000
1000
0100
0010
,  // measure 9
0001
0000
0001
0010
0000
0010
0100
1000
,  // measure 10
0001
0000
0001
0100
0000
0100
0001
0010
,  // measure 11
0100
0100
1000
1000
0010
0010
0100
0100
,  // measure 12
0001
1000
0010
1000
,  // measure 13
0100
0100
0010
0010
0001
0001
1000
1000
,  // measure 14
0200
0000
0320
0000
0031
0100
1000
0100
,  // measure 15
0001
1100
0001
1100
,  // measure 16
0010
0101
0010
0101
,  // measure 17
1000
0011
1000
0011
,  // measure 18
0100
0000
0010
2000
0000
3100
0010
0001
,  // measure 19
1001
0000
1010
0000
1100
0000
0010
2000
,  // measure 20
0000
3200
0000
0302
0000
0103
1000
0100
,  // measure 21
1100
0000
1010
0000
1001
0000
0001
0200
,  // measure 22
0000
2300
0000
3200
0000
0301
0010
0000
,  // measure 23
0001
1010
0001
1010
,  // measure 24
0100
0011
0100
0011
,  // measure 25
1000
0101
1000
0101
,  // measure 26
0010
0000
0010
1000
0000
1000
0100
0010
,  // measure 27
0011
0000
0101
0000
1001
0000
1000
0200
,  // measure 28
0000
0302
0000
0203
0000
0310
0001
0100
,  // measure 29
0110
0000
1010
0000
0101
0000
0001
0200
,  // measure 30
0000
2300
0000
3200
0000
0301
0010
0100
,  // measure 31
2000
0000
0000
0010
3010
0000
0100
0000
,  // measure 32
0001
0000
0000
1000
0000
0000
0001
0010
0001
0000
0000
0000
0100
0000
0000
0000
,  // measure 33
2000
0000
0000
0001
3001
0000
0001
0000
,  // measure 34
0100
0000
0000
0100
0000
0000
0010
1000
0010
0000
0000
0000
1000
0000
0000
0000
,  // measure 35
0020
0000
0000
0100
0130
0000
1000
0000
,  // measure 36
0100
0000
0000
0100
0000
0000
0010
0000
0001
0000
0000
0000
1001
0000
0000
0000
,  // measure 37
0002
0000
0000
0100
0103
0000
0010
0000
,  // measure 38
1000
0000
0000
1000
0000
0000
0001
0100
0001
0000
0000
0000
0100
0000
0000
0000
,  // measure 39
0200
0000
0000
0010
0310
0000
0001
0000
,  // measure 40
1000
0000
0000
0001
0000
0000
0100
0000
0000
0000
0000
0000
0000
0000
0000
0000
,  // measure 41
0020
0000
0000
1000
1030
0000
0001
0000
,  // measure 42
0010
0001
0010
0100
1000
0000
0100
0000
,  // measure 43
0020
0000
0000
0001
0031
0000
1000
0000
,  // measure 44
0100
1000
0100
0010
0001
0000
0100
0000
,  // measure 45
2010
0000
0100
0000
3010
0000
0100
0001
,  // measure 46
0010
0100
1000
0010
0100
0001
0001
0010
,  // measure 47
0200
0000
1300
0010
,  // measure 48
0100
0000
0100
0000
0001
1000
1001
0000
,  // measure 49
0001
0100
0001
0010
0001
1000
0001
0000
,  // measure 50
0101
0011
2002
3003
,  // measure 51
1000
0100
0010
0000
0010
0100
0010
0000
,  // measure 52
0001
0100
0010
1000
0100
0010
0001
0000
,  // measure 53
1000
0010
1000
0001
1000
1000
0100
0000
,  // measure 54
1100
1010
2002
3003
,  // measure 55
0001
0010
1000
0020
0000
0031
0100
1000
,  // measure 56
0200
0000
0310
0200
0000
0310
1000
0001
,  // measure 57
2001
0100
0001
3010
,  // measure 58
0010
0100
0001
0010
0100
0000
1100
0000
,  // measure 59
0001
0010
0100
1000
0100
0010
0100
0000
,  // measure 60
1000
0010
0001
0010
1000
0010
0100
0001
,  // measure 61
0001
0010
0001
0100
0001
1000
0001
0000
,  // measure 62
0011
1010
2002
3003
,  // measure 63
0110
0000
0000
0000
,  // measure 64
1100
0000
0000
0000
,  // measure 65
0101
0000
0000
0000
0000
0000
1000
0100
,  // measure 66
0010
0000
0001
0100
0000
0010
1000
0100
,  // measure 67
0002
0003
0000
0000
;

//---------------dance-single - ----------------
#NOTEDATA:;
#CHARTNAME:;
#STEPSTYPE:dance-single;
#DESCRIPTION:;
#CHARTSTYLE:;
#DIFFICULTY:Beginner;
#METER:2;
#RADARVALUES:0.129513,0.223785,0.019086,0.028629,0.000000,95.000000,93.000000,2.000000,3.000000,0.000000,0.000000,0.000000,0.000000,0.000000,0.129513,0.223785,0.019086,0.028629,0.000000,95.000000,93.000000,2.000000,3.000000,0.000000,0.000000,0.000000,0.000000,0.000000;
#CREDIT:Pie-kun;
#NOTES:
0000
0000
0000
0000
,
0000
0000
0000
0000
,
0000
0000
0000
0000
,
1000
0000
0000
0000
,
0001
0000
0000
0000
,
1000
0000
0000
0000
,
2002
0000
0000
3003
,
0001
0000
0000
0000
,
0001
0000
0000
0000
,
0100
0000
0000
0000
,
0100
0000
0000
0000
,
0010
0010
0010
0000
,
0100
0100
0100
0000
,
0010
0010
0010
0000
,
0100
0100
0000
0000
,
0010
0000
0000
0000
,
1000
0000
0000
0000
,
0001
0000
0000
0000
,
1000
0000
0000
0000
,
0100
0100
0100
0000
,
0000
0000
0000
0000
,
0010
0010
0010
0000
,
0000
0000
0000
0000
,
0001
0000
0000
0000
,
0100
0000
0000
0000
,
0001
0000
0000
0000
,
0010
0000
0000
0000
,
0100
0100
0100
0000
,
0000
0000
0000
0000
,
0010
0010
0010
0000
,
0000
0000
0000
0000
,
0001
0000
0001
0000
,
1000
1000
1000
0000
,
0010
0000
0000
0000
,
0010
0000
0000
0000
,
0100
0000
0000
0000
,
0001
0000
0000
0000
,
0010
0000
0000
0000
,
0100
0000
0000
0000
,
1000
0000
0000
0000
,
0010
0000
0000
0000
,
0100
0100
0100
0000
,
0000
0000
0000
0000
,
0001
0001
0001
0000
,
0000
0000
0000
0000
,
1000
1000
1000
0000
,
0010
0000
0100
0000
,
0010
0000
0000
0000
,
0020
0000
0000
0030
,
0100
0100
0100
0100
,
0000
0000
0000
0000
,
0001
0000
0000
0000
,
1000
0000
0000
0000
,
0010
0010
0010
0010
,
0000
0000
0000
0000
,
0001
0000
0000
0000
,
1000
0000
0000
0000
,
0100
0100
0100
0100
,
0000
0000
0000
0000
,
0010
0000
0000
0000
,
0010
0000
0000
0000
,
0001
0001
0001
0001
,
0000
0000
0100
0000
,
0010
0000
0000
0000
,
0010
0000
0000
0000
,
0010
0000
0000
0000
,
0100
0000
0000
0000
,
1001
0000
0000
0000
;

//---------------dance-single - ----------------
#NOTEDATA:;
#CHARTNAME:;
#STEPSTYPE:dance-single;
#DESCRIPTION:;
#CHARTSTYLE:;
#DIFFICULTY:Easy;
#METER:6;
#RADARVALUES:0.373543,0.447570,0.085888,0.219491,0.004772,274.000000,265.000000,9.000000,23.000000,0.000000,0.000000,0.000000,0.000000,0.000000,0.373543,0.447570,0.085888,0.219491,0.004772,274.000000,265.000000,9.000000,23.000000,0.000000,0.000000,0.000000,0.000000,0.000000;
#CREDIT:Pie-kun;
#NOTES:
0000
0000
0000
0000
,
0000
0000
0000
0000
,
0000
0000
0000
0000
,
1010
0000
0000
0000
,
1100
0000
0000
0000
,
0011
0000
0000
0000
,
0200
0000
0000
0000
0000
0000
0000
0300
,
0010
0000
1000
0100
0000
0100
0010
0001
,
0100
0000
0100
0010
0000
0010
1000
0100
,
0010
0000
0010
0001
0000
0001
0100
0010
,
1000
0000
1000
0100
0000
0100
0010
0001
,
0100
1000
0100
0001
,
0010
1000
0010
0001
,
0100
0010
1000
0100
,
0010
0000
0001
0000
1000
0001
1000
0001
,
1000
1000
0100
0100
,
0010
0100
0010
0000
0001
0000
0001
0000
,
0100
0100
0010
0010
,
1000
0001
1000
0000
1000
0000
0100
0000
,
0010
0000
0001
0000
0100
0000
0010
1000
,
0000
0100
0000
0001
0000
0001
0001
0001
,
0100
0000
1000
0000
0010
0000
0000
0100
,
0000
0001
0000
0100
0000
0010
1000
0100
,
1000
1000
0001
0001
,
0100
0010
0100
0000
0001
0000
0001
0000
,
1000
1000
0100
0100
,
0010
0001
0010
0000
0001
0000
0100
0000
,
0010
0000
1000
0000
0001
0000
1000
0100
,
0000
0001
0000
0100
0000
0100
0100
0100
,
0010
0000
0001
0000
0100
0000
0010
1000
,
0000
0001
0000
1000
0000
0100
0100
0100
,
0010
0000
0001
0000
,
0100
0000
0000
0100
0000
0000
0100
0000
0100
0000
0000
0000
0001
0000
0000
0000
,
2000
0000
0000
3200
0000
0000
0320
0000
,
0031
0000
0001
0000
0001
0000
1000
0010
,
0200
0000
0000
0302
0000
0000
0023
0000
,
0130
0100
0100
0010
,
0002
0000
0000
0023
0000
0000
0230
0000
,
1300
0000
1000
0000
1000
0000
0010
0100
,
0002
0000
0000
0203
0000
0000
0320
0000
,
1000
1000
1030
0000
,
0020
0000
0000
0200
0030
0000
0302
0000
,
1003
0001
1000
0000
0110
0000
0000
0000
,
0200
0000
0000
0302
0000
0000
0023
0000
,
0130
0010
0100
0000
0010
0000
1001
0000
,
0010
0000
1000
0000
,
0100
0100
0010
0000
,
0001
0000
0000
0000
,
2001
0100
0100
3100
,
1000
0001
1000
0001
1000
0001
1000
0001
,
1000
1000
1000
0000
,
0010
0000
0100
0001
0000
0001
0100
0000
,
0100
0000
0010
1000
0000
1000
0010
0000
,
0100
0010
0100
0010
0100
0010
0100
0000
,
0001
1000
0100
0000
,
1000
0100
0010
0001
0000
0001
0100
0010
,
2000
0000
3010
2000
0000
3010
1000
0100
,
0020
0001
0001
0031
,
0101
1010
1001
0001
,
1000
0000
1000
0100
0000
0100
0010
0000
,
0001
0000
0001
0100
0000
0100
0010
1000
,
0010
0000
0010
0000
0010
0100
0000
0001
,
0000
1000
0100
0010
,
0001
0000
0000
0000
,
1000
0000
0000
0000
,
0010
0000
0000
0000
0000
0000
0100
0001
,
0100
0000
0010
1000
0000
1000
0100
0010
,
0001
0000
0000
0000
;

//---------------dance-single - ----------------
#NOTEDATA:;
#CHARTNAME:;
#STEPSTYPE:dance-single;
#DESCRIPTION:;
#CHARTSTYLE:;
#DIFFICULTY:Medium;
#METER:8;
#RADARVALUES:0.497603,0.545506,0.410352,0.238577,0.009543,365.000000,322.000000,43.000000,25.000000,0.000000,0.000000,0.000000,0.000000,0.000000,0.497603,0.545506,0.410352,0.238577,0.009543,365.000000,322.000000,43.000000,25.000000,0.000000,0.000000,0.000000,0.000000,0.000000;
#CREDIT:ohaiimian;
#NOTES:
0000
0000
0000
0000
,
0000
0000
0000
0000
,
0000
0000
0000
0000
0000
0010
0001
0000
,
0101
0000
0000
0000
0000
0100
0010
0000
,
1010
0000
0000
0000
0000
1000
0100
0000
,
1001
0000
0000
0000
0000
0000
0010
0001
,
0200
0000
0010
0010
0000
1300
0100
0001
,
0010
0001
0010
0001
0010
0001
0010
0001
,
0100
0001
0100
0001
0100
0001
0100
0001
,
1000
0010
1000
0010
1000
0010
1000
0010
,
1000
0100
1000
0100
1000
0100
1000
0100
,
0010
0000
0001
0000
0100
0000
0010
0100
,
0001
0000
0010
0000
0100
0000
1000
0100
,
0010
0000
0001
0000
0100
0000
0010
1000
,
0100
0000
0100
0000
0010
0001
1000
0001
,
0100
0101
0010
0101
,
0010
1100
0010
1100
,
0010
1001
0100
1001
,
0010
0000
1000
0200
0000
1300
0001
1000
,
0010
0000
0010
0000
0200
0000
0000
0001
,
0000
1000
0000
0010
0000
0310
1000
0100
,
0010
0000
0010
0000
0200
0000
0000
1000
,
0000
0001
0000
0010
0000
0310
0001
1000
,
0100
0011
0100
0011
,
0100
1010
0100
1010
,
0001
0110
1000
0110
,
0001
0000
0100
0020
0000
1030
0100
1000
,
0100
0000
0100
0000
0020
0000
0000
0001
,
0000
1000
0000
0100
0000
0130
0010
0001
,
0100
0000
0100
0000
0020
0000
0000
0001
,
0000
1000
0000
0100
0000
0130
0001
1000
,
0100
0100
0011
0001
,
0001
0000
0000
0100
0000
0000
0010
1000
0010
0000
0000
0000
1010
0000
0000
0000
,
1000
0100
0010
0001
0100
0010
0200
0000
,
0001
0001
0000
0010
0010
0000
1000
0000
,
0310
1000
0100
0010
0100
1000
0001
0200
,
0010
0010
0000
1000
1000
0000
0001
0000
,
0301
0010
0100
1000
0010
0100
0020
0000
,
0100
0100
0000
1000
1000
0000
0001
0000
,
0130
0010
1000
0100
0010
0001
0200
0000
,
0010
0010
0000
1000
1000
0000
0000
0000
,
0301
0010
0100
1000
0001
0010
0200
0000
,
1000
0000
0010
0010
0000
0001
0001
0000
,
1300
0010
0100
0001
1000
0010
0200
0000
,
0010
0000
0001
0001
0000
1000
1000
0000
,
0310
0000
1000
0100
0001
0100
1000
0020
,
0000
0000
0000
0030
,
0100
0000
0001
0010
0000
0100
1000
0000
,
0110
0000
0010
0000
1000
0001
1000
0001
,
0101
1010
0101
1010
,
1000
0001
2002
3003
,
0011
0000
0001
0010
0000
0010
0100
0000
,
1100
0000
1000
0010
0000
0010
0100
0001
,
0011
0000
1100
0000
0011
0010
0000
0200
,
0000
1300
2002
3003
,
0100
0010
1000
0010
0100
0001
0010
0100
,
1000
0100
0010
0000
0100
0010
0001
0000
,
0101
0110
0101
0110
,
0001
0010
0220
0330
,
1100
0000
0100
0010
0000
0010
0001
0000
,
0011
0000
0001
0100
0000
0100
0010
1000
,
1010
0000
0110
0000
1010
0010
0000
2000
,
0000
3100
0220
0330
,
0011
0000
0000
0000
0000
0010
0001
0000
,
0101
0000
0000
0000
0000
0100
0010
0000
,
1010
0000
0000
0000
0000
0000
1000
0100
,
0010
0000
0001
0100
0000
0010
1000
0100
,
0002
0003
0000
0000
;
