#TITLE:Icebreaker;
#SUBTITLE:;
#ARTIST:Agnete;
#TITLETRANSLIT:;
#SUBTITLETRANSLIT:;
#ARTISTTRANSLIT:;
#CREDIT:Oni-91 + Telperion;
#BANNER:Icebreaker.png;
#BACKGROUND:Icebreaker-bg.PNG;
#LYRICSPATH:;
#CDTITLE:;
#MUSIC:Icebreaker.ogg;
#OFFSET:-2.203;
#SAMPLESTART:48.292;
#SAMPLELENGTH:21.333;
#SELECTABLE:YES;
#DISPLAYBPM:90.000:125.000;
#BPMS:0.000=125.000,96.000=90.000,128.000=125.000,164.000=90.000;
#STOPS:;
#BGCHANGES:;

//---------------dance-single - ----------------
#NOTES:
     dance-single:
     :
     Hard:
     7:
     0.431,0.448,0.153,0.274,0.298:
0001
0000
0000
0100
0000
0000
0001
0000
0000
0100
0000
0000
0001
0000
0000
0000
,
1000
0000
0000
0010
0000
0000
1000
0000
0000
0001
0000
0000
0010
0000
0001
0000
,
0010
0000
0000
0100
0000
0000
0010
0000
0000
0100
0000
0000
0010
0000
0000
0000
,
0001
0000
0000
0010
0000
0000
0001
0000
0000
1000
0000
0000
0100
0000
0100
0000
,
0100
0000
0000
1000
0000
0000
0001
0000
0000
1000
0000
0000
0001
0000
0000
0000
,
0100
0000
0000
0010
0000
0000
1000
0000
0000
0010
0000
0000
0100
0000
0001
0000
,
1000
0000
0000
0100
0000
0000
0010
0000
0000
0001
0000
0000
1000
0000
0000
1000
,
0000
0000
0001
0000
0000
0001
0000
0000
0100
0000
0000
0100
0000
0000
0001
0000
,
1001
0000
0000
1000
0000
0000
0010
0000
0000
0100
0000
0000
0001
0000
0000
0000
,
1000
0001
1000
0100
0010
0100
1000
0010
,
0100
0000
0000
0001
0000
0000
0100
0000
0000
0010
0000
0000
1000
0000
0000
0000
,
0001
0000
0000
1000
0000
0000
0100
0000
0000
0010
0000
0000
0100
0000
0010
0000
,
0001
0000
1000
0000
0010
0000
1000
0000
0000
1000
0000
0000
0100
0000
0000
0000
,
0010
0001
1000
0010
0100
1000
0100
0001
,
1000
0000
0000
1000
0000
0000
0001
0000
0000
0001
0000
0000
0100
0000
0000
0010
,
0000
0000
1000
0000
0000
0010
0000
0000
0100
0000
0001
0000
0010
0000
0110
0000
,
0120
0000
0001
0000
0130
1000
0001
0000
,
0200
0000
0010
0000
1300
0100
0001
0010
,
0210
0000
1000
0000
0310
0001
1000
0000
,
0020
0000
0100
0000
0031
0010
1000
0001
,
0102
0000
1000
0000
0103
0001
0010
0100
,
2000
0000
0001
0000
3100
1000
0010
0100
,
0210
0000
0000
1000
0000
0000
0010
0000
0000
0301
0000
0000
1001
0000
0000
0000
,
0000
2000
3200
0320
,
0031
0000
0000
1000
0010
0000
0101
0000
0000
0000
0001
0000
1000
0000
0000
0000
,
0100
0000
0000
0010
0001
0000
1100
0000
0000
0000
1000
0001
0100
0000
0020
0000
,
0001
0000
0000
0000
2030
0000
0000
3001
0010
0000
0100
0000
1000
0000
0200
0000
,
0001
0000
0000
0000
2300
0000
0000
3001
0100
0000
0010
0000
1000
0010
0000
0000
,
0101
0000
0000
0001
0010
0000
1100
0000
0000
0000
1000
0000
0001
0000
0001
0000
,
0100
0000
0000
0010
1000
0000
0101
0000
0000
0000
0001
1000
0100
0000
0020
0000
,
1000
0000
0000
0000
0032
0000
0000
1003
0010
0000
0100
0000
0001
0000
0200
0000
,
1000
0000
0000
0000
0302
0000
0000
1003
0100
0000
0010
0000
0001
0010
0100
0000
,
2000
0000
3000
0000
,
0020
0000
0000
0230
0000
0000
0301
0000
,
2001
0000
0000
3200
0000
0000
0300
0000
,
0120
0000
0000
0032
0000
0000
1003
0000
,
1010
0000
0000
0010
0000
0000
0100
0000
0000
0001
0000
0000
1000
0000
0000
0010
,
0000
0000
0100
0000
0000
0001
0000
0000
1000
0000
0000
0100
0000
0000
0010
0000
,
0002
0000
0000
0013
0000
0000
0020
0000
0000
0130
0000
0000
0200
0000
0000
1300
,
0000
0000
2000
0000
0000
3001
0000
0000
0001
0000
0000
0100
0000
0000
0020
0000
,
0000
0000
0000
0030
,
1010
0000
0001
0100
0001
0000
0010
0000
0001
0100
0001
0000
1000
0000
0100
0000
,
1000
0000
0001
1000
0001
0000
0010
0000
0100
1000
0100
0000
0010
0000
0100
0000
,
1000
0000
0000
0010
1000
0000
0000
0001
0100
0000
0010
0000
1000
0000
0010
0000
,
0100
0000
0000
0010
1000
0000
0000
0001
0010
0000
0100
0000
1000
0001
1000
0000
,
0011
0000
1000
0100
1000
0000
0010
0000
1000
0100
1000
0000
0001
0000
0100
0000
,
0001
0000
1000
0001
1000
0000
0010
0000
0100
0001
0100
0000
0010
0000
0100
0000
,
0010
0000
0000
1000
0100
0000
0000
1000
0100
0000
0010
0000
0001
0000
1000
0010
,
1000
0000
0200
0000
0000
0000
0310
0000
0001
0100
0001
0000
1000
0100
1000
0000
,
1100
0000
0000
0001
0100
0000
0010
0000
0000
0000
1000
0000
0010
0000
1000
0000
,
0001
0000
0000
1000
0100
0000
0010
0000
0000
0000
0001
0000
0011
0000
1000
0000
,
0020
0000
0000
1000
1000
0000
0000
0100
0130
0000
1000
0000
0000
0000
0002
0000
,
2000
0000
0000
0000
,
3003
0000
0000
0000
;

//---------------dance-single - ----------------
#NOTES:
     dance-single:
     :
     Challenge:
     8:
     0.498,0.555,0.250,0.322,0.362: // measure 1
1000
0000
0000
0100
0000
0000
0010
0000
0000
0001
0000
0000
1000
0000
0010
0000
,  // measure 2
0100
0010
1000
0010
1000
0100
0010
0001
,  // measure 3
1000
0000
0000
0100
0000
0000
0001
0000
0000
0100
0000
0000
1000
0000
0010
0000
,  // measure 4
0010
0000
0000
0100
0000
0000
1000
0000
0000
0100
0000
0000
0001
0000
1000
0000
,  // measure 5
0010
0000
1000
0000
0100
0000
1000
0000
0000
0100
0000
0000
1000
0000
0001
0000
,  // measure 6
0100
0010
0100
0001
0010
0001
1000
0100
,  // measure 7
1000
0000
0000
0100
0000
0000
0001
0000
0000
0100
0000
0000
1000
0000
0000
0010
,  // measure 8
0000
0000
0001
0000
0000
0010
0000
0000
1000
0000
0000
0001
0000
0000
1000
0000
,  // measure 9
1010
0000
0000
1000
0000
0000
0001
0000
0000
1000
0000
0000
0100
0000
0010
0000
,  // measure 10
0100
0010
0001
1000
0001
0100
0010
1000
,  // measure 11
0100
0000
0000
0010
0000
0000
1000
0000
0000
0010
0000
0000
0001
0000
1000
0000
,  // measure 12
1000
0000
0000
0010
0000
0000
0001
0000
0000
0010
0000
0000
1000
0000
0001
0000
,  // measure 13
0100
0000
0010
0000
0100
0000
0001
0000
0000
0100
0000
0000
0010
0000
1000
0000
,  // measure 14
0100
0010
0001
0010
0001
0100
1000
0100
,  // measure 15
0010
0000
0000
0010
0000
0000
1000
0000
0000
1000
0000
0000
0100
0000
0000
0100
,  // measure 16
0000
0000
0001
0000
0000
0001
0000
0000
0100
0000
1000
0000
0001
0000
1000
0000
,  // measure 17
1001
0000
0000
0001
1000
0000
0001
0000
0100
0001
0000
0000
1000
0000
0000
0000
,  // measure 18
1010
0000
0000
0010
0100
0000
0001
0000
1000
0000
0100
0000
0001
0000
0100
0000
,  // measure 19
1100
0000
0000
1000
0001
0000
1000
0000
0100
1000
0000
0000
0001
0000
0000
0000
,  // measure 20
0101
0000
0000
0001
1000
0000
0100
0000
0001
0000
0100
0000
0010
0000
0001
0000
,  // measure 21
2001
0000
0010
0000
3001
1000
0100
0010
,  // measure 22
0002
0000
0100
0000
1003
0001
0010
0100
,  // measure 23
0120
0000
0000
1000
0000
0000
0100
0000
0000
0031
0000
0000
2002
0000
0000
0000
,  // measure 24
3003
0002
0203
0320
,  // measure 25
1030
0000
0000
0001
0010
0000
1100
0000
0000
1000
0100
0000
0011
0000
0000
0000
,  // measure 26
1001
0000
0000
1000
0010
0000
0101
0000
0000
0000
0001
0100
1000
0000
0100
0000
,  // measure 27
0002
0000
0000
0000
0000
0000
1003
0100
2000
0000
0000
0000
0000
0000
3001
0000
0100
0000
0000
0000
0010
0000
0000
0000
1010
0000
0000
0000
1000
0000
0000
0000
,  // measure 28
0002
0000
0000
0000
0000
0000
1003
0100
2000
0000
0000
0000
0000
0000
3001
0000
0100
0000
0000
0000
0001
0000
0000
0000
1000
0000
0100
0000
0010
0000
0000
0000
,  // measure 29
0001
0000
0000
1000
0010
0000
0101
0000
0000
0001
0100
0000
1010
0000
0000
0000
,  // measure 30
1001
0000
0000
0001
0010
0000
1100
0000
0000
0000
1000
0100
0001
0000
0100
0000
,  // measure 31
2000
0000
0000
0000
0000
0000
3001
0100
0002
0000
0000
0000
0000
0000
1003
0000
0100
0000
0000
0000
0010
0000
0000
0000
0011
0000
0000
0000
0001
0000
0000
0000
,  // measure 32
2000
0000
0000
0000
0000
0000
3001
0100
0002
0000
0000
0000
0000
0000
1003
0000
0100
0000
0000
0000
0010
0000
0000
0000
0001
0000
0010
0000
0100
0000
0000
0000
,  // measure 33
2000
0000
0000
0000
3000
0000
0001
0100
,  // measure 34
0020
0000
0100
2030
0000
0000
0010
0002
,  // measure 35
0000
3000
0003
1000
1000
0010
0100
0001
,  // measure 36
2000
0000
0010
3002
0000
0000
1000
0020
,  // measure 37
0000
0033
0000
0001
0010
0100
1000
0001
,  // measure 38
0200
0000
0001
0310
0000
0110
0000
1000
,  // measure 39
0001
0000
0000
0002
0000
0000
0013
0000
0000
0020
0000
0000
0130
0000
0000
0200
,  // measure 40
0000
0000
1300
0000
0000
2000
0000
0000
3001
0000
0000
0002
0000
0000
0200
0000
,  // measure 41
0000
0000
0000
0303
,  // measure 42
1000
0000
0000
0001
0100
0000
1010
0000
0000
1000
0010
0000
0101
0000
0000
0000
,  // measure 43
1001
0000
0000
1000
0100
0000
0011
0000
0000
0000
0001
0010
1000
0000
0010
0000
,  // measure 44
0002
0000
0000
0000
0000
0000
1003
0010
2000
0000
0000
0000
0000
0000
3001
0000
0010
0000
0000
0000
0100
0000
0000
0000
1100
0000
0000
0000
1000
0000
0000
0000
,  // measure 45
0002
0000
0000
0000
0000
0000
1003
0010
2000
0000
0000
0000
0000
0000
3001
0000
0010
0000
0000
0000
0001
0000
0000
0000
1000
0000
0010
0000
0100
0000
0000
0000
,  // measure 46
0001
0000
0000
1000
0100
0000
0011
0000
0000
0001
0010
0000
1100
0000
0100
0000
,  // measure 47
1001
0000
0000
0001
0100
0000
1010
0000
0000
0000
1000
0010
0001
0000
0010
0000
,  // measure 48
2000
0000
0000
0000
0000
0000
3001
0010
0002
0000
0000
0000
0000
0000
1003
0000
0010
0000
0000
0000
0100
0000
0000
0000
0101
0000
0000
0000
0000
0000
0000
0000
,  // measure 49
1000
0000
0100
0010
0001
0000
1000
0010
0100
0010
1000
0001
0010
0001
1000
0000
,  // measure 50
1100
0000
0000
0001
1000
0000
0010
1000
0001
1000
0100
0000
0010
0000
0001
0000
,  // measure 51
0011
0000
0000
1000
0001
0000
0100
0010
1000
0010
1000
0000
0001
0000
0001
0000
,  // measure 52
2000
0000
0000
0000
0000
0000
3001
0010
0002
0000
0000
0000
0000
0000
1003
0000
1000
0000
0000
0000
0020
0000
0000
0000
0000
0000
0000
0000
0100
0000
0000
0000
,  // measure 53
0200
0000
0000
0000
,  // measure 54
0330
0000
0000
0000
;

//---------------dance-single - ----------------
#NOTES:
     dance-single:
     :
     Medium:
     4:
     0.281,0.299,0.048,0.322,0.004:
1000
0001
0200
0000
0000
0000
0000
0000
,
0301
0000
0100
0000
0010
1000
0001
0000
,
1000
0000
0000
1000
0000
0000
2000
0000
0000
0000
0000
0000
0000
0000
0000
0000
,
3000
0000
0000
0000
,
0001
0010
0200
0000
0000
0000
0000
0000
,
0310
0000
0001
0000
1000
0001
1000
0001
,
0200
0000
0000
0000
,
0300
0000
0000
0000
0000
0000
0000
1000
,
1000
0001
0200
0000
0000
0000
0000
0000
,
0301
0000
0100
0000
0010
1000
0010
1000
,
0002
0000
0000
2000
0000
0000
3003
0000
,
2000
0000
0000
0002
0000
0000
3003
0000
,
1000
0100
0020
0000
0000
0000
0000
0000
,
0031
0000
0010
0000
0001
0100
0001
0100
,
0020
0000
0000
2030
0000
0000
3200
0000
,
0000
0320
0000
0000
0031
1000
0001
1000
,
0100
0000
0100
1000
0100
0000
0100
0000
,
0010
0000
0010
0000
0010
0001
0010
0000
,
0001
0000
0001
1000
0001
0000
0001
0000
,
1000
0000
1000
0000
1000
0010
1000
0001
,
0100
0000
0100
0010
1000
0000
1000
0000
,
0001
0000
0001
0010
0100
0000
0100
0100
,
0100
0000
0010
0001
0010
0000
0001
0000
,
2002
0000
0000
3003
,
1002
0000
0000
0000
0000
0000
0103
0001
,
0200
0000
0000
0000
0000
0000
0310
0100
,
0010
0000
1000
0000
0001
1000
0001
0000
,
1000
0000
0100
0000
0010
0100
0010
0000
,
1002
0000
0000
0000
0000
0000
0103
0010
,
2000
0000
0000
0000
0000
0000
3010
1000
,
0010
0000
0100
0000
0001
0010
0100
0000
,
0010
0000
0001
0000
1000
0001
0100
0001
,
2000
0000
0000
0000
,
3200
0000
0000
0010
0000
0000
0000
0000
,
0320
0000
0000
0001
0000
0000
0000
0000
,
0032
0000
0000
0100
0000
0000
1000
0000
,
2003
0000
0000
3200
0000
0000
0310
0000
,
0002
0000
0000
0203
0000
0000
0310
0000
,
0020
0000
0000
2030
,
3200
0000
0000
0000
0000
0020
0000
0000
,
0330
0000
0000
0000
,
2001
0000
0000
0000
3100
0000
1000
0001
,
0200
0000
0000
0000
0310
0100
0010
1000
,
0001
0000
0001
0000
0100
0001
0100
0000
,
0010
0000
0010
0000
1000
0100
0010
0000
,
1002
0000
0010
0000
1003
0000
0001
0100
,
0020
0000
0100
0000
1030
0010
1000
0001
,
0010
0000
0100
0000
0010
0001
1000
0000
,
0001
0000
0100
0000
0010
1000
0001
0000
,
2001
0000
0100
0000
0001
0000
3100
1000
,
0002
0000
0010
0000
1003
0001
1000
0001
,
0200
0000
0001
0000
0310
0100
0000
0001
,
0200
0000
0000
0000
,
0300
0000
0000
0000
;

//---------------dance-single - ----------------
#NOTES:
     dance-single:
     :
     Easy:
     2:
     0.190,0.213,0.113,0.233,0.000:
1001
0000
0000
0000
,
0001
0000
0100
0010
,
0200
0000
0000
0000
,
0300
0000
0000
0000
,
1001
0000
0000
0000
,
1000
0000
0100
0010
,
0200
0000
0000
0000
,
0300
0000
0000
0000
,
0110
0000
0000
0000
,
1000
0000
0001
0100
,
0002
0000
0000
0000
,
1003
0000
0001
0000
,
1001
0000
0000
0000
,
1000
0000
0100
1000
,
0002
0000
0000
0000
,
0103
0000
0010
0100
,
1001
0001
0100
0000
,
0010
1000
0001
1000
,
0100
0010
0001
0000
,
1000
0001
1000
0001
,
1001
0010
0100
0000
,
0010
1000
0001
0000
,
1000
0100
0010
2002
,
3003
0000
0000
0000
,
2001
0000
3100
1000
,
0002
0000
0103
0010
,
1000
0100
1000
0000
,
0001
0010
0001
0000
,
1002
0000
0013
0100
,
0020
0000
0130
0010
,
0001
1000
0001
0000
,
0100
0010
0100
2002
,
3003
0000
0000
0000
,
0002
0000
0000
0000
,
2003
0000
0000
0000
,
3200
0000
0000
0000
,
0320
0000
0230
0000
,
0320
0000
0032
0000
,
2003
0000
0000
0000
,
0002
0000
0000
0000
,
3003
0000
0000
0000
,
1002
0000
0103
0001
,
2000
0000
3001
0010
,
0100
0010
0001
0001
,
1000
0010
0100
0010
,
2001
0000
3010
0100
,
0002
0000
0013
0001
,
0100
0010
1000
0100
,
0010
0100
1000
0001
,
2001
0000
3001
0100
,
0020
0000
0130
0010
,
1000
0001
1000
0001
,
2002
0000
0000
0000
,
3003
0000
0000
0000
;

//---------------dance-single - ----------------
#NOTES:
     dance-single:
     :
     Beginner:
     1:
     0.097,0.167,0.032,0.000,0.000:
0100
0000
0000
0000
,
0000
0000
0000
0000
,
0010
0000
0000
0000
,
1000
0000
0000
0000
,
0001
0000
0000
0000
,
1000
0000
0000
0000
,
0100
0000
0000
0000
,
0010
0000
0000
0000
,
1001
0000
0000
0000
,
0000
0000
0000
0000
,
1000
0000
0000
0000
,
0001
0000
0000
0000
,
0100
0000
0000
0000
,
0010
0000
0000
0000
,
1000
0000
0000
0000
,
0000
0000
0000
0000
,
1001
0000
0001
0000
,
0100
0000
0001
0000
,
1000
0000
0100
0000
,
0010
0000
0001
0000
,
1000
0000
1000
0000
,
0000
0000
0000
0000
,
0001
0000
0001
0001
,
0000
0000
0000
0000
,
1001
0000
0000
0000
,
1000
0000
0000
0000
,
0001
0001
0001
0000
,
0100
0100
0100
0000
,
0010
0000
0000
0000
,
1000
0000
0000
0000
,
0001
0001
0001
0000
,
0100
0100
0100
0100
,
0100
0000
0000
0000
,
0010
0000
0000
0000
,
0100
0000
0000
0000
,
0001
0000
0000
0000
,
1000
0000
0000
0000
,
0001
0000
1000
0000
,
0100
0000
0000
0000
,
0010
0000
0000
0000
,
0000
0000
0000
0000
,
1001
0000
0000
0001
,
0001
0000
0000
0100
,
0100
0010
0100
0000
,
0001
1000
0001
0000
,
1000
0000
0000
0100
,
0100
0000
0000
0000
,
0010
0100
0010
0000
,
0001
1000
0001
0000
,
0100
0000
0010
0000
,
1000
0000
0001
0000
,
0100
0100
0100
0100
,
0100
0000
0000
0000
;
