#TITLE:Girls In Luv;
#SUBTITLE:;
#ARTIST:DJane HouseKat feat. Rameez;
#TITLETRANSLIT:;
#SUBTITLETRANSLIT:;
#ARTISTTRANSLIT:;
#GENRE:;
#CREDIT:SupremeX + TiKAL;
#MUSIC:[ZIv Academy III] - Girls In Luv.ogg;
#BANNER:[ZIv Academy III] - Girls In Luv.png;
#BACKGROUND:[ZIv Academy III] - Girls In Luv-bg.png;
#CDTITLE:;
#SAMPLESTART:46.177;
#SAMPLELENGTH:15.360;
#SELECTABLE:YES;
#OFFSET:-0.117;
#BPMS:0.000=125.000;
#STOPS:;
#BGCHANGES:;
#FGCHANGES:;

//--------------- dance-single - SupremeX ----------------
#NOTES:
     dance-single:
     SupremeX:
     Beginner:
     1:
     0.119,0.123,0,0,0:
0000
0000
0000
0000
,
0000
0000
0000
0000
,
0000
0000
0000
0000
,
0000
0000
0000
0000
,
1000
0000
1000
0000
,
0010
0000
0010
0000
,
0100
0000
0100
0000
,
0001
0000
0001
0000
,
1000
0000
1000
0000
,
0010
0000
0010
0000
,
0100
0000
0100
0000
,
0001
0000
0001
0000
,
1000
0000
1000
0000
,
0010
0000
0010
0000
,
0100
0000
0100
0000
,
0001
0000
0001
0000
,
1000
0000
0000
0000
,
0100
0000
0000
0000
,
0010
0000
0000
0000
,
0001
0000
0000
0000
,
1000
0000
0000
0000
,
0010
0000
0000
0000
,
0100
0000
0000
0000
,
0001
0000
0000
0000
,
1000
0000
1000
0000
,
0000
0010
0000
0000
0010
0000
0000
0000
,
0000
0100
0000
0100
,
0000
0001
0000
0001
,
0000
1000
0000
0000
1000
0000
0000
0000
,
0000
0010
0000
0000
0010
0000
0000
0000
,
0000
0100
0000
0100
,
0000
0001
0000
0001
,
1000
0000
0000
0010
0000
0000
0000
0000
,
1000
0000
0000
0001
0000
0000
0000
0000
,
0100
0000
0000
0001
0000
0000
0000
0000
,
1000
0000
0001
0000
,
0100
0000
0000
0010
0000
0000
0000
0000
,
1000
0000
0000
0001
0000
0000
0000
0000
,
0100
0000
0000
0010
0000
0000
0000
0000
,
1000
0000
0001
0000
,
1000
0000
0000
0010
0000
0000
0000
0000
,
0100
0000
0000
0001
0000
0000
0000
0000
,
1000
0000
0000
0001
0000
0000
0000
0000
,
0100
0000
0010
0000
,
1000
0000
0000
0001
0000
0000
0000
0000
,
0100
0000
0000
0010
0000
0000
0000
0000
,
1000
0000
0000
0001
0000
0000
0000
0000
,
1000
0000
0010
0000
,
0100
0000
0000
0000
;

//--------------- dance-single - TiKAL ----------------
#NOTES:
     dance-single:
     TiKAL:
     Easy:
     3:
     0.247,0.321,0.072,0.144,0:
0000
0000
0000
0000
,
0000
0000
0000
0000
,
0000
0000
0000
0000
,
0000
0000
0000
0000
,
0001
0000
0000
0001
0000
0000
0001
0000
,
1000
0000
0000
1000
0000
0000
1000
0000
,
0010
0000
0000
0010
0000
0000
0010
0000
,
0100
0001
1000
0001
,
1001
1000
0010
0010
,
0100
0001
1000
1000
,
0100
1000
0001
0001
,
0100
0010
0100
0010
,
1000
0100
1000
1000
,
0001
0100
0001
0001
,
1000
0010
1000
1000
,
0001
0010
0001
0001
,
1001
0000
1000
0010
,
0110
0000
0100
0001
,
1001
0000
1000
0100
,
1000
0100
0010
0001
,
1001
0000
0001
0010
,
0110
0000
0100
1000
,
0001
0010
0100
1000
,
0002
0203
0320
2030
,
3001
0001
0002
0003
,
0010
0010
0020
0030
,
0200
0300
0200
0300
,
1000
1000
2000
3000
,
0001
0001
0002
0003
,
0100
0100
0200
0300
,
0020
0030
0020
0030
,
1000
1000
2000
3000
,
0001
0000
0000
0100
0000
0000
0001
0000
,
1000
0000
0000
0100
0000
0000
1000
0000
,
0001
0000
0000
0010
0000
0000
0001
0000
,
1000
0100
0010
0001
,
1000
0000
0000
0010
0000
0000
1000
0000
,
0001
0000
0000
0010
0000
0000
0001
0000
,
1000
0000
0000
0100
0000
0000
1000
0000
,
0001
0010
0100
1000
,
0001
0000
0000
0001
0000
0000
0001
0000
,
0100
0000
0000
0100
0000
0000
0100
0000
,
0010
0000
0000
0010
0000
0000
0010
0000
,
1000
0001
1000
0001
,
1000
0000
0000
1000
0000
0000
1000
0000
,
0100
0000
0000
0100
0000
0000
0100
0000
,
0010
0000
0000
0010
0000
0000
0010
0000
,
0001
1000
0001
1000
,
1001
0000
0000
0000
;

//--------------- dance-single - SupremeX ----------------
#NOTES:
     dance-single:
     SupremeX:
     Medium:
     6:
     0.314,0.321,0.144,0.072,0.057:
0000
0000
0000
0000
,
0000
0000
0000
0000
,
0000
0000
0000
0000
,
0000
0000
0000
0000
,
1000
0000
0000
0020
0000
0000
0130
0000
,
0100
0000
0000
1001
0000
0000
1000
0010
,
1000
0000
0000
0002
0000
0000
0103
0000
,
0010
1000
0101
1010
,
0001
0000
0000
0000
1000
0000
0000
0000
0010
0000
0000
0010
0000
0000
0010
0000
,
0000
0000
0100
0000
0001
0000
0000
0000
1000
0000
0000
1000
0000
0000
1000
0000
,
0000
0000
0001
0000
0100
0000
0000
0000
0010
0000
0000
0010
0000
0000
0010
0000
,
0000
0000
1000
0000
0100
0000
0010
0000
0001
0000
0000
0000
0001
0000
0000
0001
,
0000
0010
0100
1000
,
0001
0000
0100
0000
0010
1000
0001
0000
,
1000
0000
0000
1000
0000
0000
1000
0000
0010
0000
0000
0000
0100
0000
0000
0000
,
0001
0000
1000
0010
0100
0001
1000
0000
,
1001
0000
0000
0000
0000
0000
0010
0000
0100
0000
0000
0100
0000
0000
0000
0000
,
0101
0000
0000
0000
1000
0000
0100
0000
0010
0000
0000
0001
0000
0000
0001
0000
,
1000
0000
1000
0000
0010
0000
0000
0000
1000
0000
0100
0000
0000
0100
0000
0000
,
0010
0000
0000
0000
0001
0000
1000
0000
0001
0000
0000
0010
0000
0000
0100
0000
,
1000
0000
1000
0000
0000
0000
0000
0000
0010
0000
0000
0010
0000
0000
0100
0000
,
0100
0000
0100
0000
0001
0000
0000
0000
1000
0000
0000
0000
0001
0000
0000
0001
,
0000
0100
0010
1000
,
0010
1000
0001
0100
0010
1000
0001
0000
,
1000
0000
0010
0100
0020
0000
0130
0000
,
0001
1000
0000
0010
0200
0000
0301
0000
,
0001
1000
0010
1000
,
0000
0001
0000
0100
0010
0000
1001
0000
,
0000
0100
0000
0001
2000
0000
0010
3000
,
0010
1000
0000
1000
0002
0000
0100
0000
,
0103
0001
1000
0010
,
0000
0100
0000
0100
0020
0000
1030
0000
,
1000
0000
0000
0001
0000
0000
0100
0001
,
0100
0000
0000
0010
0000
0000
1000
0001
,
1000
0000
0000
0010
0000
0000
0100
0000
,
0001
1000
0101
1010
,
0100
0000
0000
0100
0000
0000
0001
1000
,
0010
0000
0000
0010
0000
0000
1000
0001
,
0100
0000
0000
0100
0000
0000
0010
0000
,
1000
0001
0110
1001
,
0100
0000
0000
0100
0000
0000
0001
1000
,
0010
0000
0000
0010
0000
0000
1000
0001
,
0100
0000
0000
0100
0000
0000
0010
0000
,
1000
0001
1010
0101
,
1000
0000
0000
1000
0000
0000
0100
0010
,
0001
0000
0000
0001
0000
0000
0010
0100
,
1000
0000
0000
1000
0000
0000
0001
0000
,
0010
0100
1000
0110
,
1001
0000
0000
0000
;

//--------------- dance-single - TiKAL ----------------
#NOTES:
     dance-single:
     TiKAL:
     Challenge:
     8:
     0.649,0.616,0.154,0.986,0.226:
0000
0000
0000
0000
,
0000
0000
0000
0000
,
0000
0000
0000
0000
,
0000
0000
0000
0000
,
0002
0000
0103
0020
1000
0030
00M1
0010
,
0200
0000
1300
0002
0100
0003
001M
1000
,
0020
0000
1030
0200
0010
0300
0M02
0003
,
1001
0000
0000
0000
1010
0000
0000
0000
0101
0000
0001
0000
1000
0100
1000
0000
,
0020
0000
0130
0000
0101
0000
0001
0000
1000
0000
0100
1000
0001
1000
0010
0000
,
0100
0000
0001
0100
0001
0000
1000
0000
0100
0000
1000
0100
0010
0100
2000
0000
,
3001
0000
0100
0010
0100
0000
0010
0000
1000
0000
0100
1000
0001
1000
0100
0000
,
1000
0000
0010
0000
0100
0000
0001
0000
1000
0000
0100
0010
0001
0010
0200
0000
,
1300
0000
0001
0000
0100
0000
0010
0010
1000
0000
0001
0100
0010
0100
0000
0001
,
1000
0100
1000
0000
0010
0000
0100
0001
0100
0000
0010
1000
0002
0000
2003
0000
,
3001
0000
0100
0010
0000
1000
0000
0100
0010
0000
0001
0000
0100
0000
0001
0000
,
1000
0000
0100
1000
0000
0010
0000
0100
0001
0010
0001
0000
1000
0000
0020
0000
,
0230
0000
0302
0000
1003
0000
0100
0000
0010
0000
0001
0100
0000
0100
0020
0000
,
2030
0000
3200
0000
1300
0000
0001
0000
0100
0000
0010
0100
0000
0001
0200
0000
,
0302
0000
2003
0000
3100
0000
1000
0000
0001
0000
1000
0010
0000
0100
0001
0000
,
1000
0000
0100
0000
0010
0000
0100
0000
0010
0000
0001
0100
0000
0001
2000
0000
,
3002
0000
0203
0000
0310
0000
0100
0000
0001
0000
1000
0100
0000
1000
0020
0000
,
0230
0000
0302
0000
0013
0000
0001
0000
0100
0000
0010
1000
0000
0100
2000
0000
,
3001
0000
0100
0010
0000
1000
0000
0001
0100
0000
0010
0000
0100
0000
0001
0000
,
0101
0000
0100
0000
0110
0000
0010
0000
1010
0000
1000
0000
0001
1000
0010
0100
,
0010
0200
0301
2000
3200
1000
0000
0310
,
0001
0200
0310
2000
3020
0100
0000
1030
,
0002
0000
0013
0100
2000
0000
3002
0000
,
0103
0020
1030
0002
0203
0000
0010
0000
,
0301
0020
0031
2000
3020
1000
0000
0130
,
0001
0020
0130
2000
3200
0010
0000
1300
,
0002
0000
0103
0010
2000
0000
3002
0000
,
0103
0020
1030
0002
0203
0000
0010
0300
,
1002
0000
1003
0200
0310
0001
2000
3002
,
0023
0000
0130
2000
3010
0100
0002
2003
,
3020
0000
0130
0002
1003
0100
0020
0030
,
0011
0000
1100
0000
1000
0010
0100
0001
,
2001
0000
3001
0020
0130
1000
0002
2003
,
3200
0000
0310
0002
0103
0010
2000
3002
,
0203
0000
0310
2000
3001
0010
0200
0300
,
1100
0000
0100
0000
0110
0000
0010
0000
0011
0000
0001
0000
1000
0010
0100
0001
,
2000
0000
3100
2000
0001
3000
M100
0001
,
0020
0000
0031
0200
0010
0300
1M00
0100
,
2000
0000
3100
0020
0001
0030
02M0
0000
,
0302
0000
0203
0000
0320
1000
M230
0301
,
2000
0000
3010
2000
0001
3000
M010
0001
,
0200
0000
0301
0020
0100
0030
10M0
0010
,
2000
0000
3010
0200
0001
0300
0M20
0000
,
0032
0000
0023
0000
0230
0000
2300
3000
,
1001
0000
0000
0000
;
