#TITLE:Get the Treasure;
#SUBTITLE:;
#ARTIST:SHINee;
#TITLETRANSLIT:;
#SUBTITLETRANSLIT:;
#ARTISTTRANSLIT:;
#GENRE:K-POP;
#CREDIT:;
#BANNER:[ZIv Academy III] - Get The Treasure.png;
#BACKGROUND:[ZIv Academy III] - Get The Treasure-bg.png;
#LYRICSPATH:;
#CDTITLE:;
#MUSIC:[ZIv Academy III] - Get the Treasure.ogg;
#OFFSET:0.032796;
#SAMPLESTART:107.738785;
#SAMPLELENGTH:16.695648;
#SELECTABLE:YES;
#BPMS:0.000000=115.000000
;
#STOPS:
;
#BGCHANGES:0.000=[ZIv Academy III] - Get the Treasure.avi=1.000=0=0=0=StretchNoLoop====,
272.000=[ZIv Academy III] - Get The Treasure-bg.png=1.000=0=0=1=====,
99999=-nosongbg-=1.000=0=0=0 // don't automatically add -songbackground-
;
#KEYSOUNDS:;
#ATTACKS:;

//---------------dance-single - ----------------
#NOTES:
     dance-single:
     :
     Challenge:
     9:
     0.613808,0.662953,0.424791,0.271588,0.553621,617.000000,556.000000,61.000000,39.000000,0.000000,0.000000,0.613808,0.662953,0.424791,0.271588,0.553621,617.000000,556.000000,61.000000,39.000000,0.000000,0.000000:
0000
0000
0000
0000
,
0000
0000
0000
0000
,
0000
0000
0000
0000
,
0000
0000
0000
0000
,
0001
0000
0100
0000
0010
0000
0100
0000
1000
0000
0100
0000
0001
0000
0001
1000
,
0000
0000
0000
0000
0000
0000
0100
0000
0000
0000
0000
0000
0000
0000
0000
0000
0010
0000
0000
0000
0000
0000
0000
0000
0001
0000
0000
0000
0000
0000
0001
0000
0000
0000
0000
0000
0011
0000
0000
0000
0000
0000
0001
0000
0000
0100
0000
0000
,
0000
0000
0000
0010
0000
0000
0000
0000
1000
0000
0000
0000
0001
0000
0000
0001
0000
0000
1001
0000
0000
1001
0000
0000
,
1000
0000
0100
1000
0000
0001
0000
2002
0000
0000
3003
0000
1000
0000
0001
0000
,
1000
0000
0100
0000
0010
0000
0100
0000
0001
0000
0100
0000
1000
0000
1000
0100
,
0000
0000
0000
0000
0000
0000
0010
0000
0000
0000
0000
0000
0000
0000
0000
0000
0001
0000
0000
0000
0000
0000
0000
0000
0100
0000
0000
0000
0000
0000
0001
0000
0000
0100
0000
0000
0010
0000
0000
0100
0000
0000
0010
0000
0000
1000
0000
0000
,
0000
0000
0000
0010
0000
0000
0000
0000
0100
0000
0000
0000
0001
0000
0000
0001
0000
0000
1001
0000
0000
1001
0000
0000
,
1000
0000
1000
0100
0000
0010
0000
0001
0010
0000
0000
0001
1000
0000
0100
0000
,
2100
0000
0000
0000
3100
1000
0100
1000
0100
0000
1000
0010
0000
0000
0010
0000
,
0100
0000
0001
0100
0000
0001
0000
0002
0000
0000
0003
0000
0011
0000
0000
0000
,
2000
0000
0000
0000
3001
0100
0001
0100
0010
0000
0010
1000
0000
0001
0000
0100
,
0000
0010
0000
1000
0000
0100
0000
0020
0000
0000
0000
0031
0100
0000
0000
0000
,
0210
0000
0000
0000
0310
1000
0000
1000
0000
0000
0001
0100
0000
0010
0000
1000
,
0000
2000
0000
0000
3020
0000
0000
1030
0100
0000
0000
0000
0110
0000
0100
0000
,
1000
1000
0010
0010
0001
0001
0100
0100
,
1000
0100
1000
0100
0000
0000
1000
0001
1000
0001
0000
0000
1002
0000
0000
0000
,
1003
0000
0100
0000
1000
0001
0000
1000
0010
0000
0100
0000
0001
0000
1000
0000
,
0001
0000
0010
0000
0001
1000
0000
0001
0100
0000
0010
0000
1000
0000
0100
0000
,
1100
1000
1001
0000
1001
0001
0101
0100
,
0010
0000
0010
0000
1000
0000
1000
0000
0010
0100
0001
1000
0100
0000
0010
0000
,
0001
0000
0100
0000
0001
1000
0000
0001
0010
0000
0001
0000
0010
0000
0100
0000
,
1000
0000
0010
0000
1000
0001
0000
1000
0100
0000
0010
0000
0001
0000
1000
0000
,
1010
1000
1001
0000
1001
0001
0011
0010
,
0100
0000
0100
0000
1000
0000
1000
0000
0100
0010
0001
1000
0001
0000
0100
0000
,
0101
0000
0001
0000
0011
0000
0010
0100
1000
0000
1000
0100
0020
0000
0031
0000
,
1001
0000
0001
0100
0010
0100
0010
0100
1000
0000
1000
0100
0002
0000
1003
0000
,
1100
0000
0100
0010
0001
0010
0001
0000
1001
0000
0001
1000
0200
0000
1300
0000
,
1010
0000
0010
0000
1001
0000
0000
0000
1000
0010
0100
0001
2000
0000
3010
0000
,
1010
0000
1000
0000
1100
0000
0100
0010
0001
0000
0001
0010
0200
0000
1300
0000
,
1001
0000
1000
0010
0100
0010
0100
0010
0001
0000
0001
0010
2000
0000
3001
0000
,
0011
0000
0010
0000
0100
0000
1000
0000
1001
0000
1000
0001
0020
0000
0031
0000
,
1001
0000
0010
0000
0110
0000
0000
0000
0010
1000
0010
0100
0002
0000
1003
0000
,
0001
0010
1000
0001
0100
1000
0001
0010
0100
1000
0000
0000
,
1000
0100
0001
1000
0010
0001
1000
0100
0010
0001
0000
0000
,
0001
0010
0001
1000
0001
1000
0010
1000
0010
0100
0000
0000
,
0001
0000
0000
0000
0100
0000
0000
0000
0001
0000
0000
0000
1000
0000
0000
0000
0001
0000
0000
0000
1000
0000
0000
0000
0100
0000
0000
0000
0000
0000
0000
0000
0100
0000
0000
0000
0010
0000
0000
0001
0000
0000
1000
0000
0000
0000
0000
0000
,
0010
1000
0000
0000
1001
0000
0000
0000
0011
0000
0000
0000
0110
0000
0000
0000
,
1000
0100
0000
0000
1000
0001
0000
0000
0101
0000
0000
0000
0110
0000
0000
0000
,
1000
0010
0100
0100
0200
0000
0301
0001
,
0002
0000
0000
0000
1003
0000
1000
0000
0001
1000
0001
0000
1000
0010
1000
0010
,
2000
0000
0001
0000
0000
3001
0000
0000
0100
0000
0000
0001
1000
0000
0010
0000
,
0100
0000
0010
0000
0000
1000
0000
0000
0001
0000
0000
0001
0100
0000
0010
0000
,
0100
0000
0001
0000
0000
1000
0000
0000
0100
0000
0000
0100
0010
0000
0100
0000
,
2000
0000
3020
0000
0230
0001
0302
0000
,
0013
0000
0100
0000
1000
0001
0000
2000
0000
0000
3010
0100
0000
0010
0000
0100
,
0000
0200
0000
0001
0000
0302
0000
0000
1000
0000
0000
0000
1003
0000
1000
0000
,
0100
0100
0001
0001
0010
0010
1000
1000
,
0100
1000
0100
1000
0000
0000
0001
0010
0001
0010
0000
0000
0210
0000
0000
0000
,
1300
0000
0100
0000
1000
0001
0000
1000
0010
0000
0100
0000
0101
0000
0001
0000
,
1000
0000
0010
0000
1000
0001
0000
1000
0100
0000
0010
0000
0110
0000
0010
0000
,
0011
0000
1001
0000
1010
0010
0100
0001
,
1000
0000
0010
0000
1000
0000
0001
0000
1000
0100
0010
0001
1000
0000
1001
0000
,
0001
0000
0010
0000
0001
1000
0000
0001
0100
0000
0010
0000
1010
0000
0010
0100
,
0001
0000
0100
0000
0001
1000
0000
0001
0010
0000
0100
0000
0110
0000
0100
0000
,
1100
0000
1001
0000
0101
0001
0100
0010
,
1000
0000
1000
0000
0001
0000
0001
0000
1000
0100
0010
0001
1000
0000
0010
0000
,
0120
0000
0130
0000
1001
0000
1000
0010
0001
0000
0001
0010
2000
0000
3100
0000
,
0110
0000
0010
0001
1000
0010
1000
0010
1000
0000
1000
0001
0200
0000
0310
0000
,
0110
0000
0100
0000
0001
1000
0100
0000
0010
0000
0100
1000
0002
0000
0013
0000
,
0011
0000
0100
0000
1001
0000
0000
0000
0001
0100
0010
1000
0001
0000
0100
0000
,
0210
0000
0310
0000
1001
0000
0001
0100
1000
0000
1000
0100
0002
0000
0013
0000
,
0110
0000
0100
1000
0001
0100
0001
0100
0001
0000
0001
1000
0020
0000
0130
0000
,
0110
0000
0010
0000
0001
0000
0010
0000
1000
0000
0100
0010
0002
0000
0103
0000
,
0001
1000
0001
1000
0000
0000
0010
0100
0010
0100
0010
1000
0001
0000
2002
0000
,
3003
0000
0000
0000
;

//---------------dance-single - ----------------
#NOTES:
     dance-single:
     :
     Beginner:
     1:
     0.158177,0.235028,0.034819,0.083565,0.000000,159.000000,154.000000,5.000000,12.000000,0.000000,0.000000,0.158177,0.235028,0.034819,0.083565,0.000000,159.000000,154.000000,5.000000,12.000000,0.000000,0.000000:
0000
0000
0000
0000
,
0000
0000
0000
0000
,
0000
0000
0000
0000
,
0000
0000
0000
0000
,
1000
1000
1000
0000
,
0001
0000
1000
0000
,
0001
0000
1000
0000
,
0001
0001
0001
0000
,
0100
0100
0100
0000
,
0010
0000
0100
0000
,
0010
0000
0100
0000
,
0010
0010
0010
0000
,
1000
0000
0100
0000
,
0010
0010
0010
0000
,
0001
0000
0100
0000
,
0010
0010
0010
0000
,
1000
0000
0001
0000
,
2000
0000
3000
0000
,
0001
0000
1000
0000
,
2002
0000
3003
0000
,
0001
0001
0001
0000
,
1000
1000
1000
0000
,
0100
0000
0010
0000
,
0200
0000
0300
0000
,
0010
0010
0010
0000
,
0001
0001
0001
0000
,
1000
0000
0001
0000
,
2002
0000
3003
0000
,
1000
1000
1000
0000
,
0001
0001
0001
0000
,
0100
0100
0100
0000
,
0010
0010
0010
0000
,
1000
1000
1000
0000
,
0100
0100
0100
0000
,
0010
0010
0010
0000
,
0001
0001
0001
0000
,
2000
0000
3000
0000
,
0002
0000
0003
0000
,
0020
0000
0030
0000
,
0200
0000
0300
0000
,
1000
1000
1000
0000
,
0001
0001
0001
0000
,
0100
0100
0100
0100
,
0100
0100
0100
0000
,
0000
0010
0000
0100
,
0000
0001
0000
1000
,
0000
0100
0000
0010
,
0000
0001
0000
1000
,
0000
0001
0000
0010
,
0000
0100
0000
1000
,
0000
0001
0000
0100
,
0100
0100
0100
0000
,
0010
0010
0010
0000
,
1000
1000
1000
0000
,
0001
0000
1000
0000
,
0002
0000
0003
0000
,
0100
0100
0100
0000
,
0001
0001
0001
0000
,
1000
0000
0001
0000
,
2000
0000
3000
0000
,
0100
0100
0100
0000
,
0010
0010
0010
0000
,
0001
0001
0001
0000
,
1000
1000
1000
0000
,
0010
0010
0010
0000
,
0100
0100
0100
0000
,
0001
0001
0001
0000
,
1001
1001
1001
0000
;

//---------------dance-single - ----------------
#NOTES:
     dance-single:
     :
     Hard:
     7:
     0.408874,0.425400,0.341226,0.438719,0.083565,411.000000,362.000000,49.000000,63.000000,0.000000,0.000000,0.408874,0.425400,0.341226,0.438719,0.083565,411.000000,362.000000,49.000000,63.000000,0.000000,0.000000:
// measure 0
0000
0000
0000
0000
,  // measure 1
0000
0000
0000
0000
,  // measure 2
0000
0000
0000
0000
,  // measure 3
0000
0000
0000
0000
,  // measure 4
1000
0100
1000
0100
0010
0001
0010
0001
,  // measure 5
0100
0000
1000
0000
0100
0001
0100
0001
,  // measure 6
1000
0000
0100
0000
0001
0000
0100
1000
,  // measure 7
0001
0100
0010
1000
0001
0000
1000
1000
,  // measure 8
0001
0010
0001
0010
0100
1000
0100
1000
,  // measure 9
0010
0000
0001
0000
0010
1000
0010
1000
,  // measure 10
0001
0000
0010
0000
1000
0000
0010
0001
,  // measure 11
1000
0010
0100
0001
2000
0000
3100
0000
,  // measure 12
2100
0000
0010
0010
0010
0000
0100
0000
,  // measure 13
0010
3001
2200
3300
,  // measure 14
0102
0000
0010
0010
0010
0000
0100
0000
,  // measure 15
0010
1003
0202
0303
,  // measure 16
0120
0000
1000
1000
2030
0000
0001
0001
,  // measure 17
3002
0000
0023
0000
0130
1000
0001
0000
,  // measure 18
0100
0100
0010
0010
1000
1000
0001
0001
,  // measure 19
0010
0000
0000
0011
0000
0000
1000
0000
0000
1010
0000
0000
1001
0000
0000
0000
,  // measure 20
0001
0010
0100
1000
0001
0000
1000
0000
,  // measure 21
0001
0100
0010
1000
0001
0000
1000
0010
,  // measure 22
1010
0000
0101
0000
0100
0001
0010
0100
,  // measure 23
2000
0000
3020
0000
1030
0100
1000
0100
,  // measure 24
0020
0000
0032
0000
1003
0001
0100
0100
,  // measure 25
0020
0000
2030
0000
3001
1000
0100
0100
,  // measure 26
0110
0000
1100
1000
0001
1000
0100
1000
,  // measure 27
0002
0000
0203
0000
0310
1000
1001
0000
,  // measure 28
0201
0000
0010
0000
1300
0100
0001
0000
,  // measure 29
0021
0000
0100
0000
1030
0010
0001
0000
,  // measure 30
0021
0000
0230
0000
1300
0100
0010
0000
,  // measure 31
0011
1010
2002
3003
,  // measure 32
1200
0000
0010
0000
0301
0100
1000
0000
,  // measure 33
1020
0000
0100
0000
0031
0010
1000
0000
,  // measure 34
1020
0000
0230
0000
0301
0100
0010
0000
,  // measure 35
1010
0011
2002
3003
,  // measure 36
0001
0000
0001
0100
0000
0100
0010
1000
0010
1000
0000
0000
,  // measure 37
0100
0000
0100
0010
0000
0010
0001
0010
0001
0010
0000
0000
,  // measure 38
0001
0000
0001
0100
0000
0100
0001
1000
0001
1000
0000
0000
,  // measure 39
0100
0000
0100
1000
0000
1000
0001
0000
0001
1000
0000
0000
,  // measure 40
0001
1000
0000
0000
0001
0000
0000
0000
1002
0000
0000
0000
0103
0000
0000
0000
,  // measure 41
0010
1000
0000
0000
1000
0100
0000
0000
0210
0000
0000
0000
0310
0000
0000
0000
,  // measure 42
0001
0001
1000
1000
0002
0000
0103
0100
,  // measure 43
0100
0000
0010
0010
0020
0000
2030
0000
,  // measure 44
3002
0010
0000
0100
,  // measure 45
2003
0100
3200
0010
,  // measure 46
0320
0001
0000
0032
,  // measure 47
2003
0000
0000
0000
3020
0000
0000
0000
0130
0000
0000
0100
0002
0000
0000
0000
,  // measure 48
1003
0000
0000
0000
0100
1000
0000
0000
0001
0000
0000
0000
0101
0000
0000
0000
,  // measure 49
1000
0010
1000
0001
0020
0000
0130
1000
,  // measure 50
0001
0001
0100
0100
0010
0010
1000
1000
,  // measure 51
0001
0000
0000
0101
0000
0000
1000
0000
0000
1100
0000
0000
1001
0000
0000
0000
,  // measure 52
1000
0100
0010
0001
1000
0000
0001
0000
,  // measure 53
1000
0010
0100
0001
1000
0000
0001
0100
,  // measure 54
0101
0000
1010
0000
0010
1000
0100
0010
,  // measure 55
0002
0000
0203
0000
0301
0010
0001
0010
,  // measure 56
0200
0000
2300
0000
3001
1000
0010
0010
,  // measure 57
0200
0000
0302
0000
1003
0001
0010
0010
,  // measure 58
0110
0000
0011
0001
1000
0001
0010
0001
,  // measure 59
2000
0000
3020
0000
0130
0001
1001
0000
,  // measure 60
1020
0000
0100
0000
0031
0010
1000
0001
,  // measure 61
0021
0000
0100
0000
1030
0010
0001
1000
,  // measure 62
1020
0000
0230
0000
0301
1000
0100
0000
,  // measure 63
1100
0011
2002
3003
,  // measure 64
0201
0000
0010
0000
1300
0100
0001
1000
,  // measure 65
1200
0000
0010
0000
0301
0100
1000
0001
,  // measure 66
0021
0000
0230
0000
1300
0001
0100
0000
,  // measure 67
0101
0000
1010
0000
1000
1000
1001
1001
;

//---------------dance-single - ----------------
#NOTES:
     dance-single:
     :
     Easy:
     4:
     0.246717,0.305536,0.250696,0.313370,0.000000,248.000000,212.000000,36.000000,45.000000,0.000000,0.000000,0.246717,0.305536,0.250696,0.313370,0.000000,248.000000,212.000000,36.000000,45.000000,0.000000,0.000000:
0000
0000
0000
0000
,
0000
0000
0000
0000
,
0000
0000
0000
0000
,
0000
0000
0000
0000
,
1000
0100
1000
0001
,
2002
3003
0001
0100
,
0220
0330
0010
1000
,
1010
1001
0011
0000
,
0001
0100
0001
1000
,
2002
3003
1000
0100
,
0220
0330
0010
0001
,
0011
1001
1010
0000
,
2001
0000
0100
0000
,
0010
0010
0020
3030
,
1002
0000
0010
0000
,
0100
0100
0200
0303
,
2100
0001
0000
3001
,
0102
0010
0000
0013
,
1000
0010
1000
0001
,
2002
0000
0000
3003
,
1000
0100
1000
1000
,
0010
1000
0010
0010
,
1000
0010
0001
0010
,
1000
1000
0001
0001
,
1000
0100
1000
1000
,
0001
0100
0001
0001
,
1000
0100
0001
0100
,
1000
1100
0001
0101
,
0210
0010
0010
0010
,
0320
1000
1000
1000
,
2030
0001
0001
0001
,
3001
1000
1001
0000
,
0012
0010
0010
0010
,
0023
0100
0100
0100
,
0230
1000
1000
1000
,
1300
0001
1001
0000
,
1000
0010
2020
3030
,
0001
0010
0022
0033
,
0100
0010
0220
0330
,
0001
1000
2002
3003
,
1000
1000
1000
0000
,
0010
0010
0010
0000
,
0100
0100
0100
0000
,
0001
0000
0001
0000
,
2000
0000
0000
0000
,
3200
0000
0320
0000
,
0032
0000
0000
0000
,
0103
0100
0200
0300
,
0020
1000
0000
1030
,
0001
0020
0000
0031
,
0010
0100
1000
0001
,
2002
0000
0000
3003
,
0001
0010
0100
0100
,
1000
0010
0100
0100
,
0001
0100
1000
0100
,
0001
0001
1000
1000
,
0100
0010
0001
0001
,
1000
0010
0100
0100
,
0001
0010
1000
0010
,
0001
0011
1000
1010
,
0210
0001
0010
0301
,
0102
0010
0100
0013
,
0021
0100
0001
0130
,
0010
0100
0110
0000
,
2001
0010
0001
3010
,
1020
0100
1000
0130
,
0210
0001
0010
0301
,
1000
0001
1001
0000
;

//---------------dance-single - ----------------
#NOTES:
     dance-single:
     :
     Medium:
     6:
     0.311381,0.377437,0.215877,0.410863,0.038301,313.000000,282.000000,31.000000,59.000000,0.000000,0.000000,0.311381,0.377437,0.215877,0.410863,0.038301,313.000000,282.000000,31.000000,59.000000,0.000000,0.000000:
0000
0000
0000
0000
,
0000
0000
0000
0000
,
0000
0000
0000
0000
,
0000
0000
0000
0000
,
0001
0000
0100
0000
0010
0100
0001
0000
,
1000
0000
0100
0000
0010
0100
1000
0000
,
0001
0000
0010
0000
0100
0010
0001
0000
,
1000
1000
1001
0000
,
0001
0000
0100
0000
0010
1000
0010
0000
,
1000
0000
0100
0000
0010
0001
0010
0000
,
0001
0000
1000
0000
0001
1000
0001
0000
,
0100
0000
0000
0000
0010
0000
0000
0000
1000
0000
0000
1000
0001
0000
0000
0000
,
0010
0000
0100
1000
0001
0000
1001
0000
,
1000
0001
2002
3003
,
0001
0000
0100
0010
1000
0000
0001
0000
,
0010
0100
0220
0330
,
0100
0000
0000
0000
1000
0100
0000
0000
1000
0000
0000
0000
1001
0000
0000
0000
,
0001
0000
0101
0000
0100
0010
1000
0000
,
2010
3001
0012
1003
,
0100
0000
0000
0010
0000
0000
0001
0000
0000
1000
0000
0000
1001
0000
0000
0000
,
0001
0100
0010
0100
0002
0000
0003
0000
,
1000
0100
0010
0100
2000
0000
3000
0000
,
1002
0010
2003
0010
,
3002
0000
0023
0000
0130
1000
0001
0001
,
1000
0010
0100
0000
0220
0000
0330
0000
,
0001
0010
0100
0000
0220
0000
0330
0000
,
0200
1000
2300
0001
,
3002
0000
0203
0000
0310
0010
1000
1000
,
0001
0000
0010
0000
0001
0010
0001
0000
,
1000
0000
0010
0000
1000
0010
1000
0000
,
0001
0000
0010
0000
0100
1000
0001
0000
,
1000
0001
1001
0000
,
1000
0000
0010
0000
0100
0001
1000
0000
,
0001
0000
0010
0000
0100
1000
0001
0000
,
0100
0000
0010
0000
1000
0100
0010
0000
,
0001
1000
1001
0000
,
0001
0000
0000
0010
0000
0000
0100
0000
0100
1000
0000
0000
,
0001
0000
0000
0100
0000
0000
0010
0000
0010
1000
0000
0000
,
0100
0000
1000
0100
0000
0000
1000
0000
0001
1000
0000
0000
,
0001
0000
0000
0100
0000
0000
0010
0000
0010
1000
0000
0000
,
1100
1100
1100
0000
,
0101
0101
0101
0000
,
0100
0010
0110
0000
,
1001
0000
0110
0000
,
2000
0010
0000
0001
,
3200
0010
0000
0320
,
0032
1000
0000
1000
,
0203
0320
2000
3030
,
0002
0010
0000
0100
,
2003
0010
0000
0001
,
3200
0010
0320
0001
,
0031
0000
0000
0010
0000
0000
0100
0000
0000
1000
0000
0000
0001
0000
0000
0000
,
1000
0010
0100
0001
2000
0000
3000
0000
,
0001
0010
0100
1000
0002
0000
0003
0000
,
2010
3001
0012
1003
,
0002
0000
0203
0000
0310
1000
0001
0001
,
1000
0100
0001
0100
0220
0000
0330
0000
,
0001
0100
1000
0100
0220
0000
0330
0000
,
2010
3001
0012
1003
,
0002
0000
0203
0000
0310
1000
0001
1000
,
0002
0000
0023
0000
1030
0010
0001
0000
,
2000
0000
3020
0000
0031
0010
1000
0000
,
0002
0000
0203
0000
1300
0100
0001
0000
,
1000
0001
1001
0000
,
2000
0000
3020
0000
0031
0010
1000
0000
,
0002
0000
0023
0000
1030
0010
0001
0000
,
2000
0000
3200
0000
0301
0100
1000
0000
,
0001
1000
2002
3003
;
