#TITLE:FAKE STYLE;
#SUBTITLE:;
#ARTIST:FAKE TYPE.;
#TITLETRANSLIT:;
#SUBTITLETRANSLIT:;
#ARTISTTRANSLIT:;
#GENRE:;
#CREDIT:;
#BANNER:fakestyle_bn.png;
#BACKGROUND:fakestyle_bg.png;
#LYRICSPATH:;
#CDTITLE:;
#MUSIC:fakestyle.ogg;
#OFFSET:0.000000;
#SAMPLESTART:60.959999;
#SAMPLELENGTH:16.320000;
#SELECTABLE:YES;
#BPMS:0.000000=124.999992
;
#STOPS:
;
#BGCHANGES:;
#KEYSOUNDS:;
#ATTACKS:;

//---------------dance-single - ----------------
#NOTES:
     dance-single:
     :
     Challenge:
     9:
     0.619890,0.719399,0.492446,0.214107,0.463898,608.000000,539.000000,69.000000,30.000000,0.000000,0.000000,0.619890,0.719399,0.492446,0.214107,0.463898,608.000000,539.000000,69.000000,30.000000,0.000000,0.000000:
// measure 0
0000
0000
0000
0000
,  // measure 1
0000
0000
0000
0000
,  // measure 2
0000
0000
0000
0000
,  // measure 3
0000
0000
0000
0000
,  // measure 4
1001
0000
0000
1000
0100
0000
0100
0000
0011
0000
0000
0001
0100
0000
0100
0000
,  // measure 5
1010
0000
0000
1000
0100
0000
0010
0000
0001
0000
0100
0000
1000
0000
0100
0000
,  // measure 6
0001
0000
0001
0010
0000
0100
1000
0000
1000
0000
0010
0100
0000
0100
0001
0000
,  // measure 7
0001
0000
1000
0100
0000
0000
1000
0100
1000
0000
0100
0000
0001
0000
0100
0000
,  // measure 8
1001
0000
0001
0010
0000
0010
1000
0000
0001
0000
0100
1000
0000
1000
0010
0000
,  // measure 9
0100
0001
0010
1000
0100
0001
1000
0001
,  // measure 10
0101
0000
0000
0000
0000
0000
1010
0000
0000
0000
0000
0000
1200
0000
0000
0300
0000
0000
0201
0000
0000
0300
0000
0100
,  // measure 11
1000
0000
0000
1000
0000
0000
1000
0000
0001
0000
0000
0001
0000
0000
0001
0000
,  // measure 12
0010
0000
0000
0000
0000
0001
0010
0000
0000
0100
0000
0000
0000
0000
0100
0010
0000
0000
0001
0000
0000
1000
0000
0000
,  // measure 13
0001
0000
0000
0000
0000
1000
0100
0000
0000
0010
0000
0000
0000
0000
0100
0010
0000
0000
0001
0000
0000
1000
0000
0001
,  // measure 14
1000
0000
0000
0000
0000
0100
1000
0000
0000
0010
0000
0000
0000
0000
0010
0100
0000
0000
0001
0000
0000
1000
0000
0000
,  // measure 15
0100
0000
0010
0001
0010
0001
1000
0000
0000
0000
0010
1000
0010
1000
0100
0000
,  // measure 16
0011
0000
0001
0100
0010
0000
1000
0010
0100
0000
0100
0001
0010
0000
0100
1000
,  // measure 17
0100
0001
0100
1000
0010
0001
1000
0100
,  // measure 18
1001
0000
1000
0100
1000
0000
0001
0100
0001
0000
0010
0100
1000
0001
0100
0010
,  // measure 19
2000
0000
0000
3000
0101
0000
0001
1000
0001
0100
0010
1000
0100
0000
0001
0000
,  // measure 20
1000
0000
0010
0001
0100
0010
0100
0010
1000
0000
0001
0010
0000
0010
0000
0100
,  // measure 21
1000
0000
0010
0100
0001
0100
0010
0100
0001
0000
1000
0100
0000
0200
0000
0300
,  // measure 22
0011
0000
0000
0000
1100
0000
1000
0000
0020
0000
0030
0100
0001
0000
1000
0001
,  // measure 23
0100
0100
0100
0100
,  // measure 24
0101
0000
0000
0000
0001
0100
0001
1000
0001
0000
0010
0100
0010
0000
0001
1000
,  // measure 25
0010
0100
0000
0010
0000
0000
1000
0010
1000
0000
0001
0100
0001
0000
0010
0100
,  // measure 26
0010
0001
0000
1000
0000
0000
1000
0010
0100
0000
0010
0100
0001
0000
1000
0000
,  // measure 27
0100
0000
0100
1000
0000
0000
1000
0001
0100
0000
0100
0000
0001
0000
0000
0000
,  // measure 28
0101
0000
0000
0000
0000
0000
0001
0000
0001
0100
0000
0000
0100
0000
0100
0010
0000
0000
0010
0000
0010
1000
0000
0000
,  // measure 29
1000
0000
1000
0001
0000
0000
0001
0000
0001
1000
0000
0000
1000
0000
1000
0100
0000
0000
0100
0000
0100
0010
0000
0000
,  // measure 30
0000
0000
0110
0000
1100
0000
0000
0000
1000
0000
0001
0100
0000
0000
0110
0000
,  // measure 31
0010
0000
0000
1000
0000
0000
0001
0000
0000
0010
0000
0000
0001
0000
0010
0000
,  // measure 32
0011
0000
0110
0000
0011
0000
0001
0010
,  // measure 33
0010
0100
0001
0010
0010
0100
0001
0010
,  // measure 34
0100
0000
0000
0000
0010
0000
0001
0100
0000
0000
0100
0000
0001
0000
0010
0000
,  // measure 35
0100
0010
0001
0002
0000
0000
1003
0010
,  // measure 36
1010
0000
0110
0000
1010
0000
1000
0010
,  // measure 37
0010
0100
1000
0010
0010
0100
1000
0010
,  // measure 38
0100
0000
0000
0000
0000
0000
0010
0000
0000
0000
0000
0000
0100
0000
0000
0010
0000
0000
0000
0000
0000
0000
0000
0000
2000
0000
0000
0000
0000
0000
0000
0000
0000
0200
0000
0000
0000
0000
0000
0000
0000
0000
3300
0000
0000
0000
0100
0000
,  // measure 39
1000
0000
0000
1000
0000
0000
1000
0000
0001
0000
0000
0001
0000
0000
0001
0000
,  // measure 40
0200
0001
1000
0301
,  // measure 41
0021
0000
0001
0000
1000
0000
0031
1000
,  // measure 42
1020
1000
0001
1030
,  // measure 43
1001
0000
0000
0000
,  // measure 44
1000
0000
0001
0000
1000
0000
0001
1000
0000
1000
0001
0000
1001
0000
0000
0000
,  // measure 45
1000
0000
0100
0000
1000
0000
0100
1000
0000
1000
0100
0000
1100
0000
0000
0000
,  // measure 46
0010
0000
0001
0000
0010
0000
0001
0010
0000
0010
0001
0000
0011
0000
0000
0000
,  // measure 47
0001
0000
0001
1000
0100
0000
1000
0001
0100
0000
0001
1000
0010
0000
0000
0000
,  // measure 48
0120
0000
0000
0000
2000
0000
3030
0000
1100
0000
0001
0010
0001
0100
0010
0000
,  // measure 49
1010
0000
1000
0000
1100
0000
0100
0000
0011
0000
0000
1001
0000
0000
1010
0000
,  // measure 50
0101
0000
0000
0000
0000
0000
0001
0000
0000
1000
0000
0000
0100
0000
0000
0001
0000
0000
1000
0000
0000
0010
0000
0000
0001
0000
0000
0000
1000
0000
0000
0000
0010
0000
0000
0000
0100
0000
0000
0000
0000
0000
0010
0000
0000
0100
0000
0000
,  // measure 51
1000
0000
0001
0000
0010
0000
1000
0000
1100
0000
0000
1010
0000
0000
0101
0000
,  // measure 52
0011
1000
0100
1000
0110
0100
0100
1000
,  // measure 53
0011
0000
0010
0000
0100
0000
1000
0000
1100
0000
0000
0011
0000
0000
0110
0000
,  // measure 54
1001
0000
0202
0303
0202
0303
0220
0330
2020
3030
2200
3300
0220
0330
0022
0033
,  // measure 55
0001
0000
0000
0000
0000
0000
0001
0000
0000
0000
0000
0000
0001
0000
1000
0100
0000
0000
1000
0000
0000
0010
0000
0000
,  // measure 56
0101
0000
0000
1000
0010
0000
0010
0000
0101
0000
0000
0001
0010
0000
0010
0000
,  // measure 57
1100
0000
0000
1000
0010
0000
0100
0000
0001
0000
0010
0000
1000
0000
0010
0000
,  // measure 58
0001
0000
0001
0100
0000
0010
1000
0000
1000
0000
0100
0010
0000
0010
0001
0000
,  // measure 59
0001
0000
1000
0100
0000
0000
1000
0010
1000
0000
0010
0000
0001
0000
0010
0000
,  // measure 60
1001
0000
0001
0100
0000
0100
1000
0000
0001
0000
0010
1000
0000
1000
0100
0000
,  // measure 61
0010
0001
0100
1000
0010
0001
1000
0001
,  // measure 62
0011
0000
0000
0000
0000
0000
1100
0000
0000
0000
0000
0000
1010
0000
0000
0000
0000
0000
0011
0000
0000
0000
0000
0100
,  // measure 63
1000
0000
0010
0000
0100
0000
0001
0000
0010
0000
0100
0000
1000
0000
0010
0000
0100
0000
0001
0000
0000
0010
0000
0000
,  // measure 64
0011
0000
0110
0000
0011
0000
0001
0010
,  // measure 65
0010
0100
0001
0010
0010
0100
0001
0010
,  // measure 66
0100
0000
0000
0000
0010
0000
0001
0100
0000
0000
0100
0000
0001
0000
0010
0000
,  // measure 67
0100
0010
0001
0002
0000
0000
1003
0010
,  // measure 68
1010
0000
0110
0000
1010
0000
1000
0010
,  // measure 69
0010
0100
1000
0010
0010
0100
1000
0010
,  // measure 70
0100
0000
0000
0000
0000
0000
0010
0000
0000
0000
0000
0000
0100
0000
0000
0010
0000
0000
0000
0000
0000
0000
0000
0000
2000
0000
0000
0000
0000
0000
0000
0000
0000
0200
0000
0000
0000
0000
0000
0000
0000
0000
3300
0000
0000
0000
0100
0000
,  // measure 71
1000
0000
0000
1000
0000
0000
1000
0000
0001
0000
0000
0001
0000
0000
0001
0000
,  // measure 72
0010
0000
0000
0000
;
