#VERSION:0.83;
#TITLE:Dance with Cannibals;
#SUBTITLE:(Auratic Remix);
#ARTIST:Wildpuppet;
#TITLETRANSLIT:;
#SUBTITLETRANSLIT:;
#ARTISTTRANSLIT:;
#GENRE:Glitch Hop;
#ORIGIN:;
#CREDIT:;
#BANNER:Dance with Cannibals-bn.png;
#BACKGROUND:Dance with Cannibals-bg.png;
#PREVIEWVID:;
#JACKET:;
#CDIMAGE:bengatr-cd.png;
#DISCIMAGE:;
#LYRICSPATH:;
#CDTITLE:bengatr-cd.png;
#MUSIC:Dance With Cannibals (Auratic Remix).ogg;
#OFFSET:0.086000;
#SAMPLESTART:71.914001;
#SAMPLELENGTH:17.455000;
#SELECTABLE:YES;
#DISPLAYBPM:110.000000;
#BPMS:0.000=110.000,
66.000=165.000,
66.750=55.000,
67.000=110.000,
186.000=165.000,
186.750=55.000,
187.000=110.000;
#STOPS:;
#DELAYS:;
#WARPS:;
#TIMESIGNATURES:0.000=4=4;
#TICKCOUNTS:0.000=4;
#COMBOS:0.000=1;
#SPEEDS:0.000=1.000=0.000=0;
#SCROLLS:0.000=1.000;
#FAKES:;
#LABELS:0.000=Song Start;
#BGCHANGES:;
#KEYSOUNDS:;
#ATTACKS:
;

//---------------dance-single - Benpai & Feraligatr----------------
#NOTEDATA:;
#CHARTNAME:Benpai & Feraligatr;
#STEPSTYPE:dance-single;
#DESCRIPTION:Benpai & Feraligatr;
#CHARTSTYLE:Pad;
#DIFFICULTY:Challenge;
#METER:10;
#RADARVALUES:0.601382,0.714516,0.274194,0.370968,0.725806,522.000000,488.000000,34.000000,46.000000,30.000000,0.000000,28.000000,0.000000,0.000000,0.601382,0.714516,0.274194,0.370968,0.725806,522.000000,488.000000,34.000000,46.000000,30.000000,0.000000,28.000000,0.000000,0.000000;
#CREDIT:Benpai & Feraligatr;
#DISPLAYBPM:110.000000;
#NOTES:
// measure 0
0000
0000
0000
0000
,  // measure 1
0000
0000
0000
0000
,  // measure 2
0000
0000
0000
0000
,  // measure 3
0000
0000
0000
0000
,  // measure 4
0000
0000
0000
0000
,  // measure 5
1100
0000
0001
0000
0200
0000
0000
0310
0000
0010
0000
0010
1000
0001
1000
0200
,  // measure 6
0000
0000
0310
0000
0100
0000
0000
1000
0001
0000
0100
0000
0010
0000
0100
0001
,  // measure 7
0000
0001
0010
0000
0100
0000
0000
1000
0000
1000
0001
1000
0010
0000
0010
0000
,  // measure 8
0200
0000
0000
0000
0000
0301
0000
0001
0000
0001
1000
0000
1200
0000
0010
0300
,  // measure 9
0011
0001
0100
0020
0130
0001
0002
0000
,  // measure 10
1003
0000
0000
0000
0000
0000
0M10
0000
0M00
0000
0M00
0000
1M00
0000
0000
0000
0000
0000
0002
0000
0000
0000
0000
0000
1003
0000
0000
0000
0000
0000
0100
0000
0000
0010
0000
0000
0200
0000
0000
0000
0000
0000
1300
0000
0000
0000
0000
0000
,  // measure 11
0M01
0010
0001
0200
0310
1000
2000
0000
,  // measure 12
3001
0000
0010
0000
0100
0000
1000
0000
0001
0000
0010
0000
0100
0000
1000
0000
0001
0000
0100
0000
0010
0000
1000
0000
0001
0000
1000
0000
0001
0000
1000
0100
,  // measure 13
1000
0100
0010
0001
1000
0010
1000
0010
0100
0001
1000
0001
0040
0000
0430
0000
,  // measure 14
1300
0001
0100
0001
1000
0001
0010
0100
1000
0010
0100
0001
1000
0001
0010
0100
,  // measure 15
4000
0004
0000
0000
0000
0000
0000
0000
0000
0000
0000
0000
0000
0000
0000
0000
0000
0000
0000
0000
0000
0000
0000
0000
0000
0000
0000
0000
0000
0000
3003
0000
,  // measure 16
0MM0
0000
0000
0000
0000
0000
0000
0000
M22M
0000
0000
0330
0001
1000
0001
1000
,  // measure 17
1200
0000
0000
0000
0310
0001
1000
0001
0100
1000
0000
1000
0100
0000
0100
0000
,  // measure 18
0104
0000
0000
0000
0013
0000
0400
0000
2300
0000
3001
0010
0001
1000
0010
0000
,  // measure 19
0401
0000
0000
0000
0000
0000
0310
0000
1000
0001
0000
1000
0200
0000
0000
M310
0000
0000
0011
0000
0000
1000
0000
0000
,  // measure 20
1004
0000
0000
0000
0000
0000
0103
0000
0000
0000
0000
0000
0010
0000
0000
0000
0100
0000
0000
0000
0001
0000
0000
0000
0010
0000
0000
0000
0100
0000
0000
0000
1000
0000
0000
0000
1100
0000
0000
0000
0000
0000
0001
0000
0000
0100
0000
0000
,  // measure 21
0140
0000
0000
0000
1030
0001
0100
0000
1M00
0001
0010
0000
4100
0000
0000
0000
,  // measure 22
3002
0000
0103
0001
1000
0100
1000
0100
0010
0001
1000
0000
0040
0000
0000
0030
,  // measure 23
0104
0000
0000
0000
1003
0001
0010
0001
1000
0001
0100
010M
1000
0000
0002
0000
,  // measure 24
1003
0100
0010
0001
1000
0100
0010
0001
1000
0010
0100
0001
1000
0001
1000
0001
,  // measure 25
1004
0000
0000
0000
0000
0000
0000
0000
0000
0000
0000
0000
0103
0000
0000
0000
0010
0000
1000
0000
0000
0000
0001
0000
0010
0000
0000
1000
0000
0000
0000
0000
0000
1000
0000
0000
0010
0000
0000
0000
0000
0000
0010
0000
0000
0000
0000
0000
,  // measure 26
0120
0000
0031
0000
4000
0000
3010
0000
0400
0000
0301
0000
0004
0000
0000
0003
,  // measure 27
1400
0000
0000
0000
0000
0000
0310
0000
0001
1000
0000
0001
0200
0000
0000
0310
0000
0000
1000
0000
0000
0100
0000
0000
,  // measure 28
0012
0000
0000
0000
1003
0000
0010
0000
0401
0000
0000
0000
0000
0000
0000
0300
,  // measure 29
1004
0000
0013
0000
0001
0000
0400
0000
0310
0001
0000
0001
0020
0000
0000
0030
,  // measure 30
2010
0000
3001
1000
0100
1000
0001
0100
0010
0100
0001
0000
0040
0000
0000
0030
,  // measure 31
1400
0000
0000
0000
0310
0001
1000
0010
0100
0001
0100
010M
1000
0100
0020
0000
,  // measure 32
0031
0100
0010
1000
0001
0100
0010
1000
0001
0010
0100
0010
0001
1000
0001
1000
,  // measure 33
1002
0000
0000
0000
0103
0010
1000
0001
0010
1000
0000
1000
0010
0000
0100
0000
,  // measure 34
2100
0000
0000
0000
0000
0000
0001
0000
0000
0000
0000
0000
3010
0000
0000
M010
0000
0000
0001
0000
0000
0000
0000
0000
0001
0000
0000
0000
0000
0000
0001
0000
0000
0100
0000
0000
0010
0000
0000
0000
0000
0000
1000
0000
0001
0000
1000
0000
,  // measure 35
0200
0000
0310
0200
1300
0002
0103
0010
,  // measure 36
1020
0100
0130
0001
0010
0100
1000
0010
,  // measure 37
0102
0000
0000
0000
1003
0100
1000
0001
0100
1000
0000
1000
0100
0000
0010
0000
,  // measure 38
2010
0000
0000
0000
0000
0000
0001
0000
0000
0000
0000
0000
3100
0000
0000
M100
0000
0000
0001
0000
0000
0000
0000
0000
0001
0000
0000
0000
0000
0000
0001
0000
0000
1000
0000
0000
0010
0000
0000
0000
0000
0000
0100
0000
0010
0000
1000
0000
,  // measure 39
0002
0000
1003
0100
0000
0100
M100
0001
0100
0001
4000
0000
3100
0010
0100
1000
,  // measure 40
0001
0100
0010
1000
0001
0100
0010
1000
0001
0010
0100
0010
0001
1000
0001
1000
,  // measure 41
2002
3003
0000
0000
,  // measure 42
0000
0000
0000
0000
0000
0000
0000
0000
0000
0000
0000
0000
0000
0000
0000
0000
0000
0000
0000
0000
0000
0000
0000
0000
00M0
0000
0M00
0000
00M0
0M00
00M0
0M00
,  // measure 43
00M1
0100
0001
1000
0001
0010
0100
1000
0001
0010
0001
1000
0040
0000
0430
0000
,  // measure 44
0301
0010
0001
1000
0001
0100
0010
1000
0001
0010
0100
1000
0100
0010
0001
1000
,  // measure 45
0040
4000
0000
0000
0000
0000
0000
0000
0000
0000
0000
0000
0000
0000
0000
0000
0000
0000
0000
0000
0000
0000
0000
0000
0000
0000
0000
0000
0000
0000
3030
0000
,  // measure 46
0M0M
0000
0000
0000
0000
0000
0000
0000
M2M2
0000
0000
0303
1000
0010
1000
0001
,  // measure 47
2001
0000
0000
0000
3100
0010
0001
1000
0010
0001
0000
0001
0010
0000
0100
0000
,  // measure 48
0102
0000
0000
0000
0000
0000
1000
0000
0000
0000
0000
0000
0013
0000
0000
001M
0000
0000
1000
0000
0000
0000
0000
0000
1000
0000
0000
0000
0000
0000
1000
0000
0000
0100
0000
0000
0010
0000
0000
0000
0000
0000
0001
0000
0010
0000
0001
0000
,  // measure 49
2000
0000
3010
0200
0301
2000
3100
0010
,  // measure 50
0012
1000
1003
0010
0100
0001
1000
0100
,  // measure 51
0012
0000
0000
0000
1003
0001
0100
0010
0100
1000
0000
1000
0100
0000
0010
0000
,  // measure 52
2010
0000
0000
0000
0000
0000
0001
0000
0000
0000
0000
0000
3100
0000
0000
M100
0000
0000
0001
0000
0000
0000
0000
0000
0001
0000
0000
0000
0000
0000
0001
0000
0000
1000
0000
0000
0100
0000
0000
0000
0000
0000
1000
0000
0100
0000
0010
0000
,  // measure 53
0002
0000
1003
0010
0000
0010
M010
0001
0100
0001
4000
0000
3001
0010
0100
1000
,  // measure 54
0001
0100
0010
1000
0001
0100
0010
1000
0001
0010
0100
1000
0010
0100
0010
1000
,  // measure 55
2001
0000
0000
3000
0000
0000
0000
0000
;
