#VERSION:0.83;
#TITLE:Conga Feeling;
#SUBTITLE:;
#ARTIST:Vivian;
#TITLETRANSLIT:;
#SUBTITLETRANSLIT:;
#ARTISTTRANSLIT:;
#GENRE:;
#ORIGIN:;
#CREDIT:;
#BANNER:;
#BACKGROUND:;
#PREVIEWVID:;
#JACKET:;
#CDIMAGE:;
#DISCIMAGE:;
#LYRICSPATH:;
#CDTITLE:;
#MUSIC:[ZIv Academy III] - Conga Feeling.ogg;
#OFFSET:-1.841000;
#SAMPLESTART:37.599998;
#SAMPLELENGTH:14.770000;
#SELECTABLE:YES;
#DISPLAYBPM:130.000000;
#BPMS:0.000=130.000;
#STOPS:;
#DELAYS:;
#WARPS:;
#TIMESIGNATURES:0.000=4=4;
#TICKCOUNTS:0.000=4;
#COMBOS:0.000=1;
#SPEEDS:0.000=1.000=0.000=0;
#SCROLLS:0.000=1.000;
#FAKES:;
#LABELS:0.000=Song Start;
#BGCHANGES:;
#KEYSOUNDS:;
#ATTACKS:
;

//---------------dance-single - ----------------
#NOTEDATA:;
#CHARTNAME:;
#STEPSTYPE:dance-single;
#DESCRIPTION:;
#CHARTSTYLE:;
#DIFFICULTY:Medium;
#METER:7;
#RADARVALUES:0.461255,0.463607,0.127452,0.074347,0.339872,304.000000,292.000000,12.000000,7.000000,0.000000,0.000000,0.000000,0.000000,0.000000,0.461255,0.463607,0.127452,0.074347,0.339872,304.000000,292.000000,12.000000,7.000000,0.000000,0.000000,0.000000,0.000000,0.000000;
#CREDIT:;
#DISPLAYBPM:130.000000;
#NOTES:
// measure 0
0000
0000
0000
0000
,  // measure 1
0000
0000
0000
0000
,  // measure 2
0000
0000
0000
0000
,  // measure 3
1000
0000
0000
0000
0001
0000
0000
0000
1000
0000
0000
0000
0001
0000
0000
0000
0000
0000
0000
0000
0000
0100
0000
0000
0000
0000
0000
0010
0000
0000
0000
0000
0000
0000
0000
0000
2000
0000
0000
0000
0000
0000
0000
0000
0000
0000
0000
0000
,  // measure 4
3100
1000
0010
0000
0100
0001
0010
0000
,  // measure 5
0001
1000
0001
0000
0001
0100
0001
0010
,  // measure 6
0100
1000
0010
0000
0010
0100
0101
0000
,  // measure 7
1100
1000
0010
0100
0100
0010
2000
0000
,  // measure 8
3100
0000
0000
0010
0000
0001
0000
0000
0100
0000
0100
0000
0100
0000
0000
0000
,  // measure 9
0010
0000
1000
0000
0000
0100
0000
0010
0000
0000
0010
0000
0010
0000
0000
0000
,  // measure 10
0100
0000
0000
1000
0000
0001
0000
0000
0100
0000
0100
0000
0100
0000
0000
0000
,  // measure 11
0010
0000
1000
0000
0000
0000
0001
0000
0000
0010
0000
0000
0110
0000
0000
0000
,  // measure 12
0100
0000
1000
0100
0010
0001
0100
0010
,  // measure 13
0100
0000
0100
0001
0001
1000
0100
0010
,  // measure 14
0001
0000
0001
0010
0100
1000
0010
0100
,  // measure 15
0010
0000
0010
0100
1000
1000
0100
0001
,  // measure 16
1000
0000
0001
0100
0001
0010
0100
1000
,  // measure 17
0100
1000
0000
1000
0010
0010
0100
0001
,  // measure 18
1000
0000
1000
0010
1000
0100
0010
0001
,  // measure 19
0100
0000
0000
0100
0000
0000
0000
0000
0000
0010
0000
0000
0010
0000
1000
0000
0100
0000
0001
0000
0000
0000
0000
0000
,  // measure 20
0110
0000
0000
0010
0100
0000
0000
1000
0000
1000
0000
0000
0001
0000
0100
0000
,  // measure 21
0010
1000
0000
0001
0001
0010
0100
0010
,  // measure 22
0001
0000
0000
0001
1000
0000
0000
0010
0000
0010
0000
0000
0100
0000
0001
0000
,  // measure 23
1000
0010
0000
1000
1000
0010
0110
0000
,  // measure 24
1001
0000
0000
1000
0001
0000
0000
0100
0000
0100
0000
0000
0010
0000
1000
0000
,  // measure 25
0001
0100
0000
0100
0010
0010
1000
0001
,  // measure 26
0010
0000
0000
0100
0010
0000
0000
0001
0000
0001
0000
0000
1000
0000
0010
0000
,  // measure 27
0100
0001
0000
0001
0010
0100
1000
0000
,  // measure 28
1001
0000
0000
0000
0001
0000
0000
0100
0000
0100
0000
0100
0010
0000
0100
0000
,  // measure 29
0001
0000
0000
0000
1000
0000
0000
0100
0000
0100
0000
0100
0010
0000
0100
0000
,  // measure 30
1000
0000
0000
0000
0001
0000
0000
1000
0000
1000
0000
1000
0100
0000
0010
0000
,  // measure 31
0001
0000
0000
0000
1000
0000
0000
0001
0000
0001
0000
0001
0100
0000
0000
0000
,  // measure 32
0110
0100
0100
0000
0001
0001
0001
0000
,  // measure 33
0010
0010
0010
0000
0100
0100
0100
0000
,  // measure 34
1000
1000
1000
0000
0010
0010
0010
0000
,  // measure 35
1000
0000
0100
0000
0010
0000
0000
0000
0001
0000
0000
0100
0000
0100
0000
0000
,  // measure 36
0020
0000
0000
0000
1000
0000
0000
0000
0130
0000
0000
0010
0000
0010
0100
0000
,  // measure 37
0002
0000
0000
0000
0010
0000
0000
0000
1003
0000
0000
0001
0000
0001
1000
0000
,  // measure 38
0200
1000
0010
0001
,  // measure 39
0310
0100
0100
1000
1000
0010
0010
0100
,  // measure 40
0010
0000
0000
0100
0000
0001
0000
0000
0010
0000
0010
0000
0010
0000
0000
0000
,  // measure 41
0100
0000
1000
0000
0000
0010
0000
0100
0000
0000
0100
0000
0100
0000
0000
0000
,  // measure 42
0010
0000
0000
1000
0000
0001
0000
0000
0010
0000
0010
0000
0010
0000
0000
0000
,  // measure 43
0100
0000
1000
0000
0000
0001
0000
0001
0000
0000
0100
0000
0000
0010
0000
0000
,  // measure 44
1001
0000
0000
1000
0000
0100
0000
0000
0001
0000
0001
0000
0001
0000
0000
0000
,  // measure 45
0100
0000
0000
1000
0000
0010
0000
0000
0100
0000
0100
0000
0100
0000
0000
0000
,  // measure 46
1001
0000
0000
0001
0000
0100
0000
0000
0110
0000
0000
0010
0000
1000
0000
0000
,  // measure 47
1000
0100
0000
0000
0100
0010
0000
0000
0010
0001
0000
0000
0001
1000
0000
0000
,  // measure 48
2020
0000
3030
0000
;

//---------------dance-single - ----------------
#NOTEDATA:;
#CHARTNAME:;
#STEPSTYPE:dance-single;
#DESCRIPTION:;
#CHARTSTYLE:;
#DIFFICULTY:Easy;
#METER:4;
#RADARVALUES:0.238214,0.412095,0.127452,0.169936,0.000000,157.000000,145.000000,12.000000,16.000000,0.000000,0.000000,0.000000,0.000000,0.000000,0.238214,0.412095,0.127452,0.169936,0.000000,157.000000,145.000000,12.000000,16.000000,0.000000,0.000000,0.000000,0.000000,0.000000;
#CREDIT:;
#DISPLAYBPM:130.000000;
#NOTES:
0000
0000
0000
0000
,
0000
0000
0000
0000
,
0000
0000
0000
0000
,
2002
0000
0000
3003
,
0001
1000
0001
0000
,
0100
0010
0100
0000
,
0001
1000
0001
1000
,
0100
0000
0010
0010
,
0001
0000
0000
0000
0100
0100
0100
0000
,
0010
1000
0000
0100
,
0010
0000
0000
0000
0001
0001
0001
0000
,
1000
0010
0000
1010
,
1000
0100
0010
0001
,
1000
0000
0001
0000
,
1000
0010
0100
0001
,
1000
0000
0001
0001
,
1000
0100
0010
0001
,
0100
0000
0010
0000
,
1000
0010
0100
0001
,
0020
0000
0000
0030
0110
0000
0110
0000
,
0100
1000
0100
1000
,
0002
0000
0100
0103
,
0001
0010
0001
0010
,
0200
0000
1000
1300
,
0100
1000
0100
1000
,
0020
0000
0100
0130
,
0010
0100
0010
0100
,
0002
0000
1000
1003
,
0002
0000
0000
0003
,
1000
1000
0001
0001
,
0200
0000
0000
0000
,
0301
0001
1000
1000
,
0020
0000
0000
0000
,
0230
0000
0000
0000
,
0302
0000
0000
0000
,
0000
0000
0000
0003
,
1000
0001
1001
0000
,
0100
0010
0110
0000
,
0001
1000
0001
1000
,
2002
0000
0000
3003
,
0001
0000
0001
0000
1000
0100
1000
0000
,
0001
1000
0001
1000
,
0010
0000
0010
0000
0100
0010
0100
0000
,
0010
0100
0010
0100
,
0001
0000
0001
0000
1000
0010
1000
0000
,
0001
0000
0001
0000
1000
0100
1000
0000
,
0001
0010
0001
0000
1000
0010
1000
0000
,
1001
0101
1001
1010
,
0220
0000
0330
0000
;

//---------------dance-single - ----------------
#NOTEDATA:;
#CHARTNAME:;
#STEPSTYPE:dance-single;
#DESCRIPTION:;
#CHARTSTYLE:;
#DIFFICULTY:Beginner;
#METER:2;
#RADARVALUES:0.124418,0.206048,0.000000,0.063726,0.000000,82.000000,82.000000,0.000000,6.000000,0.000000,0.000000,0.000000,0.000000,0.000000,0.124418,0.206048,0.000000,0.063726,0.000000,82.000000,82.000000,0.000000,6.000000,0.000000,0.000000,0.000000,0.000000,0.000000;
#CREDIT:;
#DISPLAYBPM:130.000000;
#NOTES:
0000
0000
0000
0000
,
0000
0000
0000
0000
,
0000
0000
0000
0000
,
0001
0000
0000
0000
,
1000
0000
0000
0000
,
1000
0000
0000
0000
,
0001
0000
0000
0000
,
0001
0000
0100
0100
,
0100
0000
0000
0000
,
0010
0000
0000
0000
,
1000
0000
0000
0000
,
0001
0000
0000
1000
,
1000
0000
0000
0000
,
0001
0000
1000
1000
,
1000
0000
0000
0000
,
0100
0000
0010
0010
,
0010
0000
0000
0000
,
0001
0000
0000
0000
,
1000
0000
0000
0000
,
0001
0000
0100
0100
,
0100
0000
0010
0000
,
0100
0000
0000
0000
,
0001
0000
1000
0000
,
0001
0000
1000
1000
,
1000
0000
0100
0000
,
1000
0000
0000
0000
,
0001
0000
0100
0000
,
0001
0000
1000
1000
,
2000
0000
3000
0000
,
0001
0001
0001
0000
,
0000
0000
0000
0000
,
1000
1000
1000
0000
,
0002
0000
0003
0000
,
0020
0000
0030
0000
,
0200
0000
0000
0000
,
0300
0000
0000
0000
,
1000
1000
1000
0000
,
0001
0001
0001
0000
,
0100
0100
0100
0100
,
0200
0000
0300
0000
,
0010
0000
0010
0000
,
1000
0000
1000
0000
,
0001
0000
0001
0000
,
1000
0000
1000
0000
,
0100
0000
0100
0000
,
0010
0000
0010
0000
,
0001
0000
0001
0000
,
1000
1000
1000
1000
,
2000
0000
3000
0000
;

//---------------dance-single - ----------------
#NOTEDATA:;
#CHARTNAME:;
#STEPSTYPE:dance-single;
#DESCRIPTION:;
#CHARTSTYLE:;
#DIFFICULTY:Hard;
#METER:10;
#RADARVALUES:0.626640,0.746923,0.148694,0.499187,0.977133,413.000000,399.000000,14.000000,47.000000,0.000000,0.000000,0.000000,0.000000,0.000000,0.626640,0.746923,0.148694,0.499187,0.977133,413.000000,399.000000,14.000000,47.000000,0.000000,0.000000,0.000000,0.000000,0.000000;
#CREDIT:;
#DISPLAYBPM:130.000000;
#NOTES:
0000
0000
0000
0000
,
0000
0000
0000
0000
,
0000
0000
0000
0000
,
1000
0000
0000
0000
0100
0000
0000
0000
1000
0000
0000
0000
0001
0000
0000
0100
0000
0000
0000
0000
0000
0100
0000
0000
0000
0000
0000
0010
0000
0000
1000
0000
0000
0001
0000
0000
0020
0000
0000
0000
0000
0000
0000
0000
0000
0000
0000
0000
,
0031
0000
0100
0000
0100
0001
0000
0010
0000
1000
0000
0010
0001
0000
1000
0000
,
1000
0000
0010
0000
0010
1000
0000
0100
0000
0001
0000
0100
1000
0000
0010
0000
,
1000
0000
0100
0000
0010
0100
0000
1000
0000
0010
0000
0100
0002
0000
0000
0000
,
1003
0000
0100
0000
0010
0100
1000
0000
0001
0000
0100
0010
1000
0000
0000
0000
,
0001
0020
0000
0100
0000
0130
0000
0000
0010
0000
0010
0000
0100
0000
0100
0000
,
1000
0000
0002
0000
0000
0103
0010
0100
0000
0001
0020
0000
0000
0130
0000
0000
,
1000
0020
0000
0100
0000
0130
0000
0000
0010
0000
0010
0000
0100
0000
0100
0000
,
0001
0000
2000
0000
0000
3100
0010
0100
1000
0100
0000
0000
1100
0000
0000
0000
,
1001
0000
0000
0001
0100
0000
0100
0010
0000
0010
0000
0000
1000
0000
0100
0020
,
0000
0000
0031
0000
0000
0000
1000
0000
0010
1000
0000
0001
0010
0001
0000
0100
,
0010
0000
0000
1000
0010
0000
0010
0100
0000
0100
0000
0000
0001
0000
0010
0200
,
0000
0000
1300
0000
0000
0000
0001
0000
0100
0000
0001
1000
0100
0000
0000
0000
,
0100
0000
0000
0100
1000
0000
1000
0001
0000
0001
0000
0000
0100
0000
0001
0020
,
0000
0000
0130
0000
0000
0000
1000
0000
0010
1000
0000
0001
0010
0001
0000
1000
,
0010
0000
0000
0100
0001
0000
0001
1000
0000
1000
0000
0000
0100
0000
1000
0020
,
0000
0000
0130
0000
0000
0000
1001
0000
0110
0000
1000
0001
0010
0000
0000
0000
,
1001
0000
0000
0001
0100
0000
0100
0010
0000
0010
0000
1000
0100
0000
1000
0200
,
0000
0000
0301
0000
0000
0000
0100
0000
1000
0010
0000
0100
0001
0000
0001
1000
,
0000
0000
0000
1000
0010
0000
0010
0100
0000
0100
0000
0001
0010
0000
0001
0020
,
0000
0000
1030
0000
0000
0000
0010
0000
0100
0000
1000
0001
0100
0000
0000
0000
,
0101
0000
0000
0001
0010
0000
0010
0100
0000
0100
0000
1000
0010
0000
1000
0020
,
0000
0000
0031
0000
0000
0000
0010
0000
1000
0100
0000
0010
0001
0000
0001
1000
,
0000
0000
0000
1000
0100
0000
0100
0010
0000
0010
0000
0001
0010
0000
0001
0200
,
0000
0000
1300
0000
0000
0000
0100
0000
0010
0000
1000
0001
0020
0000
0000
0000
,
0031
0010
0000
0001
0000
1000
0000
0010
0000
0100
0000
0001
1000
0000
0100
0000
,
1000
0000
0000
0000
0010
0000
0000
0000
1000
0000
0000
0000
0001
0000
0000
0010
0000
0000
0000
0000
0000
0001
0000
0000
0000
0000
0000
1000
0000
0000
0100
0000
0000
0010
0000
0000
0002
0000
0000
0000
0000
0000
0000
0000
0000
0000
0000
0000
,
1003
0100
0000
1000
0000
0001
0000
0100
0000
0010
0000
1000
0001
0000
0010
0000
,
0001
0000
0000
0000
0100
0000
0000
0000
0001
0000
0000
0000
1000
0000
0000
0100
0000
0000
0000
0000
0000
1000
0000
0000
0000
0000
0000
0001
0000
0000
0010
0000
0000
0100
0000
0000
2000
0000
0000
0000
0000
0000
0000
0000
0000
0000
0000
0000
,
3100
0010
0000
0000
0010
0001
0000
0100
0000
0001
0000
0100
0001
0000
0000
0000
,
0100
0010
0000
0000
0010
1000
0000
1000
0100
0000
0010
0000
0001
0000
1000
0000
,
0010
0100
0000
0000
0100
0001
0000
0010
0000
0001
0000
1000
0020
0000
0000
0000
,
0130
0000
0001
0000
0010
0100
0000
0100
1000
0000
0000
0001
0000
1000
0200
0000
,
0310
0001
1000
0100
0010
0001
1000
0100
0020
0000
0000
0031
0000
0100
0020
0000
,
1030
0001
0100
0010
1000
0001
0100
0010
2000
0000
0000
3100
0000
0010
0002
0000
,
1003
0100
0010
0001
1000
0100
0010
0001
1000
0100
0010
0100
1000
0001
0100
0010
,
2000
0000
0000
0000
0000
0000
3001
1000
0100
0010
0002
0000
2000
0000
3003
0000
,
0001
0200
0000
0010
0000
0310
0000
0000
1010
0000
1000
0000
1100
0000
0100
0000
,
0010
0000
0002
0000
0000
1003
0010
0100
0000
0001
0200
0000
0000
0310
0000
0000
,
1000
0200
0000
0010
0000
0310
0000
0000
0011
0000
0001
0000
0101
0000
0100
0000
,
0010
0000
2000
0000
0000
3001
0010
0100
0000
1000
0200
0000
0000
0310
0000
0000
,
0001
0020
0000
0100
0000
0130
0000
0000
1100
0000
1000
0000
1010
0000
0010
0000
,
1000
0020
0000
0100
0000
0130
0000
0000
0101
0000
0001
0000
0011
0000
0010
0000
,
0100
2000
0000
0010
0000
3010
0000
0000
0100
0002
0000
0010
0000
0013
0000
0000
,
0002
0203
0310
1000
0002
0203
0310
0100
0002
2003
3100
0010
0200
2300
3010
0200
,
0002
0000
0303
0000
;
