#TITLE:Chronos;
#SUBTITLE:;
#ARTIST:JAGGS & Dropgun;
#TITLETRANSLIT:;
#SUBTITLETRANSLIT:;
#ARTISTTRANSLIT:;
#CREDIT:KevinRocker10 & K-Step;
#BANNER:Chronos.png;
#BACKGROUND:Chronos - bg.png;
#LYRICSPATH:;
#CDTITLE:cdtitle.png;
#MUSIC:Chronos.ogg;
#OFFSET:-0.880;
#SAMPLESTART:73.075;
#SAMPLELENGTH:15.000;
#SELECTABLE:YES;
#DISPLAYBPM:64.000:128.000;
#BPMS:0.000=64.000,21.000=128.000,85.000=192.000,85.500=95.999,86.000=128.000,93.000=192.000,93.500=95.999,94.000=128.000,101.000=192.000,101.500=96.000,102.000=128.000,103.000=192.000,103.500=95.999,104.000=128.000,105.000=192.000,105.500=95.999,106.000=128.000,107.000=192.000,107.500=95.999,108.000=128.000,109.000=192.000,109.500=95.999,110.000=128.000,111.000=192.000,111.500=95.999,112.000=128.000,113.000=192.000,113.500=95.999,114.000=128.000,115.000=192.000,115.500=95.999,116.000=128.000,139.500=192.000,140.000=128.000,155.500=192.000,156.000=128.000,171.500=192.000,172.000=128.000,187.500=192.000,188.000=128.000,196.000=192.000,198.000=128.000;
#STOPS:129.000=0.460
,139.500=0.080
,155.500=0.080
,171.500=0.080
,187.500=0.080
,196.750=0.160
,197.750=0.160
;
#BGCHANGES:;

//---------------dance-single - K ^ K Collab----------------
#NOTES:
     dance-single:
     K & K Collab:
     Hard:
     10:
     0.659,0.681,0.685,0.414,0.402: // measure 1
0000
0000
0000
0000
,  // measure 2
0000
0000
0000
0000
0000
0000
0000
0000
1100
0000
1000
0000
0001
0000
0000
0000
0000
0000
0100
0000
0001
0000
0010
0000
0110
0000
1000
0010
1000
0000
0000
0000
,  // measure 3
0001
0000
0000
0000
0000
0000
1000
0000
1010
0000
1000
0000
0100
0000
0000
0000
1001
0000
0001
0010
0100
0000
0010
0000
0011
0000
0000
0000
0000
0000
0000
0000
,  // measure 4
2001
0000
0000
0000
0000
0000
3000
0000
1010
0000
1000
0000
0001
0000
0000
0000
0000
0000
1000
0000
0010
0000
0100
0000
0101
0000
0001
1000
0001
0000
0000
0000
,  // measure 5
0010
0000
0000
0000
0000
0000
0001
0000
0101
0000
0001
0000
0010
0000
0000
0000
0110
0000
0100
1000
0100
0000
0010
0000
0011
0000
0000
0000
0000
0000
0000
0000
,  // measure 6
0102
0000
0000
0003
10M1
0000
0001
0000
2000
0000
0000
0000
3000
0000
0001
0000
,  // measure 7
0100
0000
0001
0000
0010
0000
0010
0100
2000
0000
0000
3000
1200
0000
0000
0000
,  // measure 8
0300
0000
0010
0000
0110
0000
0010
0000
0002
0000
0003
0000
0011
0000
0001
0100
,  // measure 9
0001
1000
0200
0000
1000
0000
2300
0100
,  // measure 10
0000
0010
3010
1000
0200
0000
0300
0100
,  // measure 11
0001
0000
0100
0000
1000
0000
1000
0100
0020
0000
0000
0030
0120
0000
0000
0000
,  // measure 12
0030
0000
0001
0000
0011
0000
0001
0000
2000
0000
3000
0000
1001
0000
1000
0100
,  // measure 13
1000
0010
1020
0000
0000
0000
0230
0010
,  // measure 14
0000
0000
0001
0000
0301
0000
0000
0100
0010
0000
0010
0000
1000
0000
0001
0000
,  // measure 15
1000
0000
0001
0000
0101
0000
0001
0010
0100
0000
0010
0000
0001
0000
1000
0000
,  // measure 16
0001
0000
1000
0000
1010
0000
0000
0010
0100
0000
0100
0000
0001
0000
0100
0010
,  // measure 17
0100
0000
0100
0000
0110
0000
0000
0010
1000
0000
0010
0000
1010
0000
1000
0000
,  // measure 18
0001
0000
0000
0000
1001
0000
0000
1000
0100
0000
0100
0000
1100
0000
1000
0000
,  // measure 19
0100
0000
0010
0000
0110
0000
0010
0100
0010
0000
0001
0000
0011
0000
0010
0000
,  // measure 20
0001
0000
0100
0000
0101
0000
0000
0001
1000
0000
1000
0000
1010
0000
0010
0100
,  // measure 21
0001
0001
0021
0000
0000
0000
0032
0000
,  // measure 22
0000
0000
0000
0000
2003
0000
0000
3000
0001
0000
1000
0000
0010
0000
0100
0010
,  // measure 23
0000
0010
0100
0000
0001
1000
0001
0000
0010
0000
1000
0000
0010
0001
0100
0002
,  // measure 24
0000
0003
0000
0000
0210
0000
0000
0300
0001
0000
1000
0000
0100
0000
0010
0100
,  // measure 25
0000
0100
0010
0000
0001
1000
0001
0000
0100
0000
1000
0000
0100
0001
0010
0002
,  // measure 26
0000
0003
0000
0000
2001
0000
0000
0000
3010
0000
0000
0000
0202
0000
0000
0000
,  // measure 27
0303
0012
1003
2020
,  // measure 28
3030
0120
1030
2200
,  // measure 29
3300
0021
0130
2002
,  // measure 30
3003
0000
1000
0010
0100
0010
1000
0100
,  // measure 31
0010
0100
1000
0010
0001
0010
1000
0100
,  // measure 32
0001
0100
1000
0100
0010
0001
0100
0010
,  // measure 33
1000
0001
100M
0000
0020
1030
0020
1030
,  // measure 34
1001
0000
0000
0000
0001
0000
0010
0000
0001
0000
0001
1000
0000
0010
1000
0000
,  // measure 35
1000
0001
1000
0000
0001
0000
0001
0000
0100
0010
0100
0010
0000
0010
1000
0000
,  // measure 36
1001
0000
0000
0000
0101
0000
0001
0000
1000
0000
0001
0100
0000
0010
0100
0000
,  // measure 37
0010
1000
0001
0000
0001
0000
0100
0010
0100
0000
0100
0001
0000
1000
0020
0030
,  // measure 38
1010
0000
0000
0000
0110
0000
0100
0000
0001
0000
1000
0001
0000
0100
0001
0000
,  // measure 39
0001
0010
0001
0000
1000
0000
0100
0000
1000
0010
1000
0100
0000
0100
1000
0000
,  // measure 40
1010
0000
0000
0000
1001
0000
0001
0000
0100
0000
0100
0010
0000
0010
1000
0000
,  // measure 41
1010
0000
1000
0010
0100
0000
0001
0100
0010
0000
0010
0000
0110
0000
0100
0000
,  // measure 42
0110
0000
0000
0000
0101
0000
0001
0000
1001
0000
0000
0101
0000
0000
0110
0000
,  // measure 43
0100
0010
0100
0000
0100
0000
0001
0000
0100
0001
1000
0001
0000
0100
0010
0000
,  // measure 44
0110
0000
0000
0000
0101
0000
0001
0000
1001
0000
0000
1010
0000
0000
1100
0000
,  // measure 45
0100
1000
0010
0000
0010
0000
0100
0010
1000
0001
0010
0100
1000
0000
1001
0000
,  // measure 46
1001
0000
0000
0000
0101
0000
0100
0000
0110
0000
0000
0101
0000
0000
1010
0000
,  // measure 47
0010
1000
0100
0000
1000
0000
1000
0000
1000
0100
0010
0100
0000
0010
0001
0000
,  // measure 48
0011
0000
0001
0000
0101
0000
0100
0000
0110
0000
0000
1010
0000
0000
0110
0000
,  // measure 49
1000
0000
0010
0000
0100
0000
0001
0000
0010
0100
0010
0100
0010
0000
0000
0000
,  // measure 50
0M02
0000
0000
0003
20M0
0000
0000
3000
110M
0000
0000
0011
0000
0000
1001
0000
,  // measure 51
0001
0100
0010
1000
0010
0000
0100
0000
0001
0010
0100
0020
0000
0030
0001
0000
,  // measure 52
1010
0000
0100
0000
1001
0000
1000
0000
1010
0000
1000
0100
0000
0000
0110
0000
,  // measure 53
0010
0001
0100
0010
2000
3000
0200
0300
0002
0003
0200
2300
3000
0000
1001
0000
,  // measure 54
0020
0000
0030
0000
0200
0000
0300
0000
1001
0000
0000
0101
0000
0000
1010
0000
,  // measure 55
1000
0010
0100
0001
0010
0000
1000
0000
0010
0001
0010
0200
0000
0300
0010
0000
,  // measure 56
1001
0000
0100
0000
0101
0000
0001
0000
0011
0000
0001
1000
0000
0000
1010
0000
,  // measure 57
0010
0100
0001
0100
0020
0030
2000
3000
0200
0300
2000
3002
0003
0000
0200
0300
,  // measure 58
0110
0000
0000
0000
;
