#TITLE:Appaloosa;
#SUBTITLE:;
#ARTIST:Gino Vanelli;
#TITLETRANSLIT:;
#SUBTITLETRANSLIT:;
#ARTISTTRANSLIT:;
#CREDIT:;
#BANNER:Appaloosa.png;
#BACKGROUND:Appaloosa-bg.png;
#LYRICSPATH:;
#CDTITLE:neze2_by_rusty_raccoon_735-dbbq5vr.png;
#MUSIC:Appaloosa.ogg;
#OFFSET:-0.513;
#SAMPLESTART:29.699;
#SAMPLELENGTH:12.000;
#SELECTABLE:YES;
#BPMS:0.000=98.800,5.000=101.000,8.000=98.000,9.000=96.840,12.000=102.000,16.000=97.000,21.000=101.000,25.000=97.800,28.000=100.400,39.000=103.400,40.000=98.000,44.000=101.000,47.000=95.500,48.000=100.500,58.000=103.500,59.000=102.240,67.500=102.220,78.000=103.260,85.000=96.500,86.000=98.500,88.000=106.300,102.000=103.000,112.000=110.000,114.000=94.480,115.000=102.600,125.000=104.000,131.000=101.000,133.000=105.000,137.000=102.500,139.750=98.000,140.000=102.000,149.000=103.500,176.000=102.900,195.000=105.000,198.000=103.000,200.000=101.100,203.000=102.860,204.000=99.500;
#STOPS:;
#BGCHANGES:;

//---------------dance-single - C 10 X 15----------------
#NOTES:
     dance-single:
     C 10 X 15:
     Hard:
     10:
     0.750,0.836,0.489,0.584,0.917: // measure 1
0000
0000
0000
0000
,  // measure 2
0000
0000
0000
0000
,  // measure 3
0000
0000
0000
0000
,  // measure 4
0000
0000
0000
0000
0000
0000
0000
0000
0000
0000
0000
0000
0000
0000
1000
0001
,  // measure 5
0011
0000
2200
0000
0000
3300
0220
0000
0000
0330
0012
0000
1000
1000
0000
0103
,  // measure 6
0010
0100
0001
0000
0010
0001
1000
0001
0000
1000
0100
0000
1000
0001
1000
0010
,  // measure 7
0110
0000
0200
0000
0301
0000
2000
0000
3100
0000
0020
0000
0031
0000
2000
3100
,  // measure 8
0010
0000
0002
0000
0103
0000
0020
0000
1030
0010
0200
0301
1000
0000
0200
0310
,  // measure 9
1000
0010
0000
0020
0130
2000
3001
0000
0200
0310
2000
0000
3001
0200
0310
0100
,  // measure 10
1000
0000
0001
0020
0130
0001
1000
0200
0310
0001
1000
0020
0130
0001
1000
0100
,  // measure 11
1100
0000
0011
0000
1001
0000
2010
0000
0000
0000
0000
0000
0001
0001
0000
0000
,  // measure 12
3100
0000
0000
1000
0010
0000
0110
0000
0000
0000
0001
0000
0010
0100
0000
0000
,  // measure 13
1000
0100
0010
0001
0100
0010
1000
0001
1001
0000
0002
0010
0000
1003
0100
0000
,  // measure 14
0010
0001
0000
0100
0000
0010
1000
0000
1100
0000
0000
1000
0001
0100
0010
0002
,  // measure 15
0000
0000
0013
0000
1000
0100
0020
0000
0001
0000
0230
1000
0000
0310
0001
0000
,  // measure 16
0100
0010
0000
1000
0000
0100
0010
0000
0011
0000
0001
0010
0100
1000
2001
0000
,  // measure 17
0000
0000
3010
0100
0010
0000
1000
0000
0001
0000
1000
0000
0100
0000
0010
0000
0110
0000
0000
0000
0002
0000
1000
0000
0000
0000
0103
0000
0010
0000
0001
0000
,  // measure 18
0010
0100
0001
1000
0000
1000
0100
0000
1100
0000
0000
0100
1000
0100
0010
0002
,  // measure 19
0000
0000
1003
0010
0100
0000
0002
0000
1000
0000
0203
0010
0000
0301
0010
0000
,  // measure 20
0001
0000
0000
0000
0100
0000
0010
0000
1000
0000
0001
0000
1000
0000
0100
0000
1100
0000
0000
0000
1000
0000
0100
0000
0010
0000
0001
0000
0010
0000
0001
0010
,  // measure 21
0100
1000
0001
0100
1000
0100
0010
1000
1001
0000
0001
0100
1000
0100
0220
0000
,  // measure 22
0330
0000
0000
0000
0000
0000
0000
0000
1020
0000
0000
0000
0000
0000
0000
0000
0130
0000
0000
0000
0000
0000
0000
0000
1001
0000
0000
0000
0000
1000
0000
0000
0200
0000
0000
0000
0000
0000
0000
0000
0000
0000
0000
0000
0310
0000
0000
0000
0001
0000
0000
0000
0000
0000
0000
0000
1000
0000
0000
0000
0000
0000
0000
0000
,  // measure 23
0010
0000
0010
0000
0100
0001
1000
0000
0100
0000
0020
0000
1000
0000
0130
1000
,  // measure 24
0001
0000
0000
0000
0100
0000
0000
0000
0001
0000
0000
0000
1000
0000
0000
0000
0010
0000
0000
0000
0120
0000
0000
0000
0000
0000
0000
0000
1030
0000
0000
0000
0100
0000
0000
0000
0000
0000
0000
0000
0000
0000
0000
0000
0001
0000
0000
0000
0100
0000
0000
0000
0000
0000
0000
0000
1000
0000
0000
0000
0000
1000
0000
0000
,  // measure 25
0002
0000
0023
0000
0130
0002
0103
0010
0001
1000
2020
0000
3030
1002
0000
0013
,  // measure 26
0001
0000
0000
1000
0000
0000
2200
0000
0000
0000
0000
0000
3300
0000
0000
0022
0000
0000
0000
0000
0000
0033
0000
0000
1002
0000
0000
0000
0000
0000
0000
0000
0000
0103
0000
0000
0010
0000
0000
0000
1000
0000
0002
0000
0000
0000
0000
0000
,  // measure 27
0023
0000
0130
0010
0002
1003
0100
0000
0020
0000
0000
0130
0010
1000
0010
0100
,  // measure 28
1000
0010
0100
0001
0010
0100
0002
0000
1000
0000
0000
0103
0010
0000
0001
0010
,  // measure 29
0100
0000
0000
0000
0100
0000
1000
0000
0001
0000
1000
0000
0001
0000
0100
0000
0001
0000
0100
0000
0010
0000
0100
0000
0010
0000
0000
2000
0000
0000
0100
0000
0000
0000
0000
0000
0100
0000
0000
0000
0000
0000
3001
0000
0010
0000
0001
0000
,  // measure 30
1000
0000
0010
0000
1000
0000
0001
0000
0100
0000
0001
0000
1000
0000
0000
0100
0000
0000
0020
0000
0000
0032
0000
0000
0013
0000
0100
0000
0010
0000
0001
0000
1000
0000
0001
0000
0100
0000
0010
0000
0100
0000
0001
0000
1000
0000
0001
0000
,  // measure 31
1000
0000
0020
0000
0000
0000
0100
0000
0000
0000
0000
0000
1030
0000
0000
0100
0000
0000
0020
0000
0000
2030
0000
0000
3010
0000
0000
0002
0000
0000
1000
0000
0000
0000
0000
0000
0103
0000
0000
0010
0000
0000
1000
0000
0000
0100
0000
0000
,  // measure 32
0001
0100
1000
0001
0100
1000
0100
0001
1000
0010
0100
0001
1000
0100
0010
0001
,  // measure 33
2000
0000
3100
0010
0001
1000
0001
0100
0101
0000
1010
0000
1001
0000
0012
0000
,  // measure 34
0000
1000
1003
0100
1000
0001
0000
0001
0100
0020
1030
0001
0010
0002
0003
0001
,  // measure 35
1000
0100
1000
0001
0010
0100
1000
0100
0010
0001
1000
0001
0100
0010
1000
0001
,  // measure 36
1001
0000
2000
0010
0000
3001
0100
0000
1000
0000
0100
0010
0000
1000
0100
0000
,  // measure 37
1100
0000
1000
0100
0000
0010
0001
1000
0001
0000
0010
0100
1000
0000
0010
0000
,  // measure 38
1020
1000
0130
0010
0001
0010
1000
0001
,  // measure 39
1001
0000
0000
0000
0000
0000
1000
0000
0000
0100
0000
0000
0010
0000
0000
0001
0000
0000
1001
0000
0000
0000
0000
0000
0001
0000
0010
0000
0001
0000
0010
0000
0100
0000
0010
0000
0100
0000
1000
0000
0100
0000
1000
0000
0100
0000
1000
0000
,  // measure 40
0001
0100
1000
0001
0010
1000
0001
0100
1000
0001
0010
1000
0001
0100
1000
0100
,  // measure 41
0102
0000
0103
0010
0000
0010
1000
0100
1000
0000
0100
0000
0010
0000
0012
0000
,  // measure 42
1000
0000
0103
0000
0010
0000
2010
0000
0001
0000
0001
0000
3010
1000
0001
1000
,  // measure 43
1001
0000
0000
0000
1000
0000
0010
1000
0001
0000
0100
0000
0101
0000
0000
0000
0100
0000
0001
1000
0100
0000
0010
0000
0100
0000
1000
0000
0001
0000
0100
0000
,  // measure 44
0101
0001
0010
0100
1000
0100
1100
1000
0100
0001
0100
0010
0001
0000
0101
0000
,  // measure 45
0120
1030
0000
1010
0000
1010
0000
0011
0000
0011
0000
1001
0000
0001
0000
1000
,  // measure 46
0200
0000
0010
0000
1300
0100
0001
0200
0010
0000
0310
0000
0001
0000
1000
0000
,  // measure 47
1002
0013
0000
0011
0000
0011
0000
1010
0000
0010
1000
1001
0000
0001
1000
0001
,  // measure 48
0100
2000
3100
0002
0013
2000
3001
1000
0010
0001
0100
1000
0001
1000
0100
0001
,  // measure 49
0101
0000
0002
0010
0000
1003
0010
1010
0000
1000
0001
0101
0000
0101
0000
1000
,  // measure 50
1100
0000
1100
0000
1000
0100
0001
0100
0010
0000
0110
0000
0001
0000
1000
0000
,  // measure 51
1100
0000
0000
0000
0020
0000
0001
0000
0000
0000
0130
0000
1000
0000
0000
0000
0001
0000
0000
0000
1000
0100
0010
0000
0001
0000
1000
0000
0100
0000
1000
0000
,  // measure 52
1100
0011
0101
2020
0000
0000
0000
0000
,  // measure 53
3030
0000
0000
0000
;

//---------------dance-single - C 3 X 5----------------
#NOTES:
     dance-single:
     C 3 X 5:
     Beginner:
     3:
     0.107,0.150,0.146,0.000,0.000:
0000
0000
0000
0000
,
0000
0000
0000
0000
,
0000
0000
0000
0000
,
0000
0000
0000
0000
,
1001
0000
0000
0000
,
0000
0000
0000
0000
,
1000
0000
0000
0000
,
0001
0000
0000
0000
,
0100
0000
0000
0000
,
0010
0000
0000
0000
,
0100
0000
0000
1001
0000
0000
0000
0000
,
1000
0000
0000
0000
,
0001
0000
1001
0000
,
0000
0000
1000
0000
,
0001
0000
0010
0000
,
0000
0000
0000
0000
0100
0000
0000
0110
,
0000
0000
1001
0000
,
0000
0000
0001
0000
,
1000
0000
0010
0000
,
0000
0000
0000
0000
0100
0000
0000
0100
,
0000
0000
0000
0000
0010
0000
0000
0010
,
0000
0010
0000
0000
1001
0000
0000
0000
,
0001
0000
0100
0000
,
0010
0000
0010
0000
,
1000
0000
0000
0000
0000
1001
0000
0000
,
0000
0110
0000
0000
1001
0000
0000
0000
,
1000
0000
0010
0000
,
0100
0100
0100
0000
,
0001
0000
1001
0000
,
1000
0000
1000
0000
,
0100
0000
0100
0000
,
0010
0000
0010
0000
,
0001
0000
0000
0000
0001
0000
0000
1001
,
0000
0000
0000
0000
,
0000
0000
0000
0000
,
1001
0000
0000
0000
,
0001
0000
1000
0000
,
0010
0000
0000
0000
,
0100
0000
0000
0110
0000
0000
0000
0000
,
1001
0000
0000
0000
,
1000
0000
0001
0000
,
0010
0000
0000
0000
,
0100
0000
0000
1001
0000
0000
0000
0000
,
0010
0000
0000
1001
0000
0000
0000
0000
,
1001
0000
1000
1000
,
1000
0000
0100
0000
,
0010
0000
0001
0001
,
0001
0000
0000
0110
0000
0000
0000
0000
,
1001
0000
0001
0001
,
0001
0000
0100
0000
,
0010
0000
1000
1000
,
1000
0000
0000
1001
0000
0000
0000
0000
;

//---------------dance-single - C 6 X 10----------------
#NOTES:
     dance-single:
     C 6 X 10:
     Easy:
     6:
     0.301,0.342,0.285,0.256,0.011: // measure 1
0000
0000
0000
0000
,  // measure 2
0000
0000
0000
0000
,  // measure 3
0000
0000
0000
0000
,  // measure 4
0000
0000
0000
0000
,  // measure 5
1001
0000
0000
0010
0000
0100
0000
0000
,  // measure 6
0001
0000
0100
0000
1000
0000
0100
0010
,  // measure 7
2001
0000
0001
0000
0001
0000
3001
0100
,  // measure 8
0020
0000
1000
0000
1000
0000
1030
0100
,  // measure 9
0020
0000
0001
0000
0001
0000
0031
0100
,  // measure 10
2000
0100
0100
3100
,  // measure 11
1001
0000
0000
0120
0000
0000
0001
0000
,  // measure 12
0100
1000
0000
0100
,  // measure 13
0031
0010
0100
0010
2002
0000
3003
0000
,  // measure 14
0001
0000
1000
0000
0100
0000
0010
0001
,  // measure 15
0010
0100
2002
3003
,  // measure 16
1000
0000
0001
0000
0101
0000
0000
1100
,  // measure 17
0000
0100
0010
0100
2002
0000
3003
0000
,  // measure 18
1000
0000
0001
0000
0100
0000
0010
1000
,  // measure 19
0010
0100
2002
3003
,  // measure 20
0001
0000
1000
0000
1100
0000
0000
0101
,  // measure 21
0000
0100
1000
0100
0110
0000
0000
1001
,  // measure 22
0000
2002
0000
3003
1100
0000
1000
0000
,  // measure 23
0100
0010
0001
0100
,  // measure 24
0010
0000
0010
0000
0000
0110
0000
0000
1001
0000
0000
0000
0001
0000
0000
0000
,  // measure 25
0100
0000
0000
0000
0010
0000
0000
0000
0000
0000
0010
0000
0000
0110
0000
0000
,  // measure 26
0000
0000
0100
0000
0000
0110
0000
0000
1001
0000
0000
0000
1000
0000
0000
0000
,  // measure 27
0100
0010
1000
0100
,  // measure 28
0001
0010
1000
0010
,  // measure 29
0002
1000
1000
0000
0203
0000
0001
0000
,  // measure 30
0001
0000
0301
0010
0200
0000
0010
0000
,  // measure 31
0010
0000
0310
1000
0002
0000
0010
0000
,  // measure 32
0010
0000
0013
0100
0002
0000
0100
0000
,  // measure 33
0100
0000
0103
0000
1001
0000
0000
0220
,  // measure 34
0000
0000
0000
0000
,  // measure 35
0330
1010
0000
0000
0011
0010
0100
0010
,  // measure 36
2001
3001
1000
0100
,  // measure 37
0020
0000
0130
0000
0010
0000
0100
1000
,  // measure 38
0002
1000
1003
0010
,  // measure 39
0100
0000
0010
1001
0000
0010
0100
0010
,  // measure 40
1002
1003
0001
0100
,  // measure 41
0020
0000
0130
0000
0010
0000
0100
0001
,  // measure 42
0020
1000
0100
0031
,  // measure 43
0101
0000
0000
1100
0000
0100
0001
0100
,  // measure 44
1100
0000
0000
0101
0000
0010
0100
0010
,  // measure 45
2001
0000
3001
0000
0001
0000
0100
0010
,  // measure 46
1000
0000
0100
0001
0100
1000
0001
1000
,  // measure 47
1002
0000
1003
0000
1000
0000
0100
0010
,  // measure 48
0002
0100
0103
0110
0000
0010
0100
0010
,  // measure 49
2001
0000
0100
0000
0010
0000
3100
0010
,  // measure 50
0001
0000
0100
1000
0100
0001
1000
0001
,  // measure 51
1002
0000
0100
0000
0013
0010
0100
0100
,  // measure 52
1100
0000
0000
2002
0000
0000
0000
0000
,  // measure 53
3003
0000
0000
0000
;

//---------------dance-single - C 8 X 12----------------
#NOTES:
     dance-single:
     C 8 X 12:
     Medium:
     8:
     0.476,0.570,0.248,0.212,0.365: // measure 1
0000
0000
0000
0000
,  // measure 2
0000
0000
0000
0000
,  // measure 3
0000
0000
0000
0000
,  // measure 4
0000
0000
0000
0000
,  // measure 5
0011
0110
0000
1100
0000
1002
0100
0000
,  // measure 6
0010
0000
0000
0000
1000
0000
0000
0000
0100
0000
0000
0000
0013
0000
0001
0100
,  // measure 7
0001
0000
0100
0000
0001
0000
0100
0000
0010
0000
0100
0000
1000
0000
0100
0010
,  // measure 8
1000
0000
0100
0000
1000
0000
0100
0000
0010
0000
0100
0000
0001
0000
0100
0010
,  // measure 9
0001
0000
0010
0000
0001
0000
0010
0000
0100
0000
0010
0000
1000
0000
0010
0001
,  // measure 10
1000
0010
1000
0010
0100
0010
0001
0010
,  // measure 11
1000
0100
0010
0012
0000
0000
1000
0000
,  // measure 12
0100
0010
0100
1000
,  // measure 13
0013
0000
0001
0000
0100
0000
0010
0000
1002
0000
0000
1003
0000
0001
1000
0000
,  // measure 14
1000
0100
0000
0010
0000
0001
1000
0000
1200
0000
0000
0000
1300
0100
0010
0002
,  // measure 15
0000
0103
0010
1000
2010
0000
0010
3001
,  // measure 16
0000
1000
0000
0001
0000
1000
0001
0000
0100
0000
1000
0100
1000
0100
0010
2000
,  // measure 17
0000
0000
3100
0000
0010
0000
0001
0000
1001
0000
0000
0001
0000
0100
0010
0100
,  // measure 18
0000
1000
0100
0010
0000
0100
0010
0000
1020
0000
0000
0000
1030
0100
0010
0002
,  // measure 19
0000
0000
0103
0000
0010
0000
1000
0000
1200
0000
0000
1300
0000
0000
0010
0100
,  // measure 20
0001
0010
0100
0100
1100
1000
0001
0101
,  // measure 21
0001
0010
0100
0100
1100
1000
0001
0011
,  // measure 22
0000
2002
0000
0003
3100
0000
1000
0100
,  // measure 23
1000
1000
0001
0200
0000
0020
0000
0030
,  // measure 24
0310
0000
0010
0000
0010
0100
0000
0000
0001
0000
0000
0000
0001
0000
0100
0000
,  // measure 25
0001
0000
0001
0000
1000
0000
0001
0000
0100
0000
0101
0000
0000
1001
0000
0000
,  // measure 26
1000
0000
1100
0000
0000
1001
0000
0000
0001
0000
0000
0000
0100
0000
1000
0000
,  // measure 27
0100
0010
0100
0001
0010
1000
0010
0001
,  // measure 28
0100
0000
0010
0000
1000
0000
0001
0000
0012
0000
0000
0003
0001
0000
0100
0000
,  // measure 29
1000
0001
1000
0100
0110
0010
1000
1000
,  // measure 30
0100
0000
0100
0000
0001
0000
0100
0010
0001
0000
0001
0000
0100
0000
0100
0000
,  // measure 31
1000
0000
1000
0000
0100
0000
0100
0010
1000
0000
1000
0000
0100
0000
0100
0000
,  // measure 32
0001
0100
0001
0000
0100
0010
0100
0000
1000
0100
1000
0000
0001
1000
0001
0000
,  // measure 33
0100
0000
0001
1000
0001
0010
0100
1000
0001
0000
1000
0000
0010
0000
2010
0000
,  // measure 34
0000
0001
0001
0000
0100
0000
0010
0000
,  // measure 35
3100
0100
1000
0001
0101
0100
0010
1000
,  // measure 36
1010
0000
0010
1000
0000
0100
0010
0000
0001
0000
0100
1000
0000
0100
0010
0000
,  // measure 37
1010
0000
0010
1000
0000
0100
0010
0000
0011
0000
0001
0000
0100
0000
0020
0000
,  // measure 38
1000
0000
0031
0010
1000
0100
0001
0100
,  // measure 39
0101
0000
0100
1001
1000
0010
0100
0001
,  // measure 40
0102
0000
0000
1000
0000
0000
0010
0000
0000
0100
0000
0000
1003
0000
1000
0000
,  // measure 41
1001
0000
0000
0001
0000
0100
0010
0000
1010
0000
1000
0000
0100
0000
0002
0000
,  // measure 42
0000
0000
0103
0000
0010
0000
0002
0000
0000
0000
0000
0000
0103
0001
0100
0001
,  // measure 43
1000
0000
0100
1000
0100
1000
0001
0000
0100
0001
1000
0001
0100
0010
1000
0001
,  // measure 44
1000
0100
1000
0001
0010
0001
1000
0001
0100
0001
0010
0100
1000
0000
0001
0000
,  // measure 45
2002
3003
0000
1000
0000
1000
0000
0001
0000
0001
0000
0010
0000
0010
0000
0010
,  // measure 46
0200
0000
0000
0000
1300
0100
0010
0002
0000
0000
0103
0000
0010
0000
1000
0000
,  // measure 47
0001
0010
0000
0010
0000
0100
0000
0100
0000
1000
0001
1000
0000
0001
0100
0001
,  // measure 48
0100
0010
0100
0010
1000
0100
1000
0100
0010
0001
0010
0001
0100
0010
1000
0001
,  // measure 49
2000
0000
0000
3001
0000
1000
0100
0010
0000
0001
0100
0010
0000
1000
0000
0001
,  // measure 50
0100
0000
0100
0000
1000
0100
0010
2000
0000
0000
3100
0000
1000
0000
0010
0000
,  // measure 51
0100
0000
0002
0000
0003
0000
0000
0000
0010
0000
0100
1000
0100
1000
0100
1000
,  // measure 52
0001
0100
0010
2020
0000
0000
0000
0000
,  // measure 53
3030
0000
0000
0000
;
