#TITLE:Amazing Mirage;
#SUBTITLE:;
#ARTIST:lapix;
#TITLETRANSLIT:;
#SUBTITLETRANSLIT:;
#ARTISTTRANSLIT:;
#GENRE:;
#CREDIT:;
#BANNER:Amazing Mirage.png;
#BACKGROUND:Amazing Mirage - bg.png;
#LYRICSPATH:;
#CDTITLE:;
#MUSIC:Amazing Mirage.ogg;
#OFFSET:0.020;
#SAMPLESTART:87.841;
#SAMPLELENGTH:12.500;
#SELECTABLE:YES;
#DISPLAYBPM:77.000:153.000;
#BPMS:0.000=76.500,14.000=114.750,14.563=38.250,14.750=76.500,16.000=153.000,47.000=229.500,47.750=76.500,48.000=153.000,79.000=229.500,79.750=76.500,80.000=153.000,140.000=260.000,140.500=195.000,141.000=150.000,141.500=95.000,142.000=221.000,143.000=153.000,204.000=76.500,206.000=153.000;
#STOPS:142.000=0.040
,142.333=0.040
,142.667=0.040
;
#BGCHANGES:;
#KEYSOUNDS:;

//---------------dance-single - Loodee & Rikame----------------
#NOTES:
     dance-single:
     Loodee & Rikame:
     Challenge:
     12:
     1.000,0.986,0.485,0.335,1.000:
00M0
0000
0000
0000
0000
0000
00M0
0000
0000
00M0
0000
M000
0M00
0000
000M
0000
00M0
0000
0000
0000
0000
0000
0M00
0000
0000
0M00
0000
000M
00M0
0000
M000
0000
,
0M00
0000
0000
0000
0000
0000
00M0
0000
0000
00M0
0000
00M0
000M
0000
0M00
M000
0000
0000
0000
0000
0000
0000
0M00
0000
0000
0M00
0000
0M00
000M
0000
00M0
0000
,
0001
0000
0000
0000
0000
0000
0100
0000
0000
0100
0000
0100
0010
0000
1000
0000
0100
0000
0000
0000
0000
0000
0010
0000
0000
0010
0000
0010
0100
0000
1000
0000
,
0001
0000
0000
0000
0000
0000
1000
0000
0000
1000
0000
1000
0001
0000
0100
0000
0020
0000
0000
0000
0000
0000
0130
0000
0000
0100
0001
1000
0001
0000
0010
0000
,
0001
0000
0000
0000
1000
0000
0000
0000
1100
0000
0000
0000
0100
0000
1000
0000
0001
0000
0100
000M
0100
0000
0000
0000
1100
0000
0000
0000
1000
0000
0000
0000
,
0100
0010
0001
0000
0011
0000
0010
0001
1000
0010
0100
0010
0002
0000
0023
0000
,
0130
0000
0000
0000
0010
0000
0000
0000
1001
0000
0000
0000
0000
0000
0001
0000
1000
0000
0100
M000
0100
0000
0000
0000
0101
0000
0000
0000
0001
0000
0000
0000
,
4000
0000
0000
0000
3001
0010
0001
0100
0001
0100
0020
0000
0230
0000
1300
0000
,
1100
0000
0000
0110
0000
0000
0101
0000
0000
0011
0000
0000
0110
0000
0000
1100
,
0000
0000
1010
0000
0000
0110
0000
0000
0100
0001
1000
0000
1100
0000
0110
0000
,
0001
0000
0000
0000
0000
0010
0000
0000
0001
0000
0000
0000
1000
0000
0000
0000
0010
0000
0000
0000
1000
0000
0000
0000
0001
0000
0000
0000
0010
0000
0000
0000
0100
0000
0000
0000
1000
0000
0000
0000
0010
0000
0000
0000
1000
0000
0000
0000
0100
0000
0000
0000
0010
0000
0000
0000
0001
0000
0000
0000
0100
0000
0000
0000
,
0010
1000
0010
0000
0010
0000
0100
0000
0001
0000
0000
0000
0020
0000
0000
0030
,
1002
0000
0000
0000
0103
0001
0010
0001
1000
0010
0000
0010
0100
0000
0001
0000
,
0010
0000
0001
0000
1000
0010
0100
0001
0100
0001
0000
0000
0020
0000
0230
0000
,
1300
0000
1010
0000
1001
0000
0001
0000
0010
0100
0001
0100
1000
0000
1010
0000
,
2000
0000
3001
0000
0020
0000
0030
0000
1100
0000
1100
0000
0100
1000
0001
0000
,
0201
0000
0310
0000
0100
0000
0001
1000
0010
1000
0100
0010
0002
0000
1003
0000
,
0020
0000
0130
0000
0001
0010
0100
0010
1000
0010
0100
0010
0002
0003
2000
3000
,
1010
0000
1010
0000
0002
0003
0002
0003
0011
0000
0011
0000
2000
0000
0000
0000
,
3001
0100
0000
0100
0001
0000
0010
0000
0210
0000
2300
0000
0002
0000
0000
3003
,
2100
0000
3002
0000
0103
0000
0010
1000
0000
1010
0000
1000
0001
0010
0100
0000
,
0210
0000
2300
0000
3001
0000
1000
0010
0000
0110
0000
0100
0001
0000
0101
0000
,
1200
0000
0320
0000
0031
0010
0100
1000
0000
1001
0000
0001
0100
0010
1000
0000
,
1010
0000
1000
0000
1001
0000
0001
0000
1000
0100
0010
0001
0200
0000
0301
0000
,
1001
0000
0000
0000
M010
0000
0000
0000
1001
0000
0000
0000
001M
0000
0000
0000
0001
0000
0010
0000
0100
0000
1000
0000
0010
M000
0010
0000
0001
0000
0000
0000
,
1001
0000
M100
0000
1001
0000
1000
0010
0000
0110
0000
1010
0000
1001
0000
0000
,
0012
0000
0000
0000
0000
0000
0000
0000
0000
0000
0000
0000
1003
0001
1000
0001
1000
0001
0100
0000
0010
0000
1000
0000
,
0001
0000
0000
0010
0000
0000
0001
0000
1000
0000
0001
0000
0100
0000
0000
0010
0000
0000
1000
0000
0000
0001
0000
0000
0020
0000
0000
0000
0000
0000
0000
0000
0000
0000
0000
0000
MM3M
0000
0000
0000
0000
0000
0000
0000
0000
0000
0000
0000
,
0201
0000
0000
0000
0000
0000
0000
0000
0310
0000
1000
0000
0000
0000
1000
0000
0001
0000
0010
0000
0100
0000
1000
0000
0010
000M
0010
0000
0001
0000
0000
0000
,
0100
0010
0000
0010
1000
0001
0010
0001
0100
0010
1000
0100
1000
0001
1000
0001
,
0200
0000
0000
0000
0000
0000
0000
0000
0310
0000
1000
0000
0000
0000
1000
0000
0001
0000
0010
0000
0001
0000
0100
00M0
0100
0000
1000
0000
0001
0000
0000
0000
,
1000
0010
1000
0001
0010
0001
0100
0001
1000
0100
1000
0001
0010
0001
0100
0010
,
1000
0000
1000
0000
0100
1000
0000
1000
0010
0000
0010
0000
0200
0300
0200
0300
,
0101
0010
1100
0001
1010
0100
0011
1000
,
0001
1000
0100
0010
0001
1000
0001
0100
0040
0000
4030
0000
3400
0000
0340
0000
,
0034
0000
0000
0000
0000
0000
1003
1000
1000
1000
0000
0000
,
1001
0000
0000
0000
0000
1000
0000
0000
1000
0000
0000
0010
0001
0000
0010
0000
,
0100
0000
0000
0000
0000
0000
0001
0000
0000
0001
0000
0001
1000
0010
0100
0000
,
0001
0000
0000
0000
0000
0000
1000
0000
0000
1000
0000
0100
0001
0000
0100
0000
,
0010
0000
0000
0000
0000
0000
0001
0000
0000
0001
1000
0010
0100
0000
0001
0000
,
0011
0000
0001
1000
0010
0000
1000
0000
0001
0100
000M
0100
1000
0000
1010
0000
,
0101
0000
0000
0100
0010
0000
1000
0000
0100
0010
0M00
0010
1000
0100
0010
0000
,
0001
0100
0010
1000
0001
0000
0010
0000
0001
0010
0100
1000
0010
0000
0100
0000
,
0100
0001
0000
0100
0001
1000
0001
0010
0100
1000
0010
1000
0001
0010
0100
0010
,
0001
0100
0001
1000
0010
0100
0001
0010
0001
0100
0001
1000
0100
0010
0001
0100
,
0010
1000
0010
1000
0001
0010
0001
0100
0010
0000
0010
1000
0000
1000
0100
1000
,
0001
0010
0001
1000
0001
0100
0010
1000
0001
0010
0001
1000
0100
0010
0001
1000
,
0010
0000
0010
0100
0000
0100
0001
0000
1000
0001
0010
0100
1000
0001
0100
0010
,
1000
0100
0001
0100
0010
0001
1000
0010
1000
0100
0001
0100
0010
0001
1000
0010
,
0100
1000
0100
0001
0010
0001
1000
0010
0100
1000
0100
0001
0010
0001
1000
0010
,
0100
1000
0001
0010
0100
0001
0010
0100
0001
1000
0010
0100
1000
0010
0100
0001
,
2000
0000
0000
0000
0000
0000
0000
0000
3001
0100
0001
1000
0100
1000
0001
0010
0M01
0000
1000
0000
0100
0000
1000
0000
0010
0000
0000
0000
0100
0000
0001
0000
,
0010
0001
1000
0010
1000
0100
0010
0001
0100
1000
0100
0010
1000
0100
1000
0001
,
0010
0100
0001
0100
1000
0010
0100
0001
1000
0000
1000
0000
1000
0000
0001
M010
,
0000
001M
1000
0000
0100
0000
0100
1000
0001
0000
0001
0000
0001
0000
1000
001M
,
0000
M010
0001
0000
1000
0000
0001
0000
0010
0001
0100
0001
1000
0000
0100
1000
,
0010
1000
0001
0100
0001
0010
0100
1000
0010
0001
0010
0100
0001
0010
0001
1000
,
0100
0010
1000
0010
0001
0100
0010
1000
0001
0000
0001
0000
0001
0000
1000
001M
,
0000
M010
0001
0000
1000
0000
0001
0100
0001
0000
0010
0000
0100
1000
0100
0000
,
1000
0010
1000
0001
0010
0001
0100
0001
1000
0100
0001
0100
0010
0000
0001
0100
,
0010
0100
0001
1000
0001
0010
0001
0100
1000
0100
0010
1000
0100
1000
0001
0100
,
0001
0010
0100
0001
0100
1000
0010
0100
0001
0000
0001
0000
0001
0000
0010
1M00
,
0000
10M0
0100
0000
0010
0000
0010
0001
1000
0000
1000
0000
1000
0000
0010
0M01
,
0000
00M1
0100
0000
0001
0000
0010
0000
0001
0100
1000
0100
0010
0000
1000
0100
,
0010
0100
1000
0001
1000
0010
1000
0100
0001
0100
0010
0001
0100
0001
1000
0100
,
1000
0010
0100
1000
0100
0001
0010
0001
1000
0000
1000
0000
1000
0000
0100
00M1
,
0000
0M01
0010
0000
0100
0000
0100
1000
0001
0000
0001
0000
0001
0000
0100
10M0
,
0000
1M00
0010
0000
1100
0000
0010
0000
0202
0000
0000
0000
0303
0000
0000
0000
;

//---------------dance-single - Loodee----------------
#NOTES:
     dance-single:
     Loodee:
     Hard:
     11:
     0.997,0.956,0.379,0.441,1.000:
0000
0000
0000
0000
,
0000
0000
0000
0000
,
0001
0000
0000
0000
0000
0000
1000
0000
0000
1000
0000
1000
0100
0000
0010
0000
0100
0000
0000
0000
0000
0000
0010
0000
0000
0010
0000
0010
0001
0000
1000
0000
,
0010
0000
0000
0000
0000
0000
0100
0000
0000
0100
0000
0100
0001
0000
1000
0000
0200
0000
0000
0000
0000
0000
M310
0000
0000
0010
0001
0010
0100
0000
1000
0000
,
M001
0000
0100
0000
0101
0000
0000
0001
1000
0100
0010
0000
0110
0000
0100
0000
,
1000
0001
1000
0000
1010
0000
0010
0100
0001
1000
0001
1000
0200
0000
0320
0000
,
0130
0000
1000
0000
1001
0000
0000
0001
0100
0010
0100
0000
0101
0000
0001
0000
,
4000
0000
0000
0000
3100
0010
0100
0010
0002
0000
2003
0000
3020
0000
0230
0300
,
0101
0000
0000
0110
0000
0000
1010
0000
0000
1001
0000
0000
1100
0000
0000
0110
,
0000
0000
0011
0000
0000
0101
0000
0000
0100
0001
1000
0000
1001
0000
1001
0000
,
0102
0000
0023
0032
,
1003
0010
0100
0000
0100
0000
0010
0000
1001
0000
0000
0000
0020
0000
0000
0030
,
2001
0000
0000
0000
3010
0100
0001
0100
0010
1000
0000
1000
0001
0000
1000
0000
,
0100
0000
0200
0000
0310
0001
1000
0001
1000
0010
0000
0000
0200
0000
0302
0000
,
0103
0000
0100
0000
1001
0000
0001
0000
1000
0100
0010
0001
0100
0000
2000
0000
,
3200
0000
0000
0000
0302
0000
0000
0000
1003
0000
1100
0000
0100
0010
0001
0000
,
0100
0000
0001
0000
1000
0000
0010
0100
0010
1000
0100
0010
0001
0000
0200
0000
,
0301
0000
1000
0000
0010
1000
0001
0100
0001
0010
0100
0010
0001
0000
1000
0000
,
1010
0000
0000
1010
0000
0000
0002
0000
0003
0002
0000
0003
0011
0000
0000
0011
0000
0000
0020
0000
0000
0000
0000
0000
,
0130
1000
0000
1000
0001
0000
0100
0000
0020
0000
0100
0000
2030
0000
0000
0000
,
3002
0000
0203
0000
0301
0000
0010
0100
0000
0010
0000
1000
0000
0010
0100
0000
,
2000
0000
0000
0000
3000
0000
2000
0000
0000
0000
0000
0000
3010
0000
0000
0000
0000
0000
0100
0000
0000
1000
0000
0000
0000
0000
0000
0100
0000
0000
0000
0000
0000
0001
0000
0000
0100
0000
0000
0000
0000
0000
0100
0000
0000
0000
0000
0000
,
0001
0010
0100
1000
0100
0010
0001
0100
0000
0010
0000
1000
0001
0000
0010
0000
,
0110
0000
0100
0000
1100
0000
1000
0000
0010
0100
0010
1000
0002
0000
0000
0003
,
0011
0000
1000
0000
0011
0000
1000
0000
0001
0100
0001
1000
0001
0000
1000
0000
,
1100
0000
0001
0000
1100
0000
1000
0001
0000
0101
0000
0101
0000
2002
0000
3003
,
1020
0000
0000
0000
0000
0000
0000
0000
0000
0130
0001
1000
,
0001
0010
0100
1000
0001
0010
0100
1000
0020
0000
0000
0030
1001
0000
0000
0000
,
0021
0000
0000
0000
0130
1000
0000
1000
0100
0010
0100
0010
0001
1000
0010
0000
,
0100
0010
0000
0100
0001
1000
0010
1000
0100
1000
0100
0010
0001
0010
0100
0000
,
2000
0000
0000
0000
3001
0100
0000
0100
0010
1000
0010
1000
0001
0010
0001
0000
,
1000
0010
0100
0001
1000
0100
0010
0100
1000
0001
0100
0001
0010
0100
1000
0100
,
0010
0001
0200
0300
1010
0010
0001
0001
,
0040
0130
0004
1003
0400
0310
0400
1300
,
0001
0100
0001
0100
0010
1000
0010
1000
0004
0000
0043
0000
0430
0000
4300
0000
,
3004
0000
0000
0000
0000
0000
1003
0001
1000
0010
0000
0000
,
0110
0000
0000
0000
0000
0000
0100
0000
0000
0001
0000
0100
1000
0000
0100
0000
,
0010
0000
0000
0000
0000
0000
0010
0000
0000
1000
0000
0001
1000
0100
0010
0000
,
0100
0000
0000
0000
0000
0000
0100
0000
0000
1000
0000
0100
0001
0000
0100
0000
,
0010
0000
0000
0000
0000
0000
0010
0000
0000
0001
0100
0001
2000
0000
3020
0000
,
1030
0000
0000
0100
1000
0000
0001
0000
1000
0001
0000
0001
0010
0000
0100
0000
,
0100
0000
0000
0010
0100
0000
0010
0000
0001
1000
0000
1000
0010
0000
0100
0000
,
0001
1000
0001
1000
0010
0000
1000
0000
0100
0010
0100
0010
0001
0000
0100
0000
,
0010
1000
0000
0010
0100
0001
1000
0100
0010
0100
0010
0001
0100
0010
0100
0001
,
1000
0100
0010
0100
1000
0100
0010
0001
0100
0001
1000
0010
1000
0100
0010
0001
,
0100
0000
0000
0000
0000
0000
0000
0000
0010
0000
1000
0001
0000
1000
0001
1000
,
0100
0010
0001
0100
0001
1000
0010
1000
0100
0010
0001
0010
0100
1000
0010
0100
,
0010
0000
1000
0001
0000
1000
0001
0000
0010
0100
1000
0100
0010
0100
1000
0100
,
0010
0001
0100
0001
1000
0100
0010
0001
0010
0001
0100
0001
1000
0100
0010
0001
,
1000
0010
1000
0100
1000
0010
0100
0001
1000
0010
1000
0100
1000
0010
0100
0001
,
1000
0000
0000
0100
0000
0000
0010
0000
0000
0001
0000
0000
1000
0000
0000
0100
0000
0000
0010
0000
0000
0001
0000
0000
1000
0000
0000
0010
0000
0000
0100
0000
0000
0001
0000
0000
1000
0000
0000
0000
0010
0000
0000
0000
0100
0000
0000
0000
,
M002
0000
0000
0000
0000
0000
0000
0000
1003
0100
0010
0100
1000
0001
1000
0001
M010
0000
0100
0000
0010
0000
0100
0000
1000
0000
0000
0000
0010
0000
0100
0000
,
0001
0100
0010
1000
0100
0000
0010
0001
1000
0010
1000
0100
1000
0010
0100
0001
,
0010
0100
1000
0100
0010
0001
0100
0001
1000
0000
1000
0000
2000
0000
3100
0010
,
0000
0010
0100
0000
0002
0000
0103
1000
0001
0000
0001
0000
0002
0000
0103
0010
,
0000
0010
0100
0000
2000
0000
3100
0000
0001
0100
0001
0100
0010
0000
1000
0100
,
0010
0100
1000
0010
0100
0001
1000
0100
0010
0001
0100
0001
1000
0100
0010
0100
,
0010
0001
1000
0010
1000
0100
0010
0100
0010
0000
0010
0000
0020
0000
0031
0100
,
0000
0100
0010
0000
0002
0000
0013
0100
0001
0000
2000
0000
3001
0010
0100
0000
,
0000
0001
0100
0010
0100
1000
0001
0100
0001
0010
0001
0010
0100
0000
1000
0010
,
0100
0001
1000
0100
1000
0100
0010
0001
0100
0010
1000
0001
0010
0001
0010
0100
,
1000
0010
1000
0001
0100
0001
0010
0100
1000
0000
1000
0000
1000
0000
0001
0100
,
0000
0100
1000
0000
1100
0000
0100
0010
1000
0000
1000
0000
1000
0000
0100
0010
,
0000
0010
1000
0000
2020
0000
3030
0000
0010
0100
1000
0001
1000
0000
0001
0100
,
0001
0010
0100
1000
0010
0100
0001
1000
0100
0010
0001
0010
0100
1000
0010
1000
,
0001
0100
0010
1000
0001
0010
0100
1000
0001
0000
0001
0000
0001
0000
1000
0010
,
0000
0010
0001
0000
0011
0000
0010
0100
0001
0000
0001
0000
0001
0000
1000
0100
,
0000
0100
1000
0000
1001
0000
0010
0000
2002
0000
0000
0000
3003
0000
0000
0000
;
