#VERSION:0.83;
#TITLE:Verzweiflung;
#SUBTITLE:;
#ARTIST:Laur;
#TITLETRANSLIT:;
#SUBTITLETRANSLIT:;
#ARTISTTRANSLIT:;
#GENRE:;
#ORIGIN:;
#CREDIT:;
#BANNER:verzweiflung_bn.png;
#BACKGROUND:verzwiflung_bg.png;
#PREVIEWVID:;
#JACKET:verzwiflung_jacket.png;
#CDIMAGE:;
#DISCIMAGE:;
#LYRICSPATH:;
#CDTITLE:cdtitle.png;
#MUSIC:verzwiflung.ogg;
#OFFSET:-0.092000;
#SAMPLESTART:13.333379;
#SAMPLELENGTH:15.724137;
#SELECTABLE:YES;
#BPMS:0.000=72.500,
36.000=175.000,
84.000=350.000,
220.000=175.000,
221.000=90.000,
237.000=180.000,
269.000=360.000;
#STOPS:220.000=2.400;
#DELAYS:;
#WARPS:;
#TIMESIGNATURES:0.000=4=4;
#TICKCOUNTS:0.000=4;
#COMBOS:0.000=1;
#SPEEDS:0.000=1.000=0.000=0;
#SCROLLS:0.000=1.000;
#FAKES:;
#LABELS:0.000=Song Start;
#BGCHANGES:;
#KEYSOUNDS:;
#ATTACKS:
;

//---------------dance-single - ----------------
#NOTEDATA:;
#CHARTNAME:;
#STEPSTYPE:dance-single;
#DESCRIPTION:;
#CHARTSTYLE:;
#DIFFICULTY:Hard;
#METER:10;
#RADARVALUES:0.725599,1.258875,0.187251,0.319888,0.109230,651.000000,627.000000,24.000000,41.000000,10.000000,0.000000,0.000000,0.000000,0.000000,0.725599,1.258875,0.187251,0.319888,0.109230,651.000000,627.000000,24.000000,41.000000,10.000000,0.000000,0.000000,0.000000,0.000000;
#CREDIT:;
#NOTES:
// measure 0
0000
0000
0000
0000
,  // measure 1
0000
0000
0000
0000
,  // measure 2
0000
0000
0000
0000
,  // measure 3
0000
0000
0000
0000
,  // measure 4
1001
1000
0010
1000
0002
0000
2003
0000
,  // measure 5
3200
0000
0000
0000
0320
0000
0000
0030
,  // measure 6
0110
0100
1000
0100
0020
0000
0032
0003
,  // measure 7
1001
0001
0100
0010
0200
0000
0320
0000
,  // measure 8
2030
0000
3002
0000
,  // measure 9
1003
0000
1000
0000
1000
0100
0001
0000
,  // measure 10
0001
0100
1000
0100
0001
0000
0100
0000
,  // measure 11
1000
0000
0010
0000
0001
0000
0000
0000
0001
0000
0010
0000
1000
0000
0010
0100
,  // measure 12
0010
0000
0100
0000
0100
0001
0010
0000
,  // measure 13
0010
0001
0100
0001
0010
0000
0100
0000
,  // measure 14
0100
0000
1000
0000
0010
0000
0000
0000
0010
0000
1000
0000
0100
0000
1000
0010
,  // measure 15
1000
0000
0010
0000
0100
1000
0100
0000
,  // measure 16
0001
0010
0100
0001
0100
0000
0100
1000
,  // measure 17
0100
0000
0000
0000
0010
0000
0000
0000
0001
0000
0100
0000
0010
0000
0001
0010
,  // measure 18
0100
0000
0010
1000
0100
0001
0100
0000
,  // measure 19
0100
0000
1000
0000
0001
0000
0010
0001
1000
0000
0000
0000
0010
0000
0100
0000
,  // measure 20
0010
0000
2002
0000
0000
0000
0000
3003
,  // measure 21
0010
0100
1000
0010
,  // measure 22
0100
0010
1000
0001
,  // measure 23
1000
0000
0100
0000
0010
0001
0010
0100
,  // measure 24
1000
0000
1000
0010
0100
0000
0010
0000
,  // measure 25
0100
0010
0100
0010
1000
0001
0010
0001
,  // measure 26
1000
0010
0100
0001
1000
0100
0010
0001
,  // measure 27
1000
0000
0100
0000
1000
0100
0010
0001
,  // measure 28
0100
0000
0110
0000
,  // measure 29
0001
0100
0010
1000
,  // measure 30
0100
1000
0010
0100
,  // measure 31
0001
0000
0010
0000
0001
0010
0100
0000
,  // measure 32
1000
0000
1000
0010
0100
0000
0010
0000
,  // measure 33
1000
0100
1000
0010
0100
0001
1000
0100
,  // measure 34
0010
0100
1000
0001
0100
0010
1000
0001
,  // measure 35
1000
0000
0100
0000
0010
0100
1000
0001
,  // measure 36
0100
0000
0110
0000
,  // measure 37
2000
3200
0320
0032
,  // measure 38
0203
0320
0230
0000
,  // measure 39
0310
0000
1000
0000
0100
0000
0001
0100
,  // measure 40
1000
0000
1000
0100
0001
0000
0100
0000
,  // measure 41
1000
0000
0010
0100
0001
0000
0001
0100
,  // measure 42
0010
0000
1000
0000
0010
0000
0001
0010
,  // measure 43
0100
0000
0100
0001
1000
0000
0100
0000
,  // measure 44
0010
0000
0100
1000
0001
0000
1000
0001
,  // measure 45
0100
0010
0100
0010
0100
0010
0100
0010
,  // measure 46
1000
0000
0100
0010
0100
0010
0100
0010
,  // measure 47
0100
0010
0100
1000
0001
0000
0100
0010
,  // measure 48
0100
0001
1000
0001
0010
0100
0010
0001
,  // measure 49
1000
0000
0010
0100
0010
1000
0001
1000
,  // measure 50
0100
0010
0001
1000
0100
0010
0001
0000
,  // measure 51
2000
0000
0000
0000
,  // measure 52
3001
0100
0001
0100
1000
0100
1000
0100
,  // measure 53
0010
0001
0010
0001
0010
1000
0010
1000
,  // measure 54
0002
0000
0000
0000
,  // measure 55
1003
0000
2002
0000
0000
0003
0200
0000
,  // measure 56
0000
3000
0320
0000
0032
0203
0020
0300
,  // measure 57
2030
0000
0020
3000
0230
0302
0023
0000
,  // measure 58
0230
0000
0000
0000
0000
0000
0000
0000
1300
0000
0000
0000
1000
0000
0000
0000
0001
0000
0000
0000
0001
0000
0000
0000
1000
0010
1000
0010
1000
0010
1000
0010
,  // measure 59
0100
0001
0100
0001
0100
0001
0100
0001
1000
0000
0000
0000
0000
0000
0000
0000
0100
0000
0000
0000
0000
0000
0000
0000
1000
0000
0000
0000
1100
0000
0000
0000
,  // measure 60
0000
0000
0100
0010
0001
0000
0000
0000
0001
0000
0100
0000
0101
0000
0001
0000
,  // measure 61
0100
0000
0020
0000
0130
0000
0010
0110
,  // measure 62
0000
0000
0100
0000
0101
0000
0000
0000
0001
0000
1000
0010
0100
0000
0100
0000
,  // measure 63
0010
0010
1000
0000
0001
0000
0100
0101
,  // measure 64
0000
0001
1001
0000
1000
0100
0110
0010
,  // measure 65
0001
0010
0100
1000
0010
0000
0100
0000
0010
0000
0100
0000
0001
0000
1000
0000
,  // measure 66
0001
0000
1000
0000
0001
0100
0010
1000
0001
0100
0010
1000
0100
0010
0001
1000
,  // measure 67
0100
0010
0001
1000
0100
0000
0000
0000
1000
0000
0000
0000
0010
0000
0000
0000
,  // measure 68
0001
0010
0100
0001
,  // measure 69
0010
0001
0010
0000
0100
0000
1000
0100
,  // measure 70
1000
0100
0010
0000
0001
0100
0010
0000
,  // measure 71
0100
0010
0100
0000
1000
0000
0100
0000
,  // measure 72
0010
1000
0100
1000
,  // measure 73
0010
1000
0010
0000
0100
0000
0001
0100
,  // measure 74
0010
0100
0002
0000
0000
0000
1003
0100
,  // measure 75
1000
0100
1000
0000
0100
0000
1000
0000
,  // measure 76
0010
0100
0010
0100
,  // measure 77
0001
0000
0101
0000
0100
0000
0010
1000
,  // measure 78
0100
1000
0010
0000
0100
0010
1000
0000
,  // measure 79
0001
0010
0100
0000
0000
0000
0100
0000
,  // measure 80
1000
0010
0100
1000
,  // measure 81
0100
0000
0001
0100
0010
1000
0010
0100
,  // measure 82
0001
0010
0100
1000
0100
0010
0001
1000
,  // measure 83
0001
1000
0002
0000
0000
0000
0100
0000
,  // measure 84
0100
0000
0103
0001
0100
0001
1000
0010
,  // measure 85
1000
0010
1000
0001
1000
0001
1000
0001
,  // measure 86
1000
0001
2000
0000
0000
3000
M000
0M00
,  // measure 87
00M0
000M
0001
0000
0100
0000
1000
0000
,  // measure 88
0100
0010
0100
0000
0001
0010
0100
0000
,  // measure 89
1000
0000
0100
0000
0001
0100
0010
0000
,  // measure 90
0001
1000
0010
0000
0001
0000
0010
0000
,  // measure 91
1000
0010
0100
0000
0001
0010
1000
0000
,  // measure 92
0010
0000
0001
0000
1000
0010
0001
0000
,  // measure 93
0001
0010
1000
0010
1000
0010
0100
0001
,  // measure 94
0100
0001
0010
0000
0001
0010
0001
0010
,  // measure 95
0100
1000
0100
1000
0100
0010
0001
0000
,  // measure 96
0100
0001
0100
0001
1000
0010
1000
0010
,  // measure 97
0100
0001
0010
0000
0001
0010
0100
1000
,  // measure 98
0010
0100
0010
1000
0001
0010
0M02
M0M0
,  // measure 99
0M00
M0M0
0103
0000
1000
0000
0100
0000
,  // measure 100
0010
0001
0010
0100
,  // measure 101
0001
0100
0001
0000
0101
0000
0000
0000
,  // measure 102
0000
1000
1100
0000
,  // measure 103
0000
0000
1000
0100
0010
0100
1000
0010
,  // measure 104
0100
0001
0100
0010
1000
0100
0010
0001
,  // measure 105
1000
0100
0010
0000
0110
0000
0000
0000
,  // measure 106
0000
1001
1001
0000
,  // measure 107
0000
0000
0001
0100
0001
0100
1000
0100
,  // measure 108
1000
0100
0010
0001
0010
0001
0010
1000
,  // measure 109
0010
1000
0100
0000
1100
0000
0000
0000
,  // measure 110
0000
0011
0011
0000
,  // measure 111
0000
0000
0001
0100
1000
0100
0001
0100
,  // measure 112
1000
0100
0010
1000
0100
0001
0100
1000
,  // measure 113
0100
0010
0002
0000
0000
0000
0000
0000
,  // measure 114
0000
2000
0000
0000
,  // measure 115
3003
1001
0000
0000
;
