#VERSION:0.83;
#TITLE:TT;
#SUBTITLE:;
#ARTIST:TWICE;
#TITLETRANSLIT:;
#SUBTITLETRANSLIT:;
#ARTISTTRANSLIT:;
#GENRE:;
#ORIGIN:;
#CREDIT:;
#BANNER:TT-bn.png;
#BACKGROUND:TT-bg.png;
#PREVIEWVID:;
#JACKET:;
#CDIMAGE:;
#DISCIMAGE:;
#LYRICSPATH:;
#CDTITLE:cd-title-Benpai.png;
#MUSIC:TT.ogg;
#OFFSET:0.009000;
#SAMPLESTART:74.760201;
#SAMPLELENGTH:14.760000;
#SELECTABLE:YES;
#DISPLAYBPM:65.000000:130.000000;
#BPMS:0.000=130.000,
195.000=65.000,
213.000=130.000;
#STOPS:;
#DELAYS:;
#WARPS:;
#TIMESIGNATURES:0.000=4=4;
#TICKCOUNTS:0.000=4;
#COMBOS:0.000=1;
#SPEEDS:0.000=1.000=0.000=0;
#SCROLLS:0.000=1.000;
#FAKES:;
#LABELS:0.000=Song Start;
#BGCHANGES:1.500=TT.avi=1.000=0=0=1===CrossFade_Faster==,
99999=-nosongbg-=1.000=0=0=0 // don't automatically add -songbackground-
;
#KEYSOUNDS:;
#ATTACKS:
;

//---------------dance-single - ----------------
#NOTEDATA:;
#CHARTNAME:;
#STEPSTYPE:dance-single;
#DESCRIPTION:;
#CHARTSTYLE:;
#DIFFICULTY:Hard;
#METER:8;
#RADARVALUES:0.355302,0.600387,0.137770,0.290042,0.152272,343.000000,324.000000,19.000000,40.000000,56.000000,0.000000,1.000000,0.000000,0.000000,0.355302,0.600387,0.137770,0.290042,0.152272,343.000000,324.000000,19.000000,40.000000,56.000000,0.000000,1.000000,0.000000,0.000000;
#CREDIT:Benpai;
#DISPLAYBPM:65.000000:130.000000;
#NOTES:
0000
0000
0000
0000
,
0000
0000
0000
0000
,
0000
0000
0000
0000
,
0000
0000
0000
0000
,
0000
0000
00M0
0M00
00M0
0000
M000
0000
000M
M000
0000
0000
0000
0000
0000
0000
,
0000
0000
0000
0000
,
0000
0000
0000
0000
,
0000
0000
0000
0000
0000
0000
0000
0000
0000
0000
0000
0000
00M0
0M00
00M0
0M00
,
00M0
0000
0000
0000
0000
0000
M000
0000
0M00
0000
00M0
0000
000M
0000
0000
M000
0000
0000
0000
0000
0000
000M
0000
0000
0000
0000
0000
0000
0000
0000
0000
0000
0000
0000
0000
0000
0001
0000
0000
0000
0000
0000
0000
0000
0000
0001
0000
0000
,
0000
0000
0001
0000
0000
0000
0000
0000
0000
0000
1000
0000
0100
0000
0000
0100
,
0000
0000
0100
0000
0000
0000
0000
0000
0000
0000
1000
0000
0010
0000
0000
0010
,
0000
0010
0000
0000
0000
0100
0001
1000
,
0100
0000
0100
0000
0020
0000
0000
0030
0011
0000
0M00
0000
1000
0000
0000
1000
,
0000
0000
1000
0000
0000
0000
0000
0000
0000
0000
0010
0000
0100
0000
0000
0100
,
0000
0000
0100
0000
0000
0000
0000
0000
0000
0000
0001
0000
0010
0000
0000
0010
,
0000
0010
0000
0000
0000
0100
1000
0010
,
0100
0001
2000
0000
3400
0000
0310
0001
,
1001
1000
0000
0000
0101
0000
0001
1000
,
1100
0100
0000
0000
0110
0000
0010
0001
,
1001
0000
1000
0000
0000
0000
0000
0000
1010
0000
0010
0000
0100
0000
0000
0100
,
0000
0200
0000
0000
0301
0010
0002
0000
,
1003
0010
0200
0000
0301
000M
1000
0100
,
0010
0001
0200
0000
0310
00M0
1000
0001
,
0100
0000
0001
0000
0020
0000
0000
0000
0130
0000
1000
0000
0001
0000
0000
0001
,
0000
0000
0001
0000
1000
0000
0100
0000
0010
0000
0001
0000
2000
0000
0000
00M0
,
0000
0M00
3M00
0M00
000M
0000
0M00
0000
,
0000
0000
0010
0000
0100
0000
0010
0000
1000
0000
0001
0000
0002
0000
0000
0M00
,
0000
00M0
00M3
00M0
M000
0000
00M0
0000
,
0000
0100
0010
0100
0001
0001
1000
0010
,
0100
0010
1000
0001
0010
0100
1000
0001
,
0100
0010
1000
0100
0010
0001
1000
0010
,
1000
0001
1000
0100
0010
0001
2000
0000
,
0000
0000
0000
0000
0000
0000
0000
3000
0101
0000
0000
0000
1001
0000
1000
0000
,
0100
0000
0010
0000
0100
0000
1000
0000
0002
0000
0000
0000
0103
0000
0000
0100
,
0000
0100
0000
0010
1010
0000
0001
0010
,
0100
0000
0010
0000
0002
0000
0000
0000
0103
0000
0010
0000
1000
0000
0000
1000
,
0000
0000
1000
0000
0000
0000
0001
0000
0101
0000
0000
0000
0010
0000
0000
0010
,
0000
0000
0010
0000
0000
0000
0001
0000
1001
0000
0000
0000
1000
0000
0000
1000
,
0000
1000
0000
0100
0110
0000
1000
0001
,
0100
0010
0200
0000
0301
1000
0000
1000
,
0100
0000
0010
0000
0002
0000
0000
0000
1003
0000
0010
0000
0100
0000
0000
0100
,
0000
0000
0M02
0000
0M00
0000
0M00
0000
1003
0000
0100
0000
0010
0000
0000
0010
,
0000
00M2
00M0
00M0
0103
0000
0010
1000
,
0010
0100
0001
0000
1000
0100
1000
0000
,
0010
0000
0100
0000
0001
0000
0000
0000
0010
0000
0100
0000
1000
0000
0000
1000
,
0000
0000
M200
0000
M000
0000
M000
0000
0310
0000
0100
0000
1000
0000
0000
1000
,
0000
M020
M000
M000
0130
0000
0001
0010
,
0100
0010
0001
1000
0020
0000
0230
0000
,
0000
0302
0000
0000
1003
0000
0200
0000
,
0000
0320
0000
0032
,
0000
0000
0000
0000
2003
0000
0000
0000
0000
0000
0000
0000
3020
0000
0130
0010
,
1000
0000
1000
0000
0001
0010
0001
1000
0010
0000
0010
0000
1000
0001
0010
0100
,
2000
0000
3010
0100
0010
1000
0100
0010
0002
0000
2003
0000
0000
0000
0000
0000
,
3000
0011
1001
0001
0010
0100
0010
0001
,
2000
0000
0000
0000
3010
0000
0000
0010
0000
0000
0010
0000
0000
0000
0100
0000
,
0101
0000
1000
0100
0010
0100
2000
0000
,
3010
0000
0100
0000
0001
0000
0000
0001
0000
0000
0001
0000
0000
0000
1000
0000
,
1010
0000
0000
0000
0100
0000
0000
0100
0000
0000
0100
0000
0000
0000
1000
0000
,
1001
0000
0000
0000
0001
0000
0000
0001
0000
0000
0001
0000
0000
0000
0010
0000
,
0110
0000
0001
1000
0010
0100
0020
0000
,
1030
0001
0000
0001
0010
0100
2000
0000
,
3001
0000
0100
0000
0010
0000
0000
0010
0000
0000
20M0
0000
00M0
0000
00M0
0000
,
3001
0000
0010
0000
0100
0000
0000
0100
0000
0000
2M00
0000
0M00
0000
0M00
0000
,
3010
0000
0100
0001
0100
0010
1000
0000
,
0001
0010
0001
0000
0100
0010
1000
0000
,
0100
0000
0010
0000
0001
0000
0000
0001
0000
0000
002M
0000
000M
0000
000M
0000
,
0130
0000
0010
0000
0001
0000
0000
0001
0000
0000
020M
0000
000M
0000
000M
0000
,
0310
0000
1000
0100
0010
0100
1000
0001
,
0200
0000
0320
0000
0000
2030
0000
0000
,
3000
0000
0000
0000
;

//---------------dance-single - ----------------
#NOTEDATA:;
#CHARTNAME:;
#STEPSTYPE:dance-single;
#DESCRIPTION:;
#CHARTSTYLE:;
#DIFFICULTY:Beginner;
#METER:1;
#RADARVALUES:0.067331,0.123721,0.007251,0.000000,0.000000,65.000000,64.000000,1.000000,0.000000,0.000000,0.000000,0.000000,0.000000,0.000000,0.067331,0.123721,0.007251,0.000000,0.000000,65.000000,64.000000,1.000000,0.000000,0.000000,0.000000,0.000000,0.000000,0.000000;
#CREDIT:Benpai;
#DISPLAYBPM:65.000000:130.000000;
#NOTES:
0000
0000
0000
0000
,
0000
0000
0000
0000
,
0000
0000
0000
0000
,
0000
0000
0000
0000
,
0000
0000
0000
0000
,
0000
0000
0000
0000
,
0000
0000
0000
0000
,
0000
0000
0000
0000
,
0000
0000
0000
1000
,
0000
0000
0000
0010
,
0000
0000
0000
0100
,
0000
0000
0000
0010
,
0000
0000
0000
1000
,
0000
0000
0000
0001
,
0000
0000
0000
0010
,
0000
0000
0000
0001
,
0000
0000
0000
0100
,
0000
0000
0000
0010
,
0000
0000
0000
1000
,
0000
0000
0000
0100
,
0000
0000
0000
0010
,
0000
0000
0000
0001
,
0000
0000
0000
1000
,
0000
0000
0000
0001
,
0000
0000
0000
0010
,
0000
0000
0000
0100
,
0000
0000
0000
0010
,
0000
0000
0000
0001
,
0000
0000
0000
1000
,
0000
0000
0000
0010
,
0000
0000
0000
0100
,
0000
0010
0000
0110
,
0000
0000
0000
0001
,
0000
0000
0000
0010
,
0000
0000
0000
0001
,
0000
0000
0000
1000
,
0000
0000
0000
0010
,
0000
0000
0000
0100
,
0000
0000
0000
0001
,
0000
0000
0000
1000
,
0000
0000
0000
0100
,
0000
0000
0000
0010
,
0000
0000
0000
0001
,
0000
0000
0000
1000
,
0000
0000
0000
0010
,
0000
0000
0000
1000
,
0000
0000
0000
0001
,
0000
0000
0000
0100
,
0000
0000
0000
0001
,
0000
0000
0000
1000
,
0000
0000
0000
0100
,
0000
1000
0000
0001
,
0000
0010
0000
0001
,
0000
1000
0000
0000
,
0000
0010
0000
0000
,
0000
0100
0000
0000
,
0000
0001
0000
0000
,
0000
1000
0000
0000
,
0000
0100
0000
0000
,
0000
0010
0000
0000
,
0000
0001
0000
0000
,
0000
1000
0000
0000
,
0000
0010
0000
0000
,
0000
0100
0000
0000
,
0000
0010
0000
0000
,
0000
1000
0000
0000
,
0000
0001
0000
0000
,
0000
0010
0000
0000
,
0000
0100
0000
0000
;

//---------------dance-single - ----------------
#NOTEDATA:;
#CHARTNAME:;
#STEPSTYPE:dance-single;
#DESCRIPTION:;
#CHARTSTYLE:;
#DIFFICULTY:Easy;
#METER:3;
#RADARVALUES:0.139842,0.250161,0.014502,0.101515,0.000000,135.000000,133.000000,2.000000,14.000000,0.000000,0.000000,0.000000,0.000000,0.000000,0.139842,0.250161,0.014502,0.101515,0.000000,135.000000,133.000000,2.000000,14.000000,0.000000,0.000000,0.000000,0.000000,0.000000;
#CREDIT:Benpai;
#DISPLAYBPM:65.000000:130.000000;
#NOTES:
0000
0000
0000
0000
,
0000
0000
0000
0000
,
0000
0000
0000
0000
,
0000
0000
0000
0000
,
0000
0000
0000
0000
,
0000
0000
0000
0000
,
0000
0000
0000
0000
,
0000
0000
0000
0000
,
0000
0000
0000
0001
,
0000
0010
0000
0001
,
0000
1000
0000
0100
,
0000
1000
0000
0010
,
0000
0100
0000
0001
,
0000
0010
0000
0001
,
0000
1000
0000
0010
,
0000
1000
0000
0100
,
0000
0010
0010
0001
,
0000
1000
0000
0100
,
0000
1000
0000
0010
,
0000
0100
0000
0002
,
0000
0000
0000
1003
,
0000
0100
0000
1000
,
0000
0001
0000
0010
,
0000
0001
0000
0100
,
0000
0010
0000
2000
,
0000
0000
0000
3200
,
0000
0000
0000
2300
,
0000
0000
0000
3020
,
0000
0000
0000
0130
,
0010
0100
0001
1000
,
0001
0010
0100
1000
,
0001
0100
0010
0110
,
0000
0000
1001
1000
,
0000
0100
0000
0010
,
0000
0001
0000
1000
,
0000
0010
0000
0100
,
0000
0001
0000
0010
,
0000
0001
0000
1000
,
0000
0100
0000
0010
,
0000
0100
0000
1000
,
1000
1000
0000
0002
,
1003
0000
0001
0020
,
0130
0000
0010
0001
,
0000
1000
0000
0010
,
0000
0100
0000
0002
,
1003
0000
0001
0200
,
0310
0000
0100
0001
,
0000
1000
0000
0200
,
0000
0000
0000
1300
,
0000
0010
0000
0100
,
0000
0010
0000
1000
,
0000
0100
0000
0010
,
0000
0001
0000
1000
,
0000
0001
0000
0100
,
0000
0010
0000
0100
,
0000
0001
0000
1000
,
0000
0100
0000
0010
,
0000
0100
0000
1000
,
0000
0010
0000
0100
,
0000
0001
0000
0010
,
0000
0001
0001
0001
,
0000
2000
3001
0000
,
1000
0020
0130
0000
,
0010
1000
0000
0001
,
0000
0010
0000
0001
,
0000
2000
3001
0000
,
1000
0200
0310
0000
,
0100
1000
0000
0001
,
0000
0100
0000
0001
,
0001
0000
0000
0000
;

//---------------dance-single - ----------------
#NOTEDATA:;
#CHARTNAME:;
#STEPSTYPE:dance-single;
#DESCRIPTION:;
#CHARTSTYLE:;
#DIFFICULTY:Medium;
#METER:6;
#RADARVALUES:0.271397,0.375242,0.137770,0.311795,0.003626,262.000000,243.000000,19.000000,43.000000,5.000000,0.000000,0.000000,0.000000,0.000000,0.271397,0.375242,0.137770,0.311795,0.003626,262.000000,243.000000,19.000000,43.000000,5.000000,0.000000,0.000000,0.000000,0.000000;
#CREDIT:Benpai;
#DISPLAYBPM:65.000000:130.000000;
#NOTES:
// measure 0
0000
0000
0000
0000
,  // measure 1
0000
0000
0000
0000
,  // measure 2
0000
0000
0000
0000
,  // measure 3
0000
0000
0000
0000
,  // measure 4
0000
0000
0000
0000
0000
0000
0000
0000
00M0
0M00
0000
0000
0000
0000
0000
0000
,  // measure 5
0000
0000
0000
0000
,  // measure 6
0000
0000
0000
0000
,  // measure 7
0000
0000
0000
0000
,  // measure 8
0000
0000
0000
0001
,  // measure 9
0010
0000
0001
1000
,  // measure 10
0100
0000
1000
0010
,  // measure 11
0100
0000
0010
2000
,  // measure 12
3100
0100
2000
0000
3001
0000
00M0
0000
,  // measure 13
0100
0000
0001
0010
,  // measure 14
0100
0000
0010
0001
,  // measure 15
1000
0000
0000
0000
0010
0100
0020
0000
,  // measure 16
1030
1000
0200
0000
0320
0000
0031
0000
,  // measure 17
1001
0000
1010
0001
,  // measure 18
0011
0000
1100
0001
,  // measure 19
0101
0000
1001
0100
,  // measure 20
0000
0200
0000
0000
0310
0000
0001
0000
,  // measure 21
0101
0000
0000
0000
1100
000M
0010
0000
,  // measure 22
1010
0000
0000
0000
0011
0M00
1000
0000
,  // measure 23
1100
0000
0101
1001
,  // measure 24
1100
0000
0120
0000
0000
0030
0002
0000
,  // measure 25
0000
0000
0003
2000
,  // measure 26
0000
3010
0010
0200
,  // measure 27
0000
0000
0000
0300
0000
0000
0002
0000
,  // measure 28
0000
1003
1000
0200
,  // measure 29
0310
0000
0001
1000
0002
0000
1003
0000
,  // measure 30
0010
0100
0020
0000
1030
0010
1000
0001
,  // measure 31
0010
0100
1000
0001
1000
0001
2000
0000
,  // measure 32
0000
0000
3001
1001
,  // measure 33
1000
0010
0200
0000
0302
0000
1003
0000
,  // measure 34
0100
1000
1010
0001
,  // measure 35
0010
0100
0020
0000
0031
0000
1000
0010
,  // measure 36
2000
3002
0013
0100
,  // measure 37
1000
0100
2000
0000
3001
0000
0100
0000
,  // measure 38
0010
1000
0020
0000
0130
0000
0001
0000
,  // measure 39
0010
0000
0200
0000
1300
0000
0001
1000
,  // measure 40
0001
1000
0020
0000
0130
0000
0001
0000
,  // measure 41
1000
0100
0000
0000
1000
0000
0010
0000
,  // measure 42
0100
0001
0000
0000
1000
0000
0100
1000
,  // measure 43
0200
0000
0310
0000
0100
1000
0100
0000
,  // measure 44
0010
0001
0010
0000
0001
0000
1000
0000
,  // measure 45
0010
0100
0000
0000
0010
0000
1000
0000
,  // measure 46
0100
0010
0000
0000
0100
0000
1000
0000
,  // measure 47
0010
0100
0002
0023
,  // measure 48
0000
0230
0000
0000
1300
0000
0010
0000
,  // measure 49
0100
0002
0000
1003
,  // measure 50
0100
0020
0000
0130
,  // measure 51
1000
1000
0001
0000
0010
0010
0100
0000
,  // measure 52
0010
0000
0001
0000
1000
0001
0000
0000
,  // measure 53
0000
0000
1001
0000
0001
0100
0020
0000
,  // measure 54
2030
3001
0010
0001
,  // measure 55
0101
0000
1000
0000
0100
0010
0200
0000
,  // measure 56
1300
0000
0001
0100
0002
0000
2003
0000
,  // measure 57
3100
0000
0010
0000
0001
0010
0002
0000
,  // measure 58
1003
0000
0010
0000
0100
0001
0200
0000
,  // measure 59
0310
1000
0100
0020
,  // measure 60
0031
0000
1000
0001
1000
0001
0200
0000
,  // measure 61
0310
0000
1000
0000
0001
0010
0000
0000
,  // measure 62
0001
0000
0100
0000
0010
1000
0000
0000
,  // measure 63
0001
0000
0010
0001
0020
0000
0130
0000
,  // measure 64
0010
0001
0010
0000
0100
1000
0100
0000
,  // measure 65
1000
0000
0001
0000
0100
0010
0000
0000
,  // measure 66
0100
0000
0001
0000
0010
0100
0000
0000
,  // measure 67
0010
0001
0100
0010
,  // measure 68
2000
0000
3200
0000
0000
0320
0000
0000
,  // measure 69
0030
0000
0000
0000
;

//---------------dance-single - ----------------
#NOTEDATA:;
#CHARTNAME:;
#STEPSTYPE:dance-single;
#DESCRIPTION:;
#CHARTSTYLE:;
#DIFFICULTY:Challenge;
#METER:10;
#RADARVALUES:0.508610,0.652776,0.079762,0.449565,0.445940,491.000000,480.000000,11.000000,62.000000,37.000000,0.000000,3.000000,0.000000,0.000000,0.508610,0.652776,0.079762,0.449565,0.445940,491.000000,480.000000,11.000000,62.000000,37.000000,0.000000,3.000000,0.000000,0.000000;
#CREDIT:Benpai;
#DISPLAYBPM:65.000000:130.000000;
#NOTES:
0000
0000
0000
0000
,
0000
0000
0000
0000
,
0000
0000
0000
0000
,
0000
0000
0000
0000
,
0000
0000
00M0
0M00
00M0
0000
M000
0000
000M
M000
0000
0000
0000
0000
0000
0000
,
0000
0000
0000
0000
,
0000
0000
0000
0000
,
0000
0000
0000
0000
0000
0000
0000
0000
0000
0000
0000
0000
0001
1000
0001
1000
,
0100
0000
0000
0000
0000
0000
0010
0000
0001
0000
0010
0000
0001
0000
0000
1000
0000
0000
0000
0000
0000
0010
0000
0000
0200
0000
0000
0000
0000
0000
0000
0000
0000
0000
0000
0000
0301
0000
0000
0000
0000
0000
0000
0000
0000
1000
0000
0000
,
0000
0000
1000
0000
0100
0010
0100
0010
0001
0000
1000
0010
0100
0000
0000
0001
,
0000
0000
0001
0000
0100
0001
0100
0001
1000
0000
0100
0000
0010
0000
0000
0001
,
0000
0000
0001
0000
1000
0010
0100
0010
1000
0000
0100
0000
0001
0000
0100
0000
,
1000
0000
0010
0000
0001
0000
0000
0000
0021
0000
M000
0000
0130
0000
0000
0001
,
0000
0000
0001
0000
1000
0000
0100
0010
0000
0200
0000
0300
1000
0000
0010
0100
,
0000
0001
0000
0001
0010
0000
0100
1000
0000
1000
0000
0020
0000
0000
2030
0000
,
0000
0000
0000
0000
0000
0000
3001
0100
0001
0000
1000
0000
0100
0000
0010
0000
,
0100
0000
1000
0000
0020
0000
0000
0000
0430
0000
0000
0300
0001
0000
1000
0100
,
0000
1000
0001
0000
0100
0000
0010
0000
1010
0000
1000
0000
0002
0000
0000
0000
,
0023
0000
0000
0000
0000
0000
0130
0000
1000
0000
0001
0000
0100
0000
0010
1000
,
0000
0000
0001
0000
0010
0000
0100
0000
1000
0000
0010
0000
0100
0000
0000
0100
,
0000
0200
0000
0000
0301
1000
0020
0000
,
0130
0010
1000
0100
0001
000M
0010
0001
,
0100
0010
1000
0100
0001
000M
1000
0100
,
1000
0000
0001
0000
0200
0000
0000
0000
0310
0000
1000
0000
0010
0100
0010
0100
,
0001
0000
0000
0000
0000
0000
1000
0000
0100
0000
1000
0000
0001
0000
0000
0100
0000
0000
0000
0000
0000
0010
0000
0000
0100
0000
0000
0000
0000
0000
0001
0000
0000
0000
0000
0000
0020
0000
0000
0000
0000
0000
0000
0000
0000
0130
0000
0000
,
0000
1000
1000
1000
0020
0000
0230
0000
,
0000
0000
0301
0000
1000
0000
1000
0000
0100
0000
0010
0000
0002
0000
0000
0103
,
0000
0010
0100
0100
0002
0000
0023
0000
,
0000
0130
0100
1000
0001
0001
1000
0010
,
1000
0000
0000
0000
0001
0000
0000
0000
0100
0000
0000
0000
0001
0100
0001
0100
0001
0000
0000
0000
1000
0000
0100
0000
0010
0000
0000
0000
0100
0000
0000
0000
,
1000
0000
0000
0000
0010
0000
0000
0000
0100
0000
0000
0000
0001
1000
0001
1000
0001
0000
0000
0000
1000
0000
0100
0000
0010
0000
0000
0000
0001
0000
0000
0000
,
1000
0000
0000
0010
0000
0000
0400
0004
0000
0000
0000
0000
0000
0000
0000
0000
0000
0300
2003
0000
0000
0000
0000
0000
,
0000
0000
0000
0000
0000
0000
3001
0000
0011
0000
0000
0010
0100
0000
1000
0000
,
0010
0000
0100
0000
0010
0000
1000
0000
0001
0100
0000
0010
1000
0000
0001
0000
,
M010
0000
0100
0000
0010
0000
0001
0000
1000
0010
0000
0100
0001
0000
1000
0000
,
0001
0000
0100
0000
0002
0000
0000
0000
0013
0100
0000
0020
0000
0000
0032
0000
,
2003
0000
3020
0000
0230
0000
0301
0000
0010
0000
0100
1000
0002
0000
0000
0000
,
0000
0000
0103
0010
0100
0000
0001
0000
0012
0000
0000
0000
2003
0000
0000
0000
,
0000
0000
3001
1000
0001
0000
0100
0000
0120
0000
0000
0000
1030
0000
0001
0000
,
0010
0000
0100
0000
0020
0000
0000
0000
0031
0000
1000
0000
0010
1000
0010
1000
,
0001
0000
0000
0000
0000
0000
0010
0000
0100
0000
1000
0000
0001
0000
0000
0100
0000
0000
0000
0000
0000
0010
0000
0000
1000
0000
0000
0000
0000
0000
0001
0000
0000
0000
0000
0000
0010
0000
0000
0000
0000
0000
0000
0000
0000
0010
0000
0000
,
0000
0000
02M0
0000
00M0
0000
00M0
0000
1300
0000
0010
0000
0100
0000
0000
0100
,
0000
0000
0M20
0000
0M00
0000
0M00
0000
1030
0000
0100
0010
0001
0000
1000
0000
,
0010
1000
0100
0000
0010
0100
0110
0000
,
1000
0000
0001
0000
1001
0000
0000
0000
1000
0000
0100
0000
0010
0000
0000
0010
,
0000
0000
00M2
0000
00M0
0000
00M0
0000
1003
0000
0010
0000
0100
0000
0000
0100
,
0000
0M20
0M00
0M00
1030
0000
0100
0010
,
0100
0000
0010
0000
0001
0000
1000
0000
0020
0000
0000
0000
0130
0001
1000
0001
,
1000
0000
0000
0000
0100
0000
1000
0000
0010
0000
0100
0000
0001
0000
1000
0000
0200
0000
0000
0000
0000
0000
0000
0000
13MM
0000
0000
0100
0000
0000
1000
0000
,
0010
0000
0100
0000
0010
0000
1000
0000
0002
0000
0000
0000
0023
0000
0000
0000
0000
0000
0130
0000
0010
0000
0001
0000
1000
0000
0000
1000
0000
0000
0010
0000
,
0001
0000
0010
0000
0100
0000
0001
0000
2000
3000
0002
0000
2003
0000
0000
0000
0000
0000
0000
0000
3001
0000
0100
0000
2000
0000
0000
0000
3100
0000
0010
0000
,
2000
3000
1000
0000
0100
0010
0100
1000
0020
0030
0010
0000
0001
0010
0100
0001
,
2000
0000
3100
0010
0001
1000
0010
0100
0001
0000
0002
0000
0000
0000
0000
0000
,
0000
0000
1003
0000
0100
0010
0000
0100
0010
0000
0000
0000
0001
0000
0000
0000
0100
0000
0000
0000
0010
0000
0000
0000
0100
0000
0000
0000
0001
0000
0000
0000
,
1000
0100
0000
0010
0001
0000
1000
0000
010M
0000
0010
0000
0100
0000
1000
0000
,
0001
0100
0000
0010
1000
0000
0001
0000
1000
0000
0010
0000
2000
0000
0000
0000
,
3100
0010
0000
0200
0000
0000
2300
0000
3002
0000
0203
0000
0302
0000
1003
0000
,
0100
0000
0010
0001
2000
0000
0000
0000
0000
0000
3010
0100
0010
0000
1000
0000
,
1200
0000
0000
0000
0320
0000
0000
0000
0000
0000
0031
1000
0001
0000
0100
0000
,
0210
0000
0301
1000
0100
0010
0200
0000
,
1300
0000
0000
0000
0000
0000
0001
0000
0000
0000
0000
0000
0100
0000
0000
0001
0000
0000
0100
0000
0000
0001
0000
0000
1000
0000
0000
0000
0000
0000
0100
0000
0010
0000
0001
0000
1000
0000
0000
0010
0000
0000
0000
0000
0000
0100
0000
0000
,
0001
0000
1000
0000
0100
0000
0000
0100
0000
0000
0M20
0000
0M00
0000
0M00
0000
,
0031
0000
0100
0000
0010
0000
0000
0010
0000
0000
02M0
0000
00M0
0000
00M0
0000
,
0301
0000
0010
0100
1000
0000
0001
0000
0100
0000
0001
0000
1000
0000
0000
0000
,
0100
0010
0110
0000
0001
1000
1001
0000
,
0001
0000
0010
0000
0100
0000
0000
0100
0000
0000
2M00
0000
0M00
0000
0M00
0000
,
3001
0000
0100
0000
0010
0000
0000
0010
0000
0000
02M0
0000
00M0
0000
00M0
0000
,
0301
0000
0010
0100
0010
0100
1000
0001
,
0200
0000
0000
0000
0310
1000
0001
1000
0100
0000
0010
0001
0100
0010
1000
0001
,
2000
3000
0000
0000
;
