#TITLE:Panopticon;
#SUBTITLE:;
#ARTIST:cybermiso;
#TITLETRANSLIT:;
#SUBTITLETRANSLIT:;
#ARTISTTRANSLIT:;
#GENRE:Moombahcore;
#CREDIT:;
#BANNER:[VIP Room Round 3] - Panopticon.png;
#BACKGROUND:[VIP Room Round 3] - Panopticon-bg.png;
#LYRICSPATH:;
#CDTITLE:;
#MUSIC:[VIP Room Round 3] - Panopticon.ogg;
#OFFSET:-3.280000;
#SAMPLESTART:88.370903;
#SAMPLELENGTH:15.000000;
#SELECTABLE:YES;
#DISPLAYBPM:55.000000:220.000000;
#BPMS:0.000000=110.000000
,40.250000=220.000000
,40.750000=110.000000
,41.000000=220.000000
,41.500000=110.000000
,41.750000=220.000000
,42.250000=110.000000
,42.500000=220.000000
,44.000000=110.000000
,76.000000=440.000000
,78.000000=220.000000
,79.000000=110.000000
,80.000000=55.000000
,81.000000=110.000000
,109.000000=55.000000
,115.000000=110.000000
,135.000000=220.000000
,135.500000=110.000000
,135.750000=220.000000
,136.250000=110.000000
,136.500000=220.000000
,137.000000=110.000000
,137.250000=220.000000
,137.750000=110.000000
,138.000000=220.000000
,139.500000=110.000000
,139.750000=220.000000
,140.250000=110.000000
,140.500000=220.000000
,141.000000=110.000000
,141.250000=220.000000
,141.750000=110.000000
,142.000000=220.000000
,143.500000=110.000000
,143.750000=220.000000
,144.250000=110.000000
,144.500000=220.000000
,145.500000=110.000000
,145.750000=220.000000
,146.250000=110.000000
,146.500000=220.000000
,147.000000=110.000000
,151.000000=440.000000
,157.000000=220.000000
,206.000000=110.000000
,210.000000=220.000000
,218.000000=55.000000
,219.000000=220.000000
,283.000000=110.000000
,289.000000=55.000000
;
#STOPS:40.250000=0.136000,
41.000000=0.136000,
41.750000=0.136000,
42.500000=0.136000,
43.000000=0.273000,
135.000000=0.136000,
135.750000=0.136000,
136.500000=0.136000,
137.250000=0.136000,
138.000000=0.136000,
138.500000=0.136000,
139.000000=0.136000,
139.750000=0.136000,
140.500000=0.136000,
141.250000=0.136000,
142.000000=0.136000,
142.500000=0.136000,
143.000000=0.136000,
143.750000=0.136000,
144.500000=0.136000,
145.000000=0.136000,
145.750000=0.136000,
146.500000=0.136000,
283.000000=0.545000
;
#BGCHANGES:-4.000=[VIP Room Round 3] - Panopticon.avi=1.000=0=0=0=StretchNoLoop==CrossFade_Fastest==,
99999=-nosongbg-=1.000=0=0=0 // don't automatically add -songbackground-
;
#KEYSOUNDS:;
#ATTACKS:;

//---------------dance-single - ----------------
#NOTES:
     dance-single:
     :
     Challenge:
     12:
     0.916762,1.095231,0.706358,0.976878,1.108381,854.000000,760.000000,94.000000,130.000000,0.000000,0.000000,0.916762,1.095231,0.706358,0.976878,1.108381,854.000000,760.000000,94.000000,130.000000,0.000000,0.000000:
// measure 0
0000
0000
0000
0000
,  // measure 1
0000
0000
0000
0000
,  // measure 2
0000
0000
0000
0000
,  // measure 3
0000
0000
0000
0000
,  // measure 4
1100
0000
0011
0001
0100
1000
0100
0202
0303
2020
3030
2002
3003
0001
0010
0000
,  // measure 5
0101
0000
1010
1000
0100
0001
0100
1000
0010
2020
3030
0202
0303
0001
0001
1000
,  // measure 6
2000
0000
0010
0010
3020
0000
0001
0001
0032
0000
0100
0100
0203
0000
1000
1000
,  // measure 7
1300
0010
0100
0001
0100
0010
1000
0100
0010
0012
0000
2003
0000
3010
0200
0000
,  // measure 8
0310
2010
0000
3002
0000
0013
0100
0010
0001
2001
0000
3020
0000
0031
0010
1000
,  // measure 9
0001
0001
0100
0100
0010
0010
1000
1000
0001
0100
1000
0001
0010
1000
0001
0010
,  // measure 10
0001
0011
0000
0100
1100
0000
1000
1010
0000
0100
0101
0000
2002
0000
3003
0000
,  // measure 11
1000
0010
0001
0010
1000
0001
0100
1000
0100
0001
0010
0100
1000
0001
0100
0010
,  // measure 12
1000
0000
0100
0000
0001
0000
0100
0000
1000
0000
0001
0000
0010
0000
1000
0000
0010
0000
0001
0000
0100
0000
0010
0000
1000
0000
0100
0010
0100
0000
1000
0000
,  // measure 13
0020
0000
1030
0001
0011
0000
1000
0100
0020
0000
0031
1000
1010
0000
0010
0100
,  // measure 14
0001
0000
0000
0000
0000
0000
0000
0000
0000
0000
0000
0000
0010
0000
0000
0000
0000
0000
0000
0000
0000
0000
0000
0000
1000
0000
0000
0000
0000
0000
0000
0000
0000
0000
0000
0000
0001
0000
0000
0000
0000
0000
0000
0000
0000
0000
0000
0000
0100
0000
0000
0000
0000
0000
0000
0000
0000
0000
0000
0000
1000
0000
0000
0000
0000
0000
0000
0000
0000
0000
0000
0000
0001
0000
0000
0000
0000
0000
0000
0000
0000
0000
0000
0000
0010
0000
0000
0000
0000
0000
0000
0000
0000
0000
0000
0000
0100
0000
0000
0000
0000
0000
0000
0000
0000
0000
0000
0000
1000
0000
0000
0000
0000
0000
0000
0000
0000
0000
0000
0000
0001
0000
0000
0000
0000
0000
0000
0000
0000
0000
0000
0000
0200
0000
0000
0000
0000
0000
0000
0000
0000
0000
0000
0000
0000
0000
0000
0000
0000
0000
0000
0000
0000
0000
0000
0000
0010
0000
0000
0000
0300
0000
0100
0000
0000
0000
0000
0000
0001
0000
0000
0000
0000
0000
0000
0000
0000
0000
0000
0000
0000
0000
0000
0000
0000
0000
0000
0000
0000
0000
0000
0000
,  // measure 15
1001
0000
0000
0000
0000
0000
1000
0000
0100
0000
0010
0000
0200
0000
0000
0000
0000
0000
0310
0000
0001
0000
0100
0000
0001
0000
0000
1000
0000
0000
0100
0000
0000
0001
0000
0000
0202
0000
0000
0303
0000
0000
2200
0000
0000
3300
0000
0000
,  // measure 16
2000
0000
0000
0010
0000
0000
0010
0000
0000
3002
0000
0000
0010
0000
0000
0010
0000
0000
1003
0000
0000
0100
0000
0000
0001
0000
0000
0100
0000
0000
1000
0000
0010
0000
1000
0000
0010
0000
0000
0100
0000
0000
0001
0000
0000
1000
0000
0000
,  // measure 17
1001
0000
0000
0000
0000
0000
0001
0000
0100
0000
0010
0000
0200
0000
0000
0000
0000
0000
0310
0000
1000
0000
0100
0000
1000
0000
0000
0001
0000
0000
0100
0000
0000
0010
0000
0000
1000
0000
0000
0100
0000
0000
0010
0000
0000
0001
0000
0000
,  // measure 18
1000
0000
0000
0010
0000
0000
0001
0000
0000
1000
0000
0000
0100
0000
0000
0001
0000
0000
0010
0000
0000
0100
0000
0000
1000
0000
0010
0000
1000
0000
0001
0000
0010
0000
0001
0000
1000
0000
0100
0000
1000
0000
0010
0000
0000
0100
0000
0000
,  // measure 19
2002
0000
0000
0000
,  // measure 20
3003
0000
0000
0000
0001
0010
0100
0000
1000
0000
1000
0000
0001
0000
0001
0000
0200
0000
0000
0000
0310
0000
1000
0000
2200
0000
3300
0000
0022
0000
0033
0000
,  // measure 21
2002
0000
0000
3003
0000
0000
1000
0000
0010
0000
1000
0000
0002
0000
0000
0000
0000
0000
0103
0000
0010
0000
1000
0000
0200
0000
0000
0000
0000
0000
0310
0000
0001
0000
0100
0000
0020
0000
0000
0000
0000
0000
2030
0000
0000
0000
0000
0000
,  // measure 22
3002
0000
0023
0000
0130
1000
0001
1000
0010
0100
0001
0010
0002
0100
0100
0103
,  // measure 23
0010
0000
1000
0000
0010
0000
1000
0000
0000
0001
0000
0000
2100
0000
0000
0000
0000
0000
3002
0000
0000
0000
0000
0000
0013
0000
0000
0100
0000
0000
1000
0000
0000
1002
0000
0000
0000
0000
0000
0103
0000
0000
0010
0000
0000
1000
0000
0000
,  // measure 24
0001
0000
0010
0000
0001
0000
0100
0000
0000
0010
0000
0000
2000
0000
0000
0000
0100
0000
0000
0000
0100
0000
0000
0000
3200
0000
0000
0000
0010
0000
0000
0000
0310
0000
0000
0000
1001
0000
0000
0000
0000
0000
0001
0000
0100
0000
0010
0000
,  // measure 25
1000
0000
0100
0000
0010
0000
0101
0000
1000
0010
0100
0002
0000
1003
0010
0100
,  // measure 26
0102
0000
2003
0000
3010
0001
1000
0100
0001
0010
1000
0001
0100
1000
0010
0100
,  // measure 27
0001
0000
1000
0000
0100
0000
0010
0000
0011
0000
1100
0000
0001
0010
0100
2000
0000
0000
0000
0000
3001
0000
0000
0000
0201
0000
0000
0000
0310
0000
1000
0000
,  // measure 28
0001
0010
0001
0010
0100
0010
0100
0000
1010
0000
0101
0000
1000
0010
0100
0002
0000
0000
0000
0000
2003
0000
0000
0000
3002
0000
0000
0000
0103
0000
0010
0000
,  // measure 29
1000
0001
0000
2020
3030
2002
3003
0202
0303
0010
1000
0001
0200
0010
0000
0320
,  // measure 30
1000
0000
2030
0001
0000
3002
0010
0000
0023
0000
0230
0000
2300
0010
0000
3020
,  // measure 31
0001
0000
0032
1000
0000
2003
0100
0000
3100
0001
1000
0100
0020
0001
0000
0032
,  // measure 32
1000
0000
2003
0010
0000
3020
0100
0000
0130
0001
1000
0100
0020
0100
0000
0230
,  // measure 33
1000
0000
2300
0010
0000
3020
0100
0000
0130
0001
1000
0010
1010
0000
1000
1100
,  // measure 34
0000
0100
0101
0000
0001
0011
0000
0010
1010
0000
1001
0000
0011
0000
0001
0101
,  // measure 35
0000
0100
1100
0000
1000
1010
0000
0010
0011
0000
1001
0000
1100
0000
0100
0110
,  // measure 36
0000
0010
0011
0000
0101
0000
0100
0110
0000
0010
1010
0000
1000
0100
0001
0100
,  // measure 37
1000
0000
0000
0000
0000
0000
0000
0000
0000
0000
0000
0000
0001
0000
0000
0000
0000
0000
0000
0000
0000
0000
0000
0000
0010
0000
0000
0000
0000
0000
0000
0000
0000
0000
0000
0000
1000
0000
0000
0000
0000
0000
0000
0000
0000
0000
0000
0000
0010
0000
0000
0000
0000
0000
0000
0000
0000
0000
0000
0000
0001
0000
0000
0000
0000
0000
0000
0000
0000
0000
0000
0000
1000
0000
0000
0000
0000
0000
0000
0000
0000
0000
0000
0000
0010
0000
0000
0000
0000
0000
0000
0000
0000
0000
0000
0000
0100
0000
0000
0000
0000
0000
0000
0000
0001
0000
0000
0000
0000
0000
0000
0000
0100
0000
0000
0000
0000
0000
0000
0000
0001
0000
0000
0000
0000
0000
1000
0000
0000
0000
0000
0000
0001
0000
0000
0000
0000
0000
2000
0000
0000
0000
0000
0000
0002
0000
0000
0000
0000
0000
0000
0000
0000
0000
0000
0000
0000
0000
0000
0000
0000
0000
0000
0000
0000
0000
0000
0000
0000
0000
0000
0000
0000
0000
0000
0000
0000
0000
0000
0000
0000
0000
0000
0000
0000
0000
0000
0000
0000
0000
0000
0000
,  // measure 38
0000
0000
0000
0000
,  // measure 39
0000
0000
0000
0000
3003
0000
0000
0000
1000
0000
0001
0010
0001
0000
1000
0010
,  // measure 40
1000
0001
0100
0220
0330
2020
3030
2002
,  // measure 41
3003
0000
0001
0010
0001
0000
1000
0000
0001
0000
1000
0010
1000
0000
0001
0010
,  // measure 42
0001
0000
1000
0100
1000
0000
0100
0000
0010
0000
0220
0000
0330
0000
2002
0000
,  // measure 43
3003
0000
1000
0010
1000
0000
0001
0000
1000
0100
1000
0000
0001
0100
0001
0000
,  // measure 44
1000
0010
1000
0000
0001
0010
0001
0000
1000
0010
1000
0000
0010
0100
0010
0000
,  // measure 45
0100
0001
0100
0000
0001
1000
0001
0000
1000
0000
0010
0100
0010
0000
1000
0000
,  // measure 46
0001
0000
0010
0100
0010
0000
0001
0000
1000
0000
0001
0000
0010
0000
0100
0000
,  // measure 47
1000
0000
0100
0010
0100
0000
1000
0000
0001
0000
1000
0010
1000
0000
0001
0010
,  // measure 48
0001
1000
0100
0220
0330
0022
0033
2002
,  // measure 49
3003
0000
1000
0010
1000
0000
0001
0000
1000
0000
0001
0010
0001
0000
1000
0010
,  // measure 50
1000
0000
0001
0100
0001
0000
0010
0000
0100
0000
0220
0000
0330
0000
2002
0000
,  // measure 51
3003
0000
0001
0010
0001
0000
1000
0000
0020
1000
0000
1000
1030
0100
0010
0001
,  // measure 52
1000
0001
0000
0000
0010
0100
0000
0000
1000
0010
0000
0000
0100
0001
0000
0000
1000
0000
0000
0000
0001
0000
0010
0000
0001
0000
0000
0000
1000
0000
0000
0000
,  // measure 53
0001
0000
1000
0100
1000
0000
0010
0000
0100
0000
0202
0000
0303
0000
2020
0000
,  // measure 54
3030
0110
0202
0303
2002
3003
0011
0010
,  // measure 55
0100
1100
1000
0001
0011
0010
0100
1100
,  // measure 56
1000
0000
0001
0000
0011
0000
0001
1000
0001
0000
1000
0000
1010
0000
0010
0000
,  // measure 57
0100
0101
0001
1000
1010
0010
0100
0101
,  // measure 58
0001
0000
1000
0000
1010
0000
1000
0001
1000
0000
0001
0000
0101
0000
0100
0000
,  // measure 59
0010
1010
1000
0001
0101
0100
0010
1010
,  // measure 60
1000
0000
0001
0000
0101
0000
0001
1000
0001
0000
1000
0000
1100
0000
0100
0000
,  // measure 61
0010
0011
0001
1000
1100
0100
0010
0011
,  // measure 62
0001
0000
1000
0000
1100
0000
1000
0001
1000
0000
0001
0000
1000
0100
1000
0000
,  // measure 63
0010
0000
0100
0001
0100
0000
0010
0000
1000
0100
1000
0000
0010
0000
0100
0001
,  // measure 64
0100
0000
0001
0000
1000
0010
1000
0010
0100
0010
0100
0000
0001
0100
0001
0000
,  // measure 65
0010
0000
0100
1000
0100
0000
0010
0000
0001
0100
0001
0000
0010
0000
0100
1000
,  // measure 66
0100
0000
1000
0000
0001
0010
0001
0010
0100
0010
0100
0000
1000
0100
1000
0000
,  // measure 67
0001
0000
1000
0010
1000
0000
0100
0000
0010
0001
0010
0000
0001
0100
0001
0000
,  // measure 68
1000
0000
0001
0010
0001
0000
0100
0000
0010
1000
0010
0000
1000
0100
1000
0000
,  // measure 69
0001
0100
0001
0000
1000
0010
1000
0000
0001
0010
0001
0000
1000
0100
1000
0100
,  // measure 70
0010
0001
0010
0001
1000
0010
1000
0010
0100
0001
0100
0002
2000
0000
3003
0000
,  // measure 71
0002
0000
0023
0000
0230
1000
0000
2300
0000
3002
0000
0203
0000
0310
2000
0002
,  // measure 72
0000
3003
2002
0000
0000
0000
0000
3003
;

//---------------dance-single - ----------------
#NOTES:
     dance-single:
     :
     Hard:
     11:
     0.748224,0.958327,0.608670,0.841618,0.721387,697.000000,616.000000,81.000000,112.000000,0.000000,0.000000,0.748224,0.958327,0.608670,0.841618,0.721387,697.000000,616.000000,81.000000,112.000000,0.000000,0.000000:
// measure 0
0000
0000
0000
0000
,  // measure 1
0000
0000
0000
0000
,  // measure 2
0000
0000
0000
0000
,  // measure 3
0000
0000
0000
0000
,  // measure 4
1010
0000
0110
0000
0100
0001
1000
0100
0000
0110
0000
0012
0000
0000
1003
0000
,  // measure 5
0011
0000
0110
0000
0100
1000
0001
0100
0010
1000
0000
1002
0000
0103
0001
1000
,  // measure 6
0020
1000
2030
0100
3200
0010
0320
0001
,  // measure 7
0031
0100
0010
1000
0010
0100
0002
0000
0013
0200
0000
2300
0000
3010
0100
0000
,  // measure 8
0100
0002
0000
0023
0000
0130
1000
0100
1000
0200
0000
0320
0000
0031
0010
0001
,  // measure 9
1000
0010
1000
0010
0100
0001
0100
0001
1000
0100
1000
0100
0010
0001
0010
0001
,  // measure 10
0100
0010
0000
1000
0001
0000
0010
0100
0000
1000
0001
0000
2002
0000
3003
0000
,  // measure 11
2000
0000
3010
0100
0010
0100
0002
0000
1003
0100
0001
0100
1000
0010
0200
0000
,  // measure 12
0302
0000
0013
0100
0010
0100
2000
0000
3001
0100
1000
0100
0001
0010
0100
1000
,  // measure 13
0002
0000
1003
0000
1010
0000
0100
0001
2000
0000
3001
0000
0011
0000
0100
1000
,  // measure 14
0001
0100
1000
0000
0001
0010
1000
0000
0001
0010
0100
0020
0000
0031
1000
0000
,  // measure 15
1010
0000
0010
0100
0002
0000
1003
0100
0001
0100
1000
0010
0200
0000
0302
0000
,  // measure 16
1003
0100
0001
1000
0010
0001
0010
1000
0001
0100
1000
0010
0200
0000
0302
0000
,  // measure 17
0013
0000
0010
0100
2000
0000
3001
0100
1000
0100
0001
0010
0200
0000
2300
0000
,  // measure 18
3001
0100
1000
0001
0010
1000
0010
0001
1000
0100
0001
0010
0200
0000
1300
0000
,  // measure 19
2002
0000
0000
0000
,  // measure 20
3003
0000
0000
0000
0001
0010
0100
0000
1000
0000
0010
0000
0001
0000
0010
0000
2000
0000
0000
0000
3001
0000
0010
0000
0001
0000
0000
0000
1001
0000
0000
0000
,  // measure 21
1010
0000
0010
0100
0002
0000
0103
0010
2000
0000
3001
0010
0200
0000
2300
0000
,  // measure 22
3002
0000
0203
0000
0310
1000
0001
0100
0001
1000
0100
0010
0001
0100
1000
0100
,  // measure 23
0001
0010
0100
0000
1100
0000
0011
0000
0001
0100
1000
0200
0000
0302
0000
1003
,  // measure 24
0200
0000
0000
0000
0000
0000
0320
0000
0000
0000
0000
0000
0032
0000
0000
0000
0100
0000
0000
0000
0100
0000
0000
0000
0203
0000
0000
0000
0010
0000
0000
0000
0010
0000
0000
0000
0310
0000
0000
0000
0000
0000
1000
0000
0000
0001
0000
0000
,  // measure 25
1000
0000
0100
0000
1100
0000
0011
0000
0001
0100
0010
2000
0000
3002
0000
0013
,  // measure 26
0200
0000
0320
0000
0031
0100
1000
0100
0001
0010
1000
0010
0001
0100
0010
1000
,  // measure 27
0010
0000
0100
0000
0001
0000
1000
0000
0020
0000
1000
0000
1030
0000
1000
0002
0000
0000
0000
0000
0103
0000
0000
0000
0210
0000
0000
0000
0302
0000
1000
0000
,  // measure 28
1003
0010
1000
0010
1000
0010
1000
0000
1200
0000
0010
0000
0310
0000
0010
0002
0000
0000
0000
0000
1003
0000
0000
0000
1010
0000
0000
0000
0010
0000
0100
0000
,  // measure 29
0001
0010
0000
0110
0000
1100
0000
1002
0000
0000
0103
0000
0002
0100
0000
0203
,  // measure 30
0010
0000
0320
1000
0000
2030
0001
0000
3002
0000
0023
0000
0230
0010
0000
0320
,  // measure 31
0001
0000
0032
0100
0000
0203
0010
0000
0310
1000
0001
1000
0002
0010
0000
0023
,  // measure 32
0100
0000
0230
1000
0000
2300
0001
0000
3002
0000
0203
0000
0320
0100
0000
0230
,  // measure 33
0001
0000
0302
0010
0000
0023
0100
0000
0230
0000
1300
0000
1100
0000
0000
0101
,  // measure 34
0000
0000
0011
0000
0000
1010
0000
0000
1100
0000
0110
0000
0011
0000
0000
0101
,  // measure 35
0000
0000
1100
0000
0000
1010
0000
0000
0011
0000
1001
0000
1100
0000
0000
0101
,  // measure 36
0000
0000
1001
0000
1010
0000
0000
0011
0000
0000
1001
0000
1000
0010
1000
0010
,  // measure 37
0100
0000
0000
0001
0000
0000
0100
0000
0000
0001
0000
0000
0010
0000
0000
0100
0000
0000
0010
0000
0000
0100
0000
0000
1000
0000
0001
0000
1000
0000
0001
0000
1000
0000
0002
0000
2000
0000
0000
0000
0000
0000
0000
0000
0000
0000
0000
0000
,  // measure 38
0000
0000
0000
0000
,  // measure 39
0000
0000
3003
0000
1000
0010
0001
0010
,  // measure 40
1000
0001
0010
0022
0033
2200
3300
2002
,  // measure 41
3003
0001
0100
0010
1000
0100
0001
0100
,  // measure 42
1000
0001
0100
0010
1000
2200
3300
2002
,  // measure 43
3003
0000
0001
0000
0010
0000
0100
0000
1000
0010
0000
0000
0001
0010
0000
0000
,  // measure 44
1000
0100
0000
0000
0001
0100
0000
0000
1000
0010
0000
0000
0100
0001
0000
0000
,  // measure 45
0010
0100
0000
0000
1000
0001
0000
0000
1000
0000
0100
0000
0001
0000
1000
0000
,  // measure 46
0010
0001
0100
1000
0100
0001
1000
0001
,  // measure 47
0000
0000
0001
0010
0001
0000
1000
0000
0001
0000
0010
0000
1000
0000
0010
0000
,  // measure 48
0001
1000
0010
2020
3030
0202
0303
2002
,  // measure 49
3003
1000
0100
0010
0001
0100
1000
0100
,  // measure 50
0001
1000
0100
0010
0001
0202
0303
2002
,  // measure 51
3003
0000
1000
0000
0010
0000
0100
0000
0002
0010
0000
0013
0001
1000
0010
0100
,  // measure 52
0001
0010
0000
0000
0010
0100
0000
0000
0100
1000
0000
0000
1000
0001
0000
0000
0001
0000
0000
0000
0100
0000
0000
0000
1000
0000
0000
0000
0100
0000
0000
0000
,  // measure 53
0001
0010
0100
1000
0001
0202
0303
2002
,  // measure 54
3003
1000
0010
0000
2002
3003
1010
0000
,  // measure 55
1000
1001
0000
0001
0101
0000
0100
0110
,  // measure 56
0000
0010
1010
0000
1001
0000
0011
0000
,  // measure 57
0001
1001
0000
1000
1100
0000
0100
0110
,  // measure 58
0000
0010
0011
0000
1001
0000
1100
0000
,  // measure 59
0100
0110
0000
0010
0011
0000
0001
1001
,  // measure 60
0000
1000
1010
0000
0110
0000
0101
0000
,  // measure 61
0100
0110
0000
0010
1010
0000
1000
1100
,  // measure 62
0000
0000
0100
0000
0110
0000
0000
0000
0011
0000
0000
0000
0001
0010
0001
0000
,  // measure 63
1000
0010
0001
0010
1000
0100
0001
0100
,  // measure 64
1000
0000
0010
0000
0100
0000
0001
0000
1000
0000
0100
0000
1000
0010
1000
0000
,  // measure 65
0001
0010
1000
0010
0001
0100
1000
0100
,  // measure 66
0001
0000
0010
0000
0100
0000
1000
0000
0001
0000
0100
0000
0001
0010
0001
0000
,  // measure 67
0010
0000
0100
0000
1000
0000
0001
0000
0100
0000
0010
0000
1000
0010
1000
0000
,  // measure 68
0010
0000
0100
0000
0001
0000
1000
0000
0100
0000
0010
0000
0001
0100
0001
0000
,  // measure 69
1000
0000
0010
0000
0100
0000
0001
0000
0010
0000
0100
0000
1000
0010
1000
0000
,  // measure 70
0010
0100
0010
0000
0100
0001
0100
0000
0001
0000
1000
0000
2002
0000
3003
0000
,  // measure 71
0001
0000
0010
0000
0100
1000
0000
0001
0000
0100
0000
0010
0000
1000
0001
1000
,  // measure 72
0000
0000
2002
0000
0000
0000
0000
3003
;

//---------------dance-single - ----------------
#NOTES:
     dance-single:
     :
     Medium:
     9:
     0.544261,0.684519,0.668786,0.488439,0.278035,507.000000,418.000000,89.000000,65.000000,0.000000,0.000000,0.544261,0.684519,0.668786,0.488439,0.278035,507.000000,418.000000,89.000000,65.000000,0.000000,0.000000:
0000
0000
0000
0000
,
0000
0000
0000
0000
,
0000
0000
0000
0000
,
0000
0000
0000
0000
,
1000
0000
0010
0000
0100
0000
0001
0010
0000
0110
0000
2100
0000
0000
3001
0000
,
0001
0000
0010
0000
0100
0000
1000
0000
0010
0100
0000
0102
0000
0000
1003
0000
,
1001
1000
1010
0010
0110
0100
0101
0001
,
0011
0000
0010
0000
0100
0000
1000
0000
0001
0010
0000
0012
0000
0000
0000
0000
,
1003
0010
0000
2010
0000
0000
0000
0000
3001
0100
0000
0102
0000
0000
0000
0000
,
1003
1000
0100
0100
0010
0010
0001
0001
,
1001
0000
0000
0110
0000
0000
1001
0000
0000
0110
0000
0000
1001
0000
0000
0000
,
0011
0000
0001
0010
0000
0010
0100
0000
2100
0000
0000
0000
3001
0000
0100
0000
,
1010
0000
1000
0010
0000
0010
0100
0000
0102
0000
0000
0000
1003
0000
0100
0000
,
0010
0001
2001
0000
3010
0100
0102
0000
,
1003
0000
1100
0000
0100
0000
0110
0000
0011
0000
0000
1001
0000
0000
1010
0000
,
0010
0000
1000
0100
1000
0000
0001
0100
0001
0000
1000
0010
1000
0000
0001
0000
,
0010
0100
0010
0000
0001
0100
0001
0000
1000
0010
1000
0000
0100
0000
0010
0000
,
0001
0000
1000
0010
1000
0000
0001
0100
0001
0000
0010
0001
0000
1000
0010
1000
,
0001
0000
0100
0000
0010
0000
1000
0000
0001
0010
0000
0010
0100
0000
1000
0000
,
2002
0000
0000
0000
,
3003
0000
0010
0010
1000
0000
0001
0010
0001
0000
1000
0010
1000
0000
0100
0000
,
0010
0011
0001
0100
0010
1000
0200
0010
,
0320
0000
0032
0000
1003
0000
0010
0000
0100
0000
0001
0000
1000
0100
1000
0100
,
1000
0000
0010
0000
0210
0000
0000
0000
0301
0000
1000
0200
0000
0000
0000
0000
,
0320
0000
0000
0000
0032
0000
1000
0000
2003
0000
3010
0000
1010
0000
0000
0100
,
0001
0000
0010
0000
0001
0000
1000
0000
1020
0000
0000
0130
0000
0001
0000
1000
,
0200
0000
0310
0000
0001
0100
0001
0100
0000
0010
1000
0010
1000
0000
0001
0100
,
0001
0000
0100
0000
0010
0000
0000
0000
2010
0000
0000
0000
0000
0000
0000
3001
0000
0000
0000
0000
0010
0000
0000
0000
0012
0000
0000
0000
0000
0000
0000
0000
,
1003
0000
0010
0000
1000
0000
0010
0000
2010
0000
0000
0000
0000
0000
0000
3100
0000
0000
0000
0000
0010
0000
0000
0000
0012
0000
0000
0000
0000
0000
0000
0000
,
2003
0000
0000
3010
0000
0100
0000
0101
0000
0000
1001
0000
2000
0000
0000
3020
,
0000
0000
0032
0000
0000
0203
0000
0000
1300
0000
0010
0000
0200
0000
0000
0302
,
0000
0000
2003
0000
0000
3200
0000
0000
0310
0000
0001
0000
2000
0000
0000
3200
,
0000
0000
0302
0000
0000
0023
0000
0000
1030
0000
0100
0000
0020
0000
0000
0032
,
0000
0000
2003
0000
0000
3020
0000
0000
0130
0000
0001
0000
1001
0000
0000
1100
,
0000
0000
1001
0000
0000
0011
0000
0000
0001
0000
1000
0000
1010
0000
0000
0110
,
0000
0000
0101
0000
0000
0110
0000
0000
0010
0000
1000
0000
1001
0000
0000
0011
,
0000
0000
0110
0000
0110
0000
0000
1100
0000
0000
1001
0000
0001
0100
0000
0001
,
0100
0000
0010
1000
0000
0010
1000
0000
0001
1000
0001
2000
0002
0000
0000
0000
,
0000
0000
0000
0000
,
0000
0000
3003
0000
1000
0010
1000
0000
,
0001
0010
0001
0010
0000
0110
0000
1100
,
0000
1000
0001
0000
0010
0100
0010
0000
,
0001
1000
0001
0000
1000
0010
0000
1010
,
0000
1000
0001
1000
0002
0000
0023
0000
,
0230
2300
3020
0230
,
0302
2003
3100
0110
,
0010
0000
0011
0000
0001
1000
0000
0010
,
0000
0100
0001
0100
0001
0010
0001
0000
,
1000
0010
1000
0010
0000
0110
0000
0101
,
0000
0001
1000
0000
0010
0100
0010
0000
,
1000
0001
1000
0000
0001
0010
0000
0011
,
0000
0001
1000
0001
2000
0000
3010
0010
,
0100
0001
1000
0100
0010
0000
0011
0000
,
0001
0000
1001
0000
1000
0010
0000
0001
,
0000
0010
1000
0000
2002
3003
0011
0000
,
0000
0101
0000
0000
1100
0000
0000
1010
,
0000
0011
1001
1010
,
0000
0011
0000
0000
0101
0000
0000
1100
,
0000
1010
0110
0101
,
0000
0011
0000
0000
1100
0000
0000
1010
,
0000
0101
1001
1100
,
0000
1010
0000
0000
0101
0000
0000
0011
,
0000
0000
1100
0000
1001
0000
0001
0100
,
0000
0100
1000
0000
1000
0100
0000
0100
,
0010
0000
1000
0000
0001
0000
1000
0100
,
0000
0100
0001
0000
0001
0100
0000
0100
,
0010
0000
0001
0000
1000
0000
0001
0010
,
0001
2000
0000
3010
1000
0000
1000
0010
,
1000
0002
0000
0013
0001
1000
0001
0100
,
0001
0100
0010
1000
0010
1000
0001
0100
,
0010
1000
0010
0100
0001
0000
2002
3003
,
2000
3020
0230
0302
,
0003
0000
2002
0000
0000
0000
0000
3003
;

//---------------dance-single - ----------------
#NOTES:
     dance-single:
     :
     Easy:
     5:
     0.297357,0.438092,0.157803,0.323121,0.090173,277.000000,256.000000,21.000000,43.000000,0.000000,0.000000,0.297357,0.438092,0.157803,0.323121,0.090173,277.000000,256.000000,21.000000,43.000000,0.000000,0.000000:
0000
0000
0000
0000
,
0000
0000
0000
0000
,
0000
0000
0000
0000
,
0000
0000
0000
0000
,
2000
0000
0000
0000
3010
0000
0000
0100
0000
0100
0000
0100
0000
0000
0000
0000
,
0002
0000
0000
0000
0013
0000
0000
0000
0100
0000
0000
0100
0000
0000
0000
0000
,
1000
0010
0100
0001
,
0010
0000
0000
0000
0100
0000
0000
0000
1000
0000
0000
1000
0000
0000
0000
0000
,
0010
0000
0000
0010
0000
0000
0000
0000
0100
0000
0000
0100
0000
0000
0000
0000
,
0001
0010
0100
1000
,
0001
0000
0000
1000
0000
0000
0001
0000
0000
1000
0000
0000
0001
0000
0000
0000
,
2001
0010
0100
3010
,
1002
0010
0100
0013
,
2001
3010
1020
0130
,
0210
0302
1000
1003
,
2000
3010
0002
0013
,
2000
3100
0002
0103
,
2000
3010
0200
0301
,
0020
0230
2300
3001
,
2002
0000
0000
0000
,
3003
0000
2000
0000
3010
0000
0100
0100
,
0100
0002
0013
2000
,
3010
0002
0203
0320
,
2030
0000
0000
0000
3001
0000
0000
0000
0100
0000
0000
0010
0000
0000
0000
0000
,
1010
1002
1000
0103
,
0101
0000
0000
0000
0001
0000
0000
0000
1001
0000
0000
1000
0000
0010
0000
0000
,
0110
0000
0100
0001
0100
0001
1000
0010
,
1000
0000
0000
0000
0010
0000
0000
0000
2000
0000
0000
0000
0000
0000
0000
3000
0000
0000
0000
0000
0000
0000
0000
0000
0020
0000
0000
0000
0000
0000
0000
0000
,
0130
0000
0000
0000
0100
0000
0010
0000
0200
0000
0000
0000
0000
0000
0000
0300
0000
0000
0000
0000
0000
0000
0000
0000
0002
0000
0000
0000
0000
0000
0000
0000
,
0103
0000
0000
0010
0000
0010
0000
0010
0000
0000
1000
0000
0002
0000
0000
0000
,
0010
0010
0010
2003
,
0010
0010
0010
3002
,
0100
0100
0100
2003
,
0100
0000
0000
0000
0100
0000
0000
0000
3100
0000
0000
0000
1000
0000
0000
1000
,
0000
0000
1000
0000
0000
1000
0000
0000
1000
0000
0000
0000
0001
0000
0000
0001
,
0000
0000
0001
0000
0000
0001
0000
0000
0001
0000
0000
0000
0010
0000
0000
0010
,
0000
0000
0000
0000
0100
0000
0000
0100
0000
0000
0000
0000
1000
0000
0000
1000
,
0000
0000
0001
0000
0000
0001
0000
0000
1000
0000
0001
0000
2002
0000
0000
0000
,
0000
0000
0000
0000
,
0000
3003
1000
0010
,
0100
0000
0000
0001
0000
0010
0000
0100
,
0000
1000
0001
0100
,
0010
0000
1000
0000
0001
0000
0000
0010
,
0000
0100
1000
0010
,
0100
0001
0100
0010
,
1000
0001
1000
0100
,
0001
0000
0100
0000
1000
0000
0000
0010
,
0000
0100
0001
0010
,
0100
0000
0000
1000
0000
0010
0000
0100
,
0000
0001
1000
0100
,
0010
0000
0001
0000
1000
0000
0000
0010
,
0000
0100
0002
1003
,
0010
0100
0001
0010
,
1000
0000
0010
0000
0001
0000
0000
0100
,
0000
0001
1001
1000
,
0000
0010
0000
0000
0100
0000
0000
0001
,
0000
1000
1001
0001
,
0000
0010
0000
0000
0100
0000
0000
1000
,
0000
0001
1001
1000
,
0000
0100
0000
0000
0001
0000
0000
0100
,
0000
1000
1001
0001
,
0000
0010
0000
0000
1000
0000
0000
0010
,
0000
0001
1001
1000
,
0000
0010
0000
0000
0001
0000
0000
0010
,
0000
1000
1100
0100
,
0000
0010
0000
0000
0001
0000
0000
1000
,
0000
0010
0110
0100
,
0000
0001
0000
0000
1000
0000
0100
0000
,
0000
1000
0000
0000
0001
0000
0010
0000
,
0001
1000
0100
1000
,
0001
0100
0001
1001
,
2000
0000
3002
2000
,
3003
0000
2002
0000
0000
0000
0000
3003
;

//---------------dance-single - ----------------
#NOTES:
     dance-single:
     :
     Beginner:
     2:
     0.114864,0.271459,0.097688,0.120231,0.000000,107.000000,94.000000,13.000000,16.000000,0.000000,0.000000,0.114864,0.271459,0.097688,0.120231,0.000000,107.000000,94.000000,13.000000,16.000000,0.000000,0.000000:
0000
0000
0000
0000
,
0000
0000
0000
0000
,
0000
0000
0000
0000
,
0000
0000
0000
0000
,
2000
3000
0000
0000
,
0002
0003
0000
0000
,
1000
0000
0010
0000
,
0100
0000
0001
0000
,
0001
0000
1000
0000
,
1000
0000
0001
0000
,
0001
0000
0000
0000
,
1000
0000
1000
0000
,
0001
0000
0001
0000
,
0010
0000
0100
0000
,
0010
0000
0001
0000
,
1000
1000
0000
0010
,
0000
0100
0000
0001
,
0000
0001
0000
0010
,
0000
0100
0000
1000
,
0000
0000
0000
0000
,
0000
0000
0000
0000
,
0010
0000
0100
0000
,
0001
0001
0000
1000
,
0000
0001
0000
0000
,
0100
0100
0000
0000
,
0010
0010
0000
1000
,
0000
0010
0000
0100
,
0000
1001
0000
1000
,
0000
0001
0000
0001
,
0000
0000
0000
2000
,
0000
3000
0000
0020
,
0000
0030
0000
0200
,
0000
0300
0000
0002
,
0000
0003
0000
1001
,
0000
0000
0000
0110
,
0000
0000
0000
1001
,
0000
0110
0000
1001
,
0000
0110
0000
1001
,
0000
0000
0000
0000
,
0000
0000
0000
0000
,
0000
0000
0010
0000
,
0010
0000
0010
0000
,
0000
0000
0100
0000
,
0100
0000
0100
0000
,
0000
0000
0001
0000
,
0000
0000
1000
0000
,
0000
0000
0001
0000
,
0001
0000
0001
0000
,
0000
0000
0010
0000
,
0010
0000
0010
0000
,
0000
0000
0100
0000
,
0100
0000
0100
0000
,
0000
0000
1000
0000
,
0000
0000
0001
0000
,
0000
0000
0000
2002
,
0000
0000
0000
0000
,
0000
3003
0000
0220
,
0000
0000
0000
0000
,
0000
0330
0000
2002
,
0000
0000
0000
0000
,
0000
3003
0000
0220
,
0000
0000
0000
0000
,
0000
0330
0000
0010
,
0000
0010
0000
0010
,
0000
0000
0000
0100
,
0000
0100
0000
0100
,
0000
0000
0000
2000
,
0000
3000
0000
0002
,
0000
0003
0000
0100
,
0000
0100
0000
0100
,
0000
0100
0000
0000
,
1000
0000
0001
0000
,
0000
1001
0000
0000
;
