#VERSION:0.83;
#TITLE:ORIENTAL MESIA;
#SUBTITLE:;
#ARTIST:Power Of Nature;
#TITLETRANSLIT:;
#SUBTITLETRANSLIT:;
#ARTISTTRANSLIT:;
#GENRE:Oriental Rave;
#ORIGIN:;
#CREDIT:;
#BANNER:[VIP Room Round 3] - ORIENTAL MESIA.png;
#BACKGROUND:[VIP Room Round 3] - ORIENTAL MESIA-bg.png;
#PREVIEWVID:;
#JACKET:[VIP Room Round 3] - ORIENTAL MESIA-jacket.png;
#CDIMAGE:;
#DISCIMAGE:;
#LYRICSPATH:;
#CDTITLE:cdtitle.png;
#MUSIC:[VIP Room Round 3] - ORIENTAL MESIA.ogg;
#OFFSET:-0.030253;
#SAMPLESTART:16.105814;
#SAMPLELENGTH:11.707317;
#SELECTABLE:YES;
#BPMS:0.000=164.000;
#STOPS:;
#DELAYS:;
#WARPS:;
#TIMESIGNATURES:0.000=4=4;
#TICKCOUNTS:0.000=4;
#COMBOS:0.000=1;
#SPEEDS:0.000=1.000=0.000=0;
#SCROLLS:0.000=1.000;
#FAKES:;
#LABELS:0.000=Song Start;
#BGCHANGES:;
#KEYSOUNDS:;
#ATTACKS:
;

//---------------dance-single - ----------------
#NOTEDATA:;
#CHARTNAME:;
#STEPSTYPE:dance-single;
#DESCRIPTION:;
#CHARTSTYLE:;
#DIFFICULTY:Challenge;
#METER:13;
#RADARVALUES:1.141337,1.105901,0.365993,0.223166,1.620188,895.000000,854.000000,41.000000,25.000000,12.000000,0.000000,0.000000,0.000000,0.000000,1.141337,1.105901,0.365993,0.223166,1.620188,895.000000,854.000000,41.000000,25.000000,12.000000,0.000000,0.000000,0.000000,0.000000;
#CREDIT:;
#NOTES:
// measure 0
0000
0000
0000
0000
,  // measure 1
0000
0000
0000
0000
,  // measure 2
0000
0000
0000
0000
,  // measure 3
0000
0000
0000
0000
,  // measure 4
1001
0000
1000
0000
0010
0000
1000
0000
0001
0010
0100
1000
0001
1000
0100
0010
,  // measure 5
0001
0000
0001
0000
0100
0000
0001
0000
1000
0010
0100
0001
1000
0001
0100
0010
,  // measure 6
1010
0000
1000
0000
0100
0000
0010
0000
0001
0100
0010
1000
0100
1000
0010
0100
,  // measure 7
0101
0000
0001
0000
1000
0000
0100
0000
0010
0001
1000
0010
0100
0001
0010
0100
,  // measure 8
1100
0000
1000
0000
0101
0000
0001
0000
1000
0010
0100
0010
0001
0010
0100
0010
,  // measure 9
1010
0000
0000
1001
0000
0000
0021
0000
0000
0000
1030
0000
0010
0001
0100
0000
,  // measure 10
0101
0000
0000
1001
0000
0000
1100
0000
2002
0000
3003
0000
MMMM
0000
0000
0000
,  // measure 11
2000
0000
0010
3000
1010
0000
1000
0010
0100
0010
1000
0100
0010
0100
1000
0001
,  // measure 12
0200
0000
0001
0300
0101
0000
0001
0100
0010
0100
0001
0010
0100
0010
0001
1000
,  // measure 13
0020
0000
1000
0030
1010
0000
1000
0010
0100
0010
1000
0100
0010
0100
1000
0001
,  // measure 14
0100
0010
0100
0010
1000
0010
1000
0010
1000
0100
1000
0100
0001
0100
0001
0100
,  // measure 15
0020
0000
0001
0030
0011
0000
0001
0010
0100
0010
0001
0100
0010
0100
0001
1000
,  // measure 16
0200
0000
1000
0300
1100
0000
1000
0100
0010
0100
1000
0010
0100
0010
1000
0001
,  // measure 17
0020
0000
0001
0030
0011
0000
0001
0010
0100
0010
0001
0100
0010
0100
0001
1000
,  // measure 18
0100
0010
0100
0010
0001
0010
0001
0010
0001
0100
0001
0100
1000
0100
1000
0100
,  // measure 19
0001
0000
0001
0010
0001
0000
0001
0010
0100
1000
0010
0100
0010
0001
0010
0100
,  // measure 20
0001
0000
0001
0100
0001
0000
0001
0100
0010
1000
0100
0010
0100
0001
0100
0010
,  // measure 21
0001
0000
0001
0010
0001
0000
0001
0010
0001
0100
0010
0100
1000
0100
0010
0100
,  // measure 22
0101
0000
0010
1000
0000
1000
0100
0000
0011
0000
1000
0010
0100
0001
0010
0100
,  // measure 23
1000
0000
1000
0010
1000
0000
1000
0010
0100
0001
0010
0100
0010
1000
0010
0100
,  // measure 24
1000
0000
1000
0100
1000
0000
1000
0100
0010
0001
0100
0010
0100
1000
0100
0010
,  // measure 25
1000
0000
1000
0010
1000
0000
1000
0010
1000
0100
0010
0100
0001
0100
0010
0001
,  // measure 26
1001
0000
1000
0000
1001
0000
0001
0000
1000
0010
0100
0001
0010
0000
0100
0010
,  // measure 27
0001
0000
0001
0100
1000
0000
1000
0100
0001
0000
0001
0010
1000
0000
1000
0010
,  // measure 28
0001
1000
0001
0100
1000
0000
1000
0100
0001
1000
0001
0010
0100
1000
0010
0100
,  // measure 29
0202
0000
0000
0000
,  // measure 30
0000
0000
0000
0303
,  // measure 31
1100
0000
0000
0110
0000
0000
0021
0000
0000
0000
1030
0000
0010
0001
0100
0000
,  // measure 32
0101
0000
0000
0110
0000
0000
1020
0000
0000
0030
0101
0000
0001
0000
1001
0000
,  // measure 33
1100
0000
1000
0100
0010
0000
0010
0100
0001
0000
0001
0100
0010
0000
0010
0001
,  // measure 34
1001
0000
0000
1010
0000
0000
0201
0000
0010
0000
0000
0000
1300
0100
0010
0100
,  // measure 35
0001
0000
0100
0001
0010
0000
1000
0000
0010
0000
1000
0000
0010
0001
0100
0000
,  // measure 36
1000
0000
0100
0001
0010
0000
0100
0000
1000
0000
0100
0000
1000
0000
1000
0000
,  // measure 37
0001
0000
0001
0100
0010
0000
0010
0100
1000
0000
1000
0100
0010
0000
0010
1000
,  // measure 38
0001
0000
0001
0010
1000
0000
1000
0010
0001
1000
0001
0100
1000
0100
0001
0010
,  // measure 39
0200
0000
0000
0000
,  // measure 40
0000
0000
0000
0000
0000
0000
0000
0000
0310
0001
0010
0001
0010
0001
0010
0001
,  // measure 41
1000
0010
0100
0010
0001
0010
0100
0010
1000
0010
0100
0010
0001
0010
0100
0010
,  // measure 42
1000
0010
0100
0010
0001
0010
0100
0010
1000
0010
0100
0010
0001
0010
0100
0010
,  // measure 43
1000
0100
0001
0100
1000
0010
0001
0010
1000
0100
0001
0100
1000
0010
0001
0010
,  // measure 44
1000
0100
0010
0100
0001
0100
0010
0100
1000
0000
0000
0000
MMMM
0000
0000
0000
,  // measure 45
1000
0010
1000
0010
1000
0010
1000
0001
1000
0001
1000
0001
1000
0100
1000
0100
,  // measure 46
0010
0100
0010
0100
0010
0100
0001
0100
0001
0100
0001
0100
0010
0100
0010
0100
,  // measure 47
1000
0001
0100
0010
1000
0001
0000
0002
0010
0000
0013
0100
1000
0001
1000
0010
,  // measure 48
0100
0010
0001
0010
0000
1000
0000
0200
0010
0000
0310
0001
0100
0010
1000
0000
,  // measure 49
0001
0010
0001
0010
0001
0010
0001
1000
0001
1000
0001
1000
0001
0100
0001
0100
,  // measure 50
0010
0100
0010
0100
0010
0100
1000
0100
1000
0100
1000
0100
0010
0100
0010
0100
,  // measure 51
0001
0010
0100
0010
0001
0100
0000
2000
0000
3100
0010
0000
0020
0000
1030
0000
,  // measure 52
0001
0010
0100
0010
1000
0010
0100
0010
0001
0100
1000
0100
0010
1000
0100
0010
,  // measure 53
0001
0100
0001
0100
0001
0100
0001
1000
0001
1000
0001
1000
0001
0010
0001
0010
,  // measure 54
0100
0010
0100
0010
0100
0010
1000
0010
1000
0010
1000
0010
0100
0010
0100
0010
,  // measure 55
0001
1000
0010
0100
0001
0010
0100
1000
0010
0100
0001
1000
0200
0000
0310
0001
,  // measure 56
0100
0010
0100
1000
0100
0010
1000
0000
1000
0001
0010
0100
0001
0100
0010
0001
,  // measure 57
1000
0100
1000
0100
1000
0100
1000
0001
1000
0001
1000
0001
1000
0010
1000
0010
,  // measure 58
0100
0010
0100
0010
0100
0010
0001
0010
0001
0010
0001
0010
0100
0010
0100
0010
,  // measure 59
1000
0001
0010
0100
1000
0010
0000
0002
0000
0013
1000
0000
2000
0000
3100
0000
,  // measure 60
1000
0010
0100
0010
0001
0010
0100
0010
1000
0100
0001
0100
0010
0001
0100
0010
,  // measure 61
1000
0100
1000
0100
0010
0001
0000
0200
0000
1300
0100
0000
0002
0000
0013
0000
,  // measure 62
0001
0100
0010
0100
1000
0100
0010
0100
0001
0000
0000
0000
MMMM
0000
0000
0000
,  // measure 63
1001
0000
0000
0000
1001
0000
0001
0010
0100
0010
0001
0100
0010
0100
0001
1000
,  // measure 64
1100
0000
0011
0000
1100
0000
1000
0100
0010
0100
1000
0010
0100
0010
1000
0001
,  // measure 65
1000
0100
0001
0100
1000
0000
0001
0100
0010
0100
0001
0010
0100
0010
0001
1000
,  // measure 66
0001
0100
1000
0100
0001
0000
1000
0000
0001
0010
1000
0010
0001
0000
0100
0010
,  // measure 67
1000
0000
1000
0100
1000
0000
1000
0100
0010
0001
0100
0010
0100
1000
0100
0001
,  // measure 68
0010
0000
0010
0100
0010
0000
0010
0100
1000
0001
1000
0010
0100
0010
0001
0010
,  // measure 69
1000
0000
1000
0001
1000
0000
1000
0001
1000
0100
0010
0100
0001
0100
0010
0001
,  // measure 70
1000
0010
1000
0010
0001
0010
0001
0010
1000
0100
1000
0100
0001
0100
0001
0100
,  // measure 71
1000
0010
0100
1000
0100
0010
1000
0001
0010
0100
0001
0100
0010
0001
1000
0010
,  // measure 72
0210
0000
0001
0000
0000
0000
0301
0100
0010
0000
0010
1000
0100
0000
0001
0000
;

//---------------dance-single - ----------------
#NOTEDATA:;
#CHARTNAME:;
#STEPSTYPE:dance-single;
#DESCRIPTION:;
#CHARTSTYLE:;
#DIFFICULTY:Medium;
#METER:9;
#RADARVALUES:0.615939,0.650530,0.339213,0.580233,0.058023,483.000000,445.000000,38.000000,65.000000,12.000000,0.000000,0.000000,0.000000,0.000000,0.615939,0.650530,0.339213,0.580233,0.058023,483.000000,445.000000,38.000000,65.000000,12.000000,0.000000,0.000000,0.000000,0.000000;
#CREDIT:;
#NOTES:
0000
0000
0000
0000
,
0000
0000
0000
0000
,
0000
0000
0000
0000
,
0000
0000
0000
0000
,
2010
0000
3001
0000
0010
0001
0100
0001
,
0012
0000
1003
0000
0010
1000
0100
1000
,
1010
0000
1010
0000
0010
1000
0100
0010
,
0011
0000
0011
0000
0001
0100
0010
1000
,
1010
0000
0101
0000
0001
0010
0100
1000
,
0010
0000
0000
0010
0000
0000
0020
0000
0000
0000
1030
0000
0001
0000
0010
0000
,
0100
0000
0000
0100
0000
0000
0100
0000
0200
0000
0300
0000
MMMM
0000
0000
0000
,
1002
0000
0103
0001
0010
0001
0010
0001
,
0200
0000
0310
1000
0100
1000
0100
1000
,
0020
0000
0130
0001
0010
0001
0010
0001
,
0200
1000
0010
0301
,
2001
0000
3100
1000
0010
1000
0010
1000
,
0200
0000
0310
0001
0100
0001
0100
0001
,
0020
0000
0130
1000
0010
1000
0010
1000
,
1002
0013
1100
0101
,
1000
0010
1000
0010
0001
0010
0100
0010
,
1000
0100
1000
0100
0001
0100
0010
0100
,
1000
0010
1000
0010
0001
0010
0100
0010
,
1000
0000
0000
0001
0000
0000
1000
0000
2100
0000
0000
0000
3001
0000
0100
0000
,
0001
0010
0001
0010
1000
0010
0100
0010
,
0001
0100
0001
0100
1000
0100
0010
0100
,
0001
0010
0001
0010
1000
0010
0100
0010
,
0011
1100
1010
0101
,
0001
1000
0100
1000
0001
0100
0001
0010
,
0001
1000
0010
1000
0001
0010
0100
1000
,
2002
0000
0000
0000
,
0000
0000
0000
3003
,
2020
0000
0000
0000
0000
3030
0000
0101
,
0202
0000
0000
0303
0000
1001
0000
1100
,
2200
0000
3300
0011
0022
0000
0033
1001
,
1001
0000
0000
0110
0000
0000
1001
0000
2001
0000
0000
0000
3100
0000
0010
0000
,
0001
0000
0000
0001
0000
0000
0002
0000
0000
0000
0103
0000
0010
0000
0100
0000
,
1000
0000
0000
1000
0000
0000
2000
0000
0000
0000
3100
0000
0010
0000
0100
0000
,
0001
0010
0100
1000
0001
0100
0010
1000
,
0001
0010
1000
0010
0001
0100
1000
0100
,
0002
0000
0000
0000
,
0000
0000
0000
0000
1003
0001
1000
0001
,
1000
0010
0001
0010
1000
0100
0001
0100
,
1000
0010
0001
0010
1000
0100
0001
0100
,
2000
3020
0230
0302
,
1003
0100
0010
0001
1000
0000
MMMM
0000
,
2000
0010
3010
2000
0001
3001
2000
3100
,
0020
0100
0130
0002
0100
0103
0020
0130
,
1000
0000
0010
0000
0100
0000
0000
0002
0000
0000
1003
0000
0100
0000
0001
0000
,
0100
0000
0000
1000
0000
0010
0000
0200
0000
0000
0301
0000
0001
0000
1000
0000
,
0002
0010
0013
0002
1000
1003
0002
0103
,
0020
0100
0130
2000
0100
3100
0020
0130
,
0001
0000
0010
0000
1000
0000
0000
0020
0000
0000
0031
0000
0200
0000
0310
0000
,
1000
0100
0010
0001
1000
0010
0100
0001
,
2000
0100
3100
2000
0001
3001
2000
3010
,
0200
0010
0310
0002
0010
0013
0200
0310
,
1000
0100
0001
0100
1000
0100
0002
0000
,
0103
1000
0010
0001
0010
1000
0100
0010
,
0002
0100
0103
0002
1000
1003
0002
0013
,
0200
0010
0310
2000
0010
3010
0200
0310
,
0001
0000
0100
0000
1000
0000
0000
0200
0000
0000
0301
0000
0020
0000
0130
0000
,
1000
0010
0100
0001
1000
0100
0010
0001
,
1000
0000
0010
0000
0001
0000
0000
0020
0000
0000
1030
0000
0200
0000
0310
0000
,
0001
0100
0010
1000
0001
0000
MMMM
0000
,
1001
0000
1001
0001
0100
0010
0100
0001
,
1000
1000
1000
0100
0010
0100
1000
0001
,
0100
1000
0100
0001
0010
0100
0010
0001
,
1000
0010
0001
0000
0001
0010
1000
0000
,
0001
0010
0001
0010
1000
0010
0100
0010
,
0001
0100
0001
0100
1000
0100
0010
0100
,
0001
0010
0100
1000
0001
0100
0010
1000
,
1010
0101
0011
1100
,
1000
0010
0001
0010
1000
0100
0001
0100
,
2000
0010
0000
3010
1000
0010
0001
0010
;

//---------------dance-single - ----------------
#NOTEDATA:;
#CHARTNAME:;
#STEPSTYPE:dance-single;
#DESCRIPTION:;
#CHARTSTYLE:;
#DIFFICULTY:Hard;
#METER:11;
#RADARVALUES:0.960253,1.073375,0.419553,0.598086,1.111369,753.000000,706.000000,47.000000,67.000000,12.000000,0.000000,0.000000,0.000000,0.000000,0.960253,1.073375,0.419553,0.598086,1.111369,753.000000,706.000000,47.000000,67.000000,12.000000,0.000000,0.000000,0.000000,0.000000;
#CREDIT:;
#NOTES:
0000
0000
0000
0000
,
0000
0000
0000
0000
,
0000
0000
0000
0000
,
0000
0000
0000
0000
,
2100
0000
0000
0000
3001
0000
0000
0000
0001
0100
0001
0100
0010
0100
0010
0100
,
0002
0000
0000
0000
1003
0000
0000
0000
1000
0100
1000
0100
0010
0100
0010
0100
,
2000
0000
0010
0000
3010
0000
1000
0000
0001
0100
0001
0100
0010
1000
0010
1000
,
0002
0000
0010
0000
0013
0000
0001
0000
1000
0100
1000
0100
0010
0001
0010
0001
,
1000
0000
0010
0000
0100
0000
0001
0000
1000
0100
0010
0001
1000
0100
0010
0001
,
1000
0000
0000
0010
0000
0000
0002
0000
0000
0000
0013
0000
1000
0010
1000
0000
,
0100
0000
0000
0010
0000
0000
0002
0000
2000
0000
3003
0000
MMMM
0000
0000
0000
,
1002
0000
0000
0000
0103
0000
0001
0100
0010
1000
0010
1000
0001
1000
0001
1000
,
0200
0000
0000
0000
0310
0000
0100
1000
0001
0100
0001
0100
0010
1000
0010
1000
,
0002
0000
0000
0000
0103
0000
0001
0100
0010
1000
0010
1000
0001
1000
0001
1000
,
0200
0000
0301
0100
1000
0010
0100
0001
,
2001
0000
0000
0000
3100
0000
1000
0100
0010
0001
0010
0001
1000
0001
1000
0001
,
0200
0000
0000
0000
0310
0000
0100
0001
1000
0100
1000
0100
0010
0001
0010
0001
,
2000
0000
0000
0000
3100
0000
1000
0100
0010
0001
0010
0001
1000
0001
1000
0001
,
0200
0000
1300
0100
0001
1000
0100
0010
,
0001
0000
0100
0001
0100
0000
0001
0100
0010
1000
0010
1000
0001
1000
0001
1000
,
0100
0000
1000
0100
1000
0000
0100
1000
0001
1000
0001
1000
0010
1000
0010
1000
,
0001
0000
0010
0001
0010
0000
0001
0010
0001
1000
0001
1000
0001
0100
0001
0100
,
0010
0000
1000
0010
0000
1000
0010
0000
1001
0000
0000
0000
0001
0100
0001
0000
,
1000
0000
0100
1000
0100
0000
1000
0100
0010
0001
0010
0001
1000
0001
1000
0001
,
0100
0000
0001
0100
0001
0000
0100
0001
1000
0001
1000
0001
0010
0001
0010
0001
,
1000
0000
0010
1000
0010
0000
1000
0010
1000
0001
1000
0001
1000
0100
1000
0100
,
0010
0000
0001
0000
0100
0000
1000
0000
0100
0000
0001
1000
0001
0000
0010
0000
,
0100
1000
0100
0000
0010
0000
0001
0100
0001
0000
0010
0001
0010
0000
1000
0000
,
0010
0000
0001
0000
0100
0000
0010
1000
0010
0000
1000
0100
1000
0000
0010
0000
,
2002
0000
0000
0000
,
0000
0000
0000
3003
,
2020
0000
0000
0000
0000
3030
0000
0011
,
0022
0000
0000
0033
0000
0101
0000
1100
,
2002
0000
3003
0101
2002
0000
3003
1100
,
1001
0000
0000
1010
0000
0000
0110
0000
0102
0000
0000
0000
0103
0010
1000
0001
,
0010
0000
0000
1001
0000
0000
1020
0000
0000
0000
0130
0000
0001
1000
0100
0000
,
1100
0000
0000
1001
0000
0000
0201
0000
0000
0000
0310
0000
1000
0000
0001
0000
,
0010
0000
0100
1000
0100
0000
1000
0010
1000
0000
0001
0100
0001
0000
0010
0001
,
0010
0000
0001
1000
0010
0000
1000
0001
0010
0000
0100
0010
0001
0000
0100
0010
,
2000
0000
0000
0000
,
0000
0000
0000
0000
0000
0000
0000
0000
3010
1000
0010
1000
0010
1000
0010
1000
,
0001
0010
0100
1000
0001
1000
0100
0010
0001
0010
0100
1000
0001
1000
0100
0010
,
0001
0010
0100
1000
0001
1000
0100
0010
0001
0010
0100
1000
0001
1000
0100
0010
,
0002
0203
0320
2030
,
3001
0010
0100
1000
0001
0100
0010
1000
0001
0000
0000
0000
MMMM
0000
0000
0000
,
2010
0001
3001
2001
0100
3100
1200
0310
,
0012
1000
1003
1020
0100
0130
0210
0301
,
1000
0100
1000
0100
0010
0001
0000
2000
0000
3000
0001
0100
0001
0100
0010
1000
,
0001
0010
0001
0010
0000
0100
0000
2000
0000
0000
3010
1000
0010
1000
0001
0000
,
0012
1000
1003
1002
0100
0103
0201
0310
,
2010
0001
3001
0021
0100
0130
0210
1300
,
0001
0100
0001
0100
0010
1000
0000
0002
0000
1003
0100
0000
0020
0000
0031
0000
,
1000
0010
1000
0010
0100
0001
0100
0001
1000
0100
0010
0001
1000
0010
0100
0001
,
2000
0001
3001
2001
0010
3010
1020
0130
,
0102
1000
1003
1200
0010
0310
0120
0031
,
1000
0010
1000
0010
0100
0001
0100
0001
1000
0010
0100
0001
2000
0000
3100
0010
,
0001
1000
0001
1000
0010
0100
0001
0000
0001
0010
0001
0010
0100
1000
0001
0100
,
0002
1000
1003
1002
0010
0013
0021
0130
,
2100
0001
3001
0201
0010
0310
0120
1030
,
0001
0010
0001
0010
0100
1000
0000
0002
0000
1003
0010
0000
0200
0000
0301
0000
,
1000
0100
1000
0100
0010
0001
0010
0001
1000
0010
0100
0001
1000
0100
0010
0001
,
1000
0010
1000
0010
0100
0001
0000
0020
0000
0130
1000
0000
0002
0000
0103
0000
,
0001
0010
0100
1000
0001
0100
0010
1000
0001
0000
0000
0000
MMMM
0000
0000
0000
,
1001
0000
0000
0000
1001
0000
0001
0100
0010
1000
0010
1000
0001
1000
0001
1000
,
0100
0000
0100
0000
0100
0000
1000
0100
0010
0001
0010
0001
1000
0001
1000
0001
,
0100
0010
1000
0010
0100
0000
0001
0100
0010
1000
0010
1000
0001
1000
0001
1000
,
0100
0010
0001
0010
0100
0000
1000
0000
0001
0100
0010
0100
0001
0000
1000
0000
,
0001
0000
0010
0001
0010
0000
0001
0010
0100
1000
0100
1000
0001
1000
0001
1000
,
0010
0000
1000
0010
1000
0000
0010
1000
0001
0010
0001
0010
0100
1000
0100
1000
,
0001
0100
1000
0100
0001
0010
1000
0010
,
0001
0100
0001
0100
0001
0010
0001
0010
0100
1000
0100
1000
0010
1000
0010
1000
,
0001
0010
0100
0010
0001
1000
0010
0100
0010
1000
0001
0010
0100
0010
0001
1000
,
0020
0000
0100
0000
0000
0000
0130
0010
1000
0000
0100
0010
0001
0000
1000
0000
;

//---------------dance-single - ----------------
#NOTEDATA:;
#CHARTNAME:;
#STEPSTYPE:dance-single;
#DESCRIPTION:;
#CHARTSTYLE:;
#DIFFICULTY:Easy;
#METER:7;
#RADARVALUES:0.485865,0.520424,0.285653,0.598086,0.040170,381.000000,349.000000,32.000000,67.000000,0.000000,0.000000,0.000000,0.000000,0.000000,0.485865,0.520424,0.285653,0.598086,0.040170,381.000000,349.000000,32.000000,67.000000,0.000000,0.000000,0.000000,0.000000,0.000000;
#CREDIT:;
#NOTES:
0000
0000
0000
0000
,
0000
0000
0000
0000
,
0000
0000
0000
0000
,
0000
0000
0000
0000
,
1020
0000
0030
0000
1000
0001
1000
0001
,
0020
0000
0030
0000
0001
0100
0001
0100
,
0010
0000
0010
0000
1000
0100
1000
0100
,
0010
0000
0010
0000
0001
0100
0010
1000
,
0001
0011
1100
0011
,
1000
0000
0000
0010
0000
0000
2000
0000
0000
0000
3001
0000
0010
0000
0000
0000
,
0001
0000
0000
0100
0000
0000
0002
0000
0200
0000
0000
0000
0303
0000
0000
0000
,
2001
0000
3000
0001
0010
0001
0010
0001
,
2000
0000
3000
0001
0100
0001
0100
0001
,
2000
0000
3000
0001
0010
0001
0010
0001
,
0200
0001
0010
0310
,
1002
0000
0000
1003
0010
1000
0010
1000
,
0002
0000
0003
1000
0100
1000
0100
1000
,
0002
0000
0003
1000
0010
1000
0010
1000
,
0200
1000
0010
0310
,
0001
0000
0001
0000
0010
0001
0100
0010
,
1000
0000
1000
0000
0010
1000
0100
0010
,
0001
0000
0001
0000
0010
0001
0100
0010
,
2000
3000
2010
3001
,
1000
0000
1000
0000
0100
1000
0010
0100
,
0001
0000
0001
0000
0100
0001
0010
0100
,
1000
0000
1000
0000
0100
1000
0010
0100
,
0001
1001
0110
1001
,
1000
0100
0000
0010
0001
0010
0001
0010
,
0000
0001
0000
1000
0010
1000
0010
2000
,
0002
0000
0000
0000
,
0000
0000
0000
3003
,
0022
0000
0000
0000
0000
0033
0000
0200
,
2000
0000
0000
3300
0000
1001
0000
0002
,
0200
0003
0300
0020
2000
0030
3000
0001
,
1000
0000
0000
0001
0000
0000
1000
0000
0002
0000
0000
0000
1003
0000
0000
0000
,
0001
0000
0000
0010
0000
0000
0002
0000
0000
0000
1003
0000
0010
0000
0000
0000
,
1000
0000
0000
0100
0000
0000
2000
0000
0000
0000
3001
0000
0100
0000
0000
0000
,
0001
1000
0100
0001
,
0010
0000
1000
0000
0100
0010
0001
1000
,
0020
0000
0000
0000
,
0000
0000
0000
0000
1030
0001
1000
0001
,
1000
0100
0000
1001
0000
0001
0100
0010
,
0000
1000
0100
0010
0000
0001
0100
0010
,
2000
3200
0320
0032
,
1003
0100
0010
0001
1000
0000
0000
0000
,
2010
0000
3010
2000
0001
0000
3200
0000
,
0320
0000
0130
2000
0001
0000
3020
0000
,
0130
0000
0001
0000
0010
0000
0000
0200
0000
0000
0010
0000
0310
0000
0000
0000
,
0100
0000
1000
0000
0010
0000
0000
0200
0000
0000
0001
0000
0301
0000
0000
0000
,
0012
0000
0013
0002
1000
0000
0203
0000
,
0320
0000
0130
0002
1000
0000
0023
0000
,
0031
0000
0100
0000
0010
0000
0000
2000
0000
0000
0100
0000
3100
0000
0000
0000
,
0011
0110
1100
1001
,
0102
0000
0103
0002
1000
0000
0023
0000
,
0230
0000
0310
0002
1000
0000
0203
0000
,
0310
0000
0010
0000
0100
0010
2000
0000
,
3100
1000
0010
0000
0100
0001
0010
0000
,
2100
0000
3100
2000
0001
0000
3020
0000
,
0230
0000
0310
2000
0001
0000
3200
0000
,
1300
0000
0010
0000
0100
0000
0000
0002
0000
0000
0010
0000
0013
0000
0000
0000
,
1100
0110
0011
1001
,
0202
0303
2020
3030
,
1000
0100
0010
0001
0100
0000
0000
0000
,
1001
0000
1001
0000
0001
0100
0010
0100
,
0001
1000
0001
0000
1000
0100
0010
0001
,
1000
0010
1000
0000
0001
0100
0010
1000
,
0001
0010
0001
0000
1000
0010
1000
0000
,
0001
0000
0001
0000
0010
0001
0100
0010
,
1000
0000
1000
0000
0010
1000
0100
0010
,
0001
0000
0001
0000
1000
0010
0100
0001
,
0010
1100
1010
0101
,
1000
0100
0010
0001
1000
0010
0100
0001
,
2000
0100
0000
3100
1000
0001
0100
0010
;

//---------------dance-single - ----------------
#NOTEDATA:;
#CHARTNAME:;
#STEPSTYPE:dance-single;
#DESCRIPTION:;
#CHARTSTYLE:;
#DIFFICULTY:Beginner;
#METER:4;
#RADARVALUES:0.322635,0.455371,0.214240,0.276726,0.000000,253.000000,229.000000,24.000000,31.000000,0.000000,0.000000,0.000000,0.000000,0.000000,0.322635,0.455371,0.214240,0.276726,0.000000,253.000000,229.000000,24.000000,31.000000,0.000000,0.000000,0.000000,0.000000,0.000000;
#CREDIT:;
#NOTES:
0000
0000
0000
0000
,
0000
0000
0000
0000
,
0000
0000
0000
0000
,
0000
0000
0000
0000
,
2002
3003
1000
1000
,
0220
0330
0001
0001
,
0100
0100
0010
1000
,
0100
0100
0010
0001
,
1000
1000
0001
0001
,
0220
0000
0000
0330
,
2002
0000
0000
3003
,
1002
0003
0010
0001
,
0200
0300
0010
1000
,
0200
0300
0010
0001
,
1000
1000
0010
1000
,
2001
3000
0010
1000
,
0200
0300
0010
0001
,
0200
0300
0010
1000
,
0001
0001
0010
0001
,
0100
0100
0010
1000
,
0100
0100
0010
0001
,
0100
0100
0010
1000
,
2002
3003
0001
0010
,
0100
0100
0010
0001
,
0100
0100
0010
1000
,
0100
0100
0010
0001
,
1000
1000
0001
0001
,
0010
0100
0010
0001
,
1000
0010
0100
0010
,
2002
0000
0000
0000
,
0000
0000
0000
3003
,
0220
0000
0330
0000
,
2002
0000
3003
0000
,
0110
0000
0110
0000
,
2002
0000
3003
0000
,
1000
0010
1000
0001
,
0010
0100
0010
0001
,
1000
1000
0010
0010
,
0100
0100
0001
0001
,
0020
0000
0000
0000
,
0000
0000
0130
0010
,
0001
0100
1000
0100
,
0001
0100
1000
0100
,
0001
0001
1000
1000
,
0001
0010
0100
0000
,
0010
0010
0001
0001
,
0100
0100
0010
0010
,
1000
0001
1000
0001
,
0010
0100
1000
0001
,
0100
0100
0001
0001
,
0010
0010
0100
0100
,
1000
0010
1000
0001
,
0010
0010
0100
1000
,
0010
0010
1000
1000
,
0100
0100
0010
0010
,
0001
1000
0001
1000
,
0010
0100
0001
0010
,
0100
0100
1000
1000
,
0010
0010
0100
0100
,
0001
0010
0001
1000
,
0010
0010
0100
0001
,
2002
3003
0220
0330
,
0001
1000
0001
0000
,
1001
1001
1000
0100
,
0110
0110
0010
0001
,
1001
0110
0001
1000
,
1001
0000
0110
0000
,
0001
0001
0010
0100
,
1000
1000
0010
0100
,
0001
0001
1000
0100
,
0010
0010
0100
0100
,
1000
0010
0100
0001
,
2002
0000
0000
0000
0000
0000
0000
3003
;

//---------------dance-single - 24ths Version----------------
#NOTEDATA:;
#CHARTNAME:24ths Version;
#STEPSTYPE:dance-single;
#DESCRIPTION:24ths Version;
#CHARTSTYLE:;
#DIFFICULTY:Edit;
#METER:13;
#RADARVALUES:1.151539,1.138428,0.365993,0.223166,1.655895,903.000000,862.000000,41.000000,25.000000,12.000000,0.000000,0.000000,0.000000,0.000000,1.151539,1.138428,0.365993,0.223166,1.655895,903.000000,862.000000,41.000000,25.000000,12.000000,0.000000,0.000000,0.000000,0.000000;
#CREDIT:24ths Version;
#NOTES:
// measure 0
0000
0000
0000
0000
,  // measure 1
0000
0000
0000
0000
,  // measure 2
0000
0000
0000
0000
,  // measure 3
0000
0000
0000
0000
,  // measure 4
1001
0000
1000
0000
0010
0000
1000
0000
0001
0010
0100
1000
0001
1000
0100
0010
,  // measure 5
0001
0000
0001
0000
0100
0000
0001
0000
1000
0010
0100
0001
1000
0001
0100
0010
,  // measure 6
1010
0000
1000
0000
0100
0000
0010
0000
0001
0100
0010
1000
0100
1000
0010
0100
,  // measure 7
0101
0000
0001
0000
1000
0000
0100
0000
0010
0001
1000
0010
0100
0001
0010
0100
,  // measure 8
1100
0000
1000
0000
0101
0000
0001
0000
1000
0010
0100
0010
0001
0010
0100
0010
,  // measure 9
1010
0000
0000
1001
0000
0000
0021
0000
0000
0000
1030
0000
0010
0001
0100
0000
,  // measure 10
0101
0000
0000
1001
0000
0000
1100
0000
2002
0000
3003
0000
MMMM
0000
0000
0000
,  // measure 11
2000
0000
0010
3000
1010
0000
1000
0010
0100
0010
1000
0100
0010
0100
1000
0001
,  // measure 12
0200
0000
0001
0300
0101
0000
0001
0100
0010
0100
0001
0010
0100
0010
0001
1000
,  // measure 13
0020
0000
1000
0030
1010
0000
1000
0010
0100
0010
1000
0100
0010
0100
1000
0001
,  // measure 14
0100
0010
0100
0010
1000
0010
1000
0010
1000
0100
1000
0100
0001
0100
0001
0100
,  // measure 15
0020
0000
0001
0030
0011
0000
0001
0010
0100
0010
0001
0100
0010
0100
0001
1000
,  // measure 16
0200
0000
1000
0300
1100
0000
1000
0100
0010
0100
1000
0010
0100
0010
1000
0001
,  // measure 17
0020
0000
0001
0030
0011
0000
0001
0010
0100
0010
0001
0100
0010
0100
0001
1000
,  // measure 18
0100
0010
0100
0010
0001
0010
0001
0010
0001
0100
0001
0100
1000
0100
1000
0100
,  // measure 19
0001
0000
0001
0010
0001
0000
0001
0010
0100
1000
0010
0100
0010
0001
0010
0100
,  // measure 20
0001
0000
0001
0100
0001
0000
0001
0100
0010
1000
0100
0010
0100
0001
0100
0010
,  // measure 21
0001
0000
0001
0010
0001
0000
0001
0010
0001
0100
0010
0100
1000
0100
0010
0100
,  // measure 22
0101
0000
0010
1000
0000
1000
0100
0000
0011
0000
1000
0010
0100
0001
0010
0100
,  // measure 23
1000
0000
1000
0010
1000
0000
1000
0010
0100
0001
0010
0100
0010
1000
0010
0100
,  // measure 24
1000
0000
1000
0100
1000
0000
1000
0100
0010
0001
0100
0010
0100
1000
0100
0010
,  // measure 25
1000
0000
1000
0010
1000
0000
1000
0010
1000
0100
0010
0100
0001
0100
0010
0001
,  // measure 26
1001
0000
1000
0000
1001
0000
0001
0000
1000
0010
0100
0001
0010
0000
0100
0010
,  // measure 27
0001
0000
0001
0100
1000
0000
1000
0100
0001
0000
0001
0010
1000
0000
1000
0010
,  // measure 28
0001
1000
0001
0100
1000
0000
1000
0100
0001
1000
0001
0010
0100
1000
0010
0100
,  // measure 29
0202
0000
0000
0000
,  // measure 30
0000
0000
0000
0303
,  // measure 31
1100
0000
0000
0110
0000
0000
0021
0000
0000
0000
1030
0000
0010
0001
0100
0000
,  // measure 32
0101
0000
0000
0110
0000
0000
1020
0000
0000
0030
0101
0000
0001
0000
1001
0000
,  // measure 33
1100
0000
1000
0100
0010
0000
0010
0100
0001
0000
0001
0100
0010
0000
0010
0001
,  // measure 34
1001
0000
0000
1010
0000
0000
0201
0000
0010
0000
0000
0000
1300
0100
0010
0100
,  // measure 35
0001
0000
0100
0001
0010
0000
1000
0000
0010
0000
1000
0000
0010
0001
0100
0000
,  // measure 36
1000
0000
0100
0001
0010
0000
0100
0000
1000
0000
0100
0000
1000
0000
1000
0000
,  // measure 37
0001
0000
0001
0100
0010
0000
0010
0100
1000
0000
1000
0100
0010
0000
0010
1000
,  // measure 38
0001
0000
0001
0010
1000
0000
1000
0010
0001
1000
0001
0100
1000
0100
0001
0010
,  // measure 39
0200
0000
0000
0000
,  // measure 40
0000
0000
0000
0000
0000
0000
0000
0000
0310
0001
0010
0001
0010
0001
0010
0001
,  // measure 41
1000
0010
0100
0010
0001
0010
0100
0010
1000
0010
0100
0010
0001
0010
0100
0010
,  // measure 42
1000
0010
0100
0010
0001
0010
0100
0010
1000
0010
0100
0010
0001
0010
0100
0010
,  // measure 43
1000
0100
0001
0100
1000
0010
0001
0010
1000
0100
0001
0100
1000
0010
0001
0010
,  // measure 44
1000
0100
0010
0100
0001
0100
0010
0100
1000
0000
0000
0000
MMMM
0000
0000
0000
,  // measure 45
1000
0010
1000
0010
1000
0010
1000
0001
1000
0001
1000
0001
1000
0100
1000
0100
,  // measure 46
0010
0000
0001
0000
1000
0000
0010
0000
0000
0100
0000
0000
0010
0000
0000
0100
0000
0000
0010
0000
1000
0000
0001
0000
0010
0000
0000
0100
0000
0000
0010
0000
0000
0100
0000
0000
0001
0000
0000
0100
0000
0000
0001
0000
0000
0100
0000
0000
,  // measure 47
1000
0001
0100
0010
1000
0001
0000
0002
0010
0000
0013
0100
1000
0001
1000
0010
,  // measure 48
0100
0010
0001
0010
0000
1000
0000
0200
0010
0000
0310
0001
0100
0010
1000
0000
,  // measure 49
0001
0010
0001
0010
0001
0010
0001
1000
0001
1000
0001
1000
0001
0100
0001
0100
,  // measure 50
0010
0000
1000
0000
0001
0000
0010
0000
0000
0100
0000
0000
0010
0000
0000
0100
0000
0000
0010
0000
0001
0000
1000
0000
0010
0000
0000
0100
0000
0000
0010
0000
0000
0100
0000
0000
1000
0000
0000
0100
0000
0000
1000
0000
0000
0100
0000
0000
,  // measure 51
0001
0010
0100
0010
0001
0100
0000
2000
0000
3100
0010
0000
0020
0000
1030
0000
,  // measure 52
0001
0010
0100
0010
1000
0010
0100
0010
0001
0100
1000
0100
0010
1000
0100
0010
,  // measure 53
0001
0100
0001
0100
0001
0100
0001
1000
0001
1000
0001
1000
0001
0010
0001
0010
,  // measure 54
0100
0000
1000
0000
0001
0000
0100
0000
0000
0010
0000
0000
0100
0000
0000
0010
0000
0000
0100
0000
0001
0000
1000
0000
0100
0000
0000
0010
0000
0000
0100
0000
0000
0010
0000
0000
1000
0000
0000
0010
0000
0000
1000
0000
0000
0010
0000
0000
,  // measure 55
0001
1000
0010
0100
0001
0010
0100
1000
0010
0100
0001
1000
0200
0000
0310
0001
,  // measure 56
0100
0010
0100
1000
0100
0010
1000
0000
1000
0001
0010
0100
0001
0100
0010
0001
,  // measure 57
1000
0100
1000
0100
1000
0100
1000
0001
1000
0001
1000
0001
1000
0010
1000
0010
,  // measure 58
0100
0000
0001
0000
1000
0000
0100
0000
0000
0010
0000
0000
0100
0000
0000
0010
0000
0000
0100
0000
1000
0000
0001
0000
0100
0000
0000
0010
0000
0000
0100
0000
0000
0010
0000
0000
0001
0000
0000
0010
0000
0000
0001
0000
0000
0010
0000
0000
,  // measure 59
1000
0001
0010
0100
1000
0010
0000
0002
0000
0013
1000
0000
2000
0000
3100
0000
,  // measure 60
1000
0010
0100
0010
0001
0010
0100
0010
1000
0100
0001
0100
0010
0001
0100
0010
,  // measure 61
1000
0100
1000
0100
0010
0001
0000
0200
0000
1300
0100
0000
0002
0000
0013
0000
,  // measure 62
0001
0100
0010
0100
1000
0100
0010
0100
0001
0000
0000
0000
MMMM
0000
0000
0000
,  // measure 63
1001
0000
0000
0000
1001
0000
0001
0010
0100
0010
0001
0100
0010
0100
0001
1000
,  // measure 64
1100
0000
0011
0000
1100
0000
1000
0100
0010
0100
1000
0010
0100
0010
1000
0001
,  // measure 65
1000
0100
0001
0100
1000
0000
0001
0100
0010
0100
0001
0010
0100
0010
0001
1000
,  // measure 66
0001
0100
1000
0100
0001
0000
1000
0000
0001
0010
1000
0010
0001
0000
0100
0010
,  // measure 67
1000
0000
1000
0100
1000
0000
1000
0100
0010
0001
0100
0010
0100
1000
0100
0001
,  // measure 68
0010
0000
0010
0100
0010
0000
0010
0100
1000
0001
1000
0010
0100
0010
0001
0010
,  // measure 69
1000
0000
1000
0001
1000
0000
1000
0001
1000
0100
0010
0100
0001
0100
0010
0001
,  // measure 70
1000
0010
1000
0010
0001
0010
0001
0010
1000
0100
1000
0100
0001
0100
0001
0100
,  // measure 71
1000
0010
0100
1000
0100
0010
1000
0001
0010
0100
0001
0100
0010
0001
1000
0010
,  // measure 72
0210
0000
0001
0000
0000
0000
0301
0100
0010
0000
0010
1000
0100
0000
0001
0000
;
