#TITLE:KUSOGE- Pt.2;
#SUBTITLE:;
#ARTIST:Ginsuke;
#TITLETRANSLIT:;
#SUBTITLETRANSLIT:;
#ARTISTTRANSLIT:;
#GENRE:;
#CREDIT:Loodee;
#BANNER:KUSOGE- Pt.2-bn.png;
#BACKGROUND:KUSOGE- Pt.2-bg.png;
#LYRICSPATH:;
#CDTITLE:loodeecdtitle.png;
#MUSIC:KUSOGE- Pt.2.ogg;
#OFFSET:-0.338;
#SAMPLESTART:67.845;
#SAMPLELENGTH:18.000;
#SELECTABLE:YES;
#DISPLAYBPM:160.000;
#BPMS:0.000=160.000,34.000=-160.000,38.000=160.000,42.000=-160.000,46.000=160.000,50.500=-160.000,50.750=160.000,156.000=80.000,158.000=160.000;
#STOPS:42.000=1.687
;
#BGCHANGES:;
#KEYSOUNDS:;

//---------------dance-single - Loodee----------------
#NOTES:
     dance-single:
     Loodee:
     Challenge:
     10:
     0.745,0.974,0.359,0.594,0.797:
0000
0000
0000
0000
,
0000
0000
0000
0000
,
0000
0000
0000
0000
,
0000
0000
0000
0000
,
0000
0000
0000
0000
,
0000
0000
0000
0000
,
0000
0000
0000
0000
0000
0000
0001
1000
0001
0000
0010
0000
0100
0000
1000
0000
0010
0000
0100
0000
0001
0000
0010
0000
0001
0000
0100
0000
0010
0000
1000
0000
,
0001
0010
0001
0010
0100
1000
0100
1000
0010
0000
0100
0000
0001
0000
0100
0000
,
0120
0000
0000
0000
0000
0000
0000
0030
0000
0000
0000
0000
0000
0000
0000
0000
,
0000
0000
0000
0000
,
0000
0000
0000
0000
0000
0000
0000
0000
0000
0000
0000
0000
0000
0000
0000
0000
0000
0000
0000
0000
0000
0000
0000
0000
0000
0000
0000
0000
0000
0000
0000
0000
0000
0000
0000
0000
0000
0000
0000
0000
0000
0000
0000
0000
0000
0000
0000
0000
0000
0000
0000
0000
0000
0000
0000
0000
0000
0000
0000
0000
0000
0000
0000
0000
0000
0000
0000
0000
0000
0000
0000
0000
0000
0000
0000
0000
0000
0000
0000
0000
0000
0000
000M
0000
0000
0000
0000
0000
0000
0000
0000
0000
0000
0000
0000
0000
M000
0000
0000
0000
0000
0000
0000
0000
0000
M000
0000
0000
000M
M000
0000
0000
0000
0000
0000
0M00
0000
0000
0000
0000
0000
0000
0000
0000
0000
0000
0000
0000
00M0
0000
0000
0000
M000
0000
0M00
0000
0000
0000
0000
0000
0000
0000
000M
0000
0000
0000
0000
0M00
0000
0000
00M0
0000
0000
0000
0000
0000
000M
0000
0000
0000
0000
0000
M000
0000
0000
0000
0000
0000
00M0
0000
0000
0000
0000
0000
0M00
0000
0000
0000
0000
0000
000M
0000
0000
0000
0000
0000
0000
0000
0000
M000
0000
0000
,
0000
0000
0000
0000
0000
0000
00M0
0000
0000
0000
0000
0000
0000
0000
0000
0M00
0000
0000
0000
0000
0000
0000
0000
0000
0000
0000
0000
000M
0000
0000
M000
0000
0000
0000
0000
0000
0M00
0000
0000
00M0
0000
0000
0000
0000
0000
0000
0000
0000
0000
0000
0000
M00M
0000
0000
00M0
0000
0000
0000
0000
0000
0M00
0000
0000
00M0
0000
0000
0000
0000
0000
0000
0000
0000
M000
0000
00M0
0000
0000
0000
0M00
00M0
0000
0000
0000
0000
0000
0000
0000
000M
0000
0000
0000
0000
0000
0M00
0000
0000
0000
0000
0000
0000
0000
0000
0000
0000
0000
0000
0000
0000
0000
0000
0000
0000
0000
0000
0000
0000
0000
0000
0000
0000
0000
0000
0000
0000
0000
0000
0000
0000
0000
0000
0000
0000
0000
0000
0000
0000
0000
0000
0000
0000
0000
0000
0000
0000
0000
0000
0000
0000
0000
0000
0000
0000
0000
0000
0000
0000
0000
0000
0000
0000
0000
0000
0000
0000
0000
0000
0000
0000
0000
0000
0000
0000
0000
0000
0000
0000
0000
0000
0000
0000
0000
0000
0000
0000
0000
0000
0000
0000
0000
0000
0000
0000
,
0000
0000
0000
0000
,
0000
0000
0000
0000
,
0000
0000
0000
0000
,
1200
0000
0000
0000
0000
0000
0000
0300
0110
0000
0010
0000
0001
0000
1000
0000
,
0020
0000
0000
0000
0000
0000
0000
0030
1010
0000
1000
0000
0001
0000
0010
0000
,
0210
0000
0000
0310
0011
0001
1000
0010
,
0210
0000
0000
0000
0000
0000
0000
0000
0000
0000
0000
0000
0000
0000
0000
0000
2300
0000
0000
0000
0000
0000
0000
0000
0000
0000
0000
0000
3000
0100
0000
0000
0010
0000
0000
0000
0000
0000
0000
0000
0000
0000
0000
0000
0000
1000
0000
0000
0000
0000
0000
0000
0000
0000
0000
0000
0101
0000
0000
0000
0000
0000
0000
0000
,
0002
0000
0000
0000
0000
0000
0000
0003
0011
0000
0010
0000
0100
0000
1000
0000
,
0200
0000
0000
0000
0000
0000
0000
0300
1100
0000
1000
0000
0010
0000
0100
0000
,
0101
0000
0000
0001
1001
1000
0100
0010
,
0011
0000
0001
1000
0000
0001
1000
0000
1020
0000
0000
0000
0000
0000
0000
0000
,
0130
0000
0000
0001
0000
0000
1000
0000
0000
0100
0000
0000
0010
0000
0000
0000
,
0000
0000
0000
0000
0000
0000
0000
0000
0010
0000
0000
0100
0000
0000
1000
0000
,
0020
0000
0000
0230
0000
0301
0020
0000
,
0000
0000
0000
0031
0010
0100
1000
0100
,
1000
0000
0000
0010
0100
0001
0100
0020
,
0000
0000
0000
0000
0000
0000
0000
0000
1030
0000
0000
0100
0000
0000
0010
0000
,
0002
0000
0000
0203
0000
0310
2000
0000
,
3100
0010
0100
1000
0001
0100
0010
0100
,
0101
0000
0000
0001
0000
0000
0010
0000
0000
0001
0000
0000
1000
0000
0000
1000
,
0000
0000
1000
0000
0000
1000
0000
0000
0010
0000
0000
0100
0000
0000
0001
0000
,
0010
0000
0000
0010
0000
0000
0100
0000
0000
0010
0000
0000
0100
0000
0000
0100
,
0000
0000
0100
0000
0000
0100
0000
0000
1000
0000
0000
0001
0000
0000
0100
0000
,
0002
0000
0000
0000
0003
0000
0000
0000
0000
0200
0000
0000
0000
0300
0000
0000
0000
0000
0020
0000
0000
0000
0030
0000
0000
0000
0000
2000
0000
0000
0000
3000
0000
0000
0000
0000
0020
0000
0000
0000
0030
0000
0000
0000
0000
0010
0000
0000
,
0000
0000
0010
0000
0000
0010
0000
0000
0100
0000
0000
0001
0000
0000
1000
0000
,
0100
0000
0000
0100
0000
0000
0010
0000
0000
0100
0000
0000
1000
0000
0000
1000
,
0000
0000
1000
0000
0000
1000
0000
0000
1010
0000
0000
0100
0000
0000
1001
0000
,
0011
0000
0000
0000
0000
0000
0000
0000
2001
0000
0000
0000
0020
0000
0000
0030
,
3001
0000
0010
0000
2000
0000
0000
3000
2000
0000
0000
3000
0010
0000
0001
0000
,
1000
0000
0001
0000
0200
0000
0000
0300
1020
0000
0000
0000
0000
0000
0000
0000
,
1030
0000
0000
0000
0000
0000
0000
0000
0100
0000
0000
0000
0000
0000
0000
0000
0002
0000
0000
0000
0000
0000
0000
0000
0000
0000
0000
0000
0003
0000
0000
0000
0002
0000
0000
0000
0000
0000
0000
0000
0000
0000
0000
0000
0003
0000
0000
0000
0100
0000
0000
0000
0000
0000
0000
0000
0010
0000
0000
0000
0000
0001
0000
0000
,
1000
0000
0000
0000
0101
0000
0000
0000
2010
0000
0000
0000
0200
0000
0000
0300
,
3001
0000
0100
0000
2000
0000
0000
3000
2000
0000
0000
3000
0100
0000
0010
0000
,
1000
0000
0001
0000
0020
0000
0000
0030
0120
0000
0000
0000
0000
0000
0031
0000
,
1002
0000
0000
0000
0000
0000
0000
0000
0000
0000
0000
0000
0000
0000
0000
0000
0000
0000
0000
0000
0000
0000
0000
0000
0103
0000
0000
0000
0000
0000
0000
0000
2010
0000
0000
0000
0000
0000
0000
0000
0000
0000
0000
0000
0000
0000
0000
0000
3001
0000
0000
0000
0000
0000
0000
0000
0010
0000
0000
0000
0000
0100
0000
0000
,
1000
0000
0000
0000
0000
0000
0000
0000
0000
0000
0000
0000
0000
1100
0000
0000
0000
0000
0000
0000
0000
0100
0000
0000
0010
0000
0000
0000
0000
0000
0000
0000
0012
0000
0000
0000
0000
0000
0000
0000
0000
0000
0000
0000
0000
0000
0000
0000
0200
0000
0000
0000
0000
0000
0000
0000
0000
0000
0000
0000
0300
0000
0000
0000
,
1003
0000
0010
0000
0002
0000
0000
0003
0002
0000
0000
0003
0010
0000
1000
0000
,
0001
0000
0010
0000
0200
0000
0000
0300
2100
0000
0000
0000
0000
0000
0000
0000
,
3001
0000
0000
0000
0000
0000
0000
0000
0100
0000
0000
0000
0000
0000
0000
0000
2000
0000
0000
0000
0000
0000
0000
0000
0000
0000
0000
0000
3000
0000
0000
0000
2000
0000
0000
0000
0000
0000
0000
0000
0000
0000
0000
0000
3000
0000
0000
0000
0100
0000
0000
0000
0000
0000
0000
0000
0001
0000
0000
0000
0000
1000
0000
0000
,
0001
0000
0000
0000
0000
0000
0000
0000
0000
0000
0000
0000
0000
0010
0000
0000
0000
0000
0000
0000
0000
0000
0000
0000
0110
0000
0000
0000
0000
0000
0000
0000
0012
0000
0000
0000
0000
0000
0000
0000
0000
0000
0000
0000
0000
0000
0000
0000
2000
0000
0000
0000
0000
0000
0000
0000
0000
0000
0000
0000
3000
0000
0000
0000
,
0103
0000
0010
0000
0002
0000
0000
0003
0002
0000
0000
0003
0010
0000
0100
0000
,
0001
0000
1000
0000
0002
0000
0000
0003
0021
0000
0000
0000
0000
0000
0130
0000
,
2100
0000
0000
3010
0201
0000
0310
1000
,
0001
0010
0001
0100
0010
1000
1002
0000
0000
0000
0000
0000
,
0103
0010
1000
0010
0100
0010
1000
0100
0010
0100
1000
0100
,
0010
0001
0100
0001
0010
0001
2000
0000
0000
0000
0000
0000
,
3100
0010
0001
0100
0010
0100
0001
0010
0100
0010
0001
0100
,
0001
1000
0100
1000
0010
1000
0200
0000
0000
0000
0000
0000
,
0310
0001
0100
0010
1000
0010
0100
0001
0100
0010
1000
0100
,
1000
0010
1000
0001
0100
0010
1000
0100
0010
0001
0010
0100
,
2000
0000
0000
0000
3020
0000
0000
0000
0130
0000
0000
0100
0000
0000
0100
0000
,
1001
0000
0012
0000
,
1003
0010
0100
0010
1000
0010
0100
0001
0010
0100
1000
0100
,
0010
0001
0100
0010
1000
0001
0200
0000
0000
0000
0000
0000
,
0301
0010
0001
1000
0001
1000
0010
0100
0010
1000
0100
0010
,
0001
0100
0010
1000
0010
0100
0002
0000
0000
0000
0000
0000
,
0013
0100
0010
0100
1000
0100
1000
0010
0100
0001
0100
0010
,
0100
0001
1000
0100
1000
0001
0010
0001
0100
0010
1000
0100
,
2000
0000
0000
0000
3002
0000
0000
0000
0103
0000
0000
0100
0000
0000
0100
0000
,
1010
0000
M000
000M
0011
0001
1000
0010
,
0100
0001
0100
0010
1000
0100
0010
0100
,
1000
0000
0001
0100
0010
0000
1000
0000
0001
0000
0010
0000
0100
0000
0010
0000
,
0001
0000
0100
0000
0010
0000
0100
0001
1000
0000
0100
0010
0100
0000
1000
0000
,
0010
0100
0001
0010
0100
0010
0001
1000
,
0010
0100
0010
1000
0100
0010
0001
0100
,
0001
0000
0010
0001
0100
0000
0010
0000
1000
0000
0010
0000
0100
0000
0001
0000
,
1000
0000
0010
0000
0100
0000
0001
0010
0100
0000
0010
0001
1000
0000
0010
0000
,
0100
0001
0010
0001
0000
0000
0000
0000
;
