#TITLE:Holiday;
#SUBTITLE:;
#ARTIST:소녀시대;
#TITLETRANSLIT:;
#SUBTITLETRANSLIT:;
#ARTISTTRANSLIT:Girls’ Generation;
#GENRE:K-Pop;
#CREDIT:Koreaboo;
#BANNER:Holiday-bn.png;
#BACKGROUND:Holiday-bg.png;
#LYRICSPATH:;
#CDTITLE:;
#MUSIC:GG Holiday.ogg;
#OFFSET:-0.127000;
#SAMPLESTART:48.126999;
#SAMPLELENGTH:16.000000;
#SELECTABLE:YES;
#BPMS:0.000000=120.000000
;
#STOPS:
;
#BGCHANGES:0.000=Holiday.avi=1.000=1=0=0=StretchNoLoop==CrossFade==,
292.000=Holiday-bg.png=1.000=1=0=1===CrossFade==,
99999=-nosongbg-=1.000=0=0=0 // don't automatically add -songbackground-
;
#KEYSOUNDS:;
#ATTACKS:;

//---------------dance-single - Koreaboo----------------
#NOTES:
     dance-single:
     Koreaboo:
     Challenge:
     9:
     0.661553,0.587919,0.295302,0.657718,0.392617,548.000000,44.000000,98.000000,0.000000,0.000000,0.000000,0.661553,0.587919,0.295302,0.657718,0.392617,548.000000,44.000000,98.000000,0.000000,0.000000,0.000000:
// measure 0
0000
0000
0000
0000
,  // measure 1
0000
0000
0000
0000
,  // measure 2
0000
0000
0000
0002
,  // measure 3
0000
0000
0000
0000
0000
0000
0000
0000
0003
0000
1000
0100
0010
0000
0100
0000
,  // measure 4
1100
0000
0000
0000
1100
0000
0000
0000
2100
0000
3001
1000
0000
0000
0010
0000
,  // measure 5
0100
0000
0100
0000
0200
0000
0301
1000
0000
0000
0200
0000
0000
0000
0000
0300
,  // measure 6
0110
0000
0000
0000
0110
0000
0000
0000
0120
0000
0031
1000
0001
0100
0010
1000
,  // measure 7
0001
0000
0001
0000
0002
0000
1003
0100
0000
0000
0010
0000
0001
0000
1000
0000
,  // measure 8
1020
0000
0130
0001
0010
0100
1000
0000
,  // measure 9
0001
0000
0100
0000
0001
0000
1000
0100
0000
0000
0010
0000
0001
0000
1000
0000
,  // measure 10
0020
0000
0000
0130
0001
0000
0000
0001
1000
0000
0000
0000
0100
0010
0001
1000
,  // measure 11
0010
0000
0000
0110
0000
0000
0102
0000
0000
0000
1003
0000
0001
0000
0010
0000
,  // measure 12
0210
0000
1300
0001
0100
0010
1000
0100
,  // measure 13
0010
0000
0001
0000
1000
0000
0010
0100
0000
0000
0001
0000
1000
0000
0100
0000
,  // measure 14
0020
0000
0000
0130
1000
0000
0000
1000
0001
0000
0000
0000
0100
0010
1000
0001
,  // measure 15
0010
0000
0000
0110
0000
0000
2100
0000
0000
0000
3001
0000
1000
0000
0010
0000
,  // measure 16
0210
0000
0301
1000
0000
1000
0100
0000
0020
0000
0031
1000
0000
1000
0001
0000
,  // measure 17
0200
0000
0301
1000
0000
1000
0100
0000
0002
0000
0003
0000
0200
0000
0000
0300
,  // measure 18
0120
0000
0031
1000
0000
1000
0010
0000
0200
0000
0301
1000
0000
1000
0100
0000
,  // measure 19
0002
0003
0200
0300
0020
0031
0002
0003
,  // measure 20
1002
0000
0000
0203
0000
0000
0310
0000
2000
0000
3001
0010
0000
0010
0100
0000
,  // measure 21
2000
0000
3001
1000
0000
1000
0010
0000
0002
0000
0003
0000
0010
1000
0001
0010
,  // measure 22
1000
0000
0000
0010
0000
0000
0001
0000
0000
0000
0001
0000
1000
0000
0010
0000
,  // measure 23
0100
0100
0001
1000
0100
0020
0001
0230
,  // measure 24
0310
0000
0100
0000
1100
0000
0000
0000
1000
0000
0001
1000
0100
0000
0010
0100
,  // measure 25
2000
0000
0000
3002
0000
0000
0203
0000
0310
0000
1000
0000
0001
0000
0010
0000
,  // measure 26
0200
0000
1300
0001
0000
0001
0100
0000
0010
0000
1000
0000
0100
0000
0002
0000
,  // measure 27
0000
0000
0103
0000
0010
0000
0002
0000
0000
0003
1000
0000
0010
0000
0100
0000
,  // measure 28
0001
0000
0011
0000
1010
0000
0000
0000
0001
0000
1000
0001
0010
0000
0100
1000
,  // measure 29
0002
0000
0000
0203
0000
0000
0320
0000
1030
0000
0001
0000
0010
0000
0100
0000
,  // measure 30
2000
0000
3001
1000
0000
1000
0020
0000
0130
0000
0001
0000
0010
0000
2000
0000
,  // measure 31
0000
0000
3010
0000
0100
0000
2000
0000
0000
3000
0001
0000
0100
0000
0010
0000
,  // measure 32
1000
0000
0001
1000
0100
0000
0010
0000
0001
0000
1000
0000
0010
0000
0100
0000
,  // measure 33
0001
1000
0100
0010
0001
1000
0010
0100
,  // measure 34
0010
0001
0010
0100
0001
1000
0100
0012
,  // measure 35
0000
0000
1003
0000
1000
0000
1000
0000
1000
0001
0000
0000
0101
0000
0000
0000
,  // measure 36
1010
0000
0000
0000
1010
0000
0000
0000
1020
0000
1030
0001
0000
0000
0010
0000
,  // measure 37
0100
0000
0100
0000
0200
0000
1300
0001
0000
0000
0200
0000
0000
0000
0000
0000
,  // measure 38
0310
0000
0000
0000
1010
0000
0000
0000
1020
0000
0130
0001
1000
0100
0010
0001
,  // measure 39
1000
0000
1000
0000
2000
0000
3001
0100
0000
0000
0010
1000
0001
0000
0000
0000
,  // measure 40
2000
0000
0000
3200
0000
0000
0320
0000
0000
0000
0000
0000
0000
0000
0031
0000
,  // measure 41
1000
0010
0100
0001
1000
0000
0001
1000
0100
0000
0010
0100
0000
1000
0001
0100
,  // measure 42
0010
0000
0100
0001
1000
0000
0001
1000
0100
0000
0010
0001
0000
1000
0001
0100
,  // measure 43
0010
0000
0000
0000
1010
0000
0000
0000
1010
0000
0001
0000
0001
0000
0001
1000
,  // measure 44
0100
0010
0100
1000
0001
1000
0010
0100
0002
0000
1003
0200
0000
0000
0310
0000
,  // measure 45
0012
0000
0000
0000
1000
0000
0000
0000
0103
0000
0001
0000
1000
0000
0100
0010
,  // measure 46
0000
0010
0001
0000
1000
0000
0010
0200
0000
0000
0301
0000
1000
0000
0100
0000
,  // measure 47
0120
0000
0000
0000
0031
0000
1000
0000
0010
0000
0000
0000
0100
0010
1000
0001
,  // measure 48
0010
0000
0100
1000
0001
0000
0100
0000
0020
0000
0000
0030
1000
0000
0001
0000
,  // measure 49
0021
0000
0130
1000
0000
1000
0001
0000
0200
0000
0310
1000
0000
1000
0001
0000
,  // measure 50
0020
0000
0130
1000
0000
1000
0010
0000
0002
0000
0000
0003
0020
0000
0000
0030
,  // measure 51
0120
0000
1030
0001
0000
0001
1000
0000
0200
0000
0310
0001
0000
0001
0010
0000
,  // measure 52
2000
3000
0020
0030
0200
1300
2000
3000
,  // measure 53
2001
0000
3001
0100
0000
0100
0010
0000
2000
0000
3001
1000
0000
1000
0100
0000
,  // measure 54
0020
0000
0031
1000
0000
1000
0010
0000
0002
0000
0013
0000
0100
0010
1000
0001
,  // measure 55
0020
0000
0000
0230
0000
0000
2300
0000
0000
0000
3001
0000
1000
0000
0010
0000
,  // measure 56
0100
0100
0001
1000
0100
0010
0002
2003
,  // measure 57
3020
0000
0130
0000
0102
0000
0000
0000
1003
0000
0001
1000
0100
0000
0010
0000
,  // measure 58
0002
0000
0000
2003
0000
0000
3020
0000
0130
0000
0001
0000
1000
0000
0100
0000
,  // measure 59
0210
0000
0310
0001
0000
0001
1000
0000
0001
0000
0010
0000
0100
0000
0002
0000
,  // measure 60
0000
0103
0010
0002
0000
1003
0010
0100
,  // measure 61
0001
0000
1100
0000
0101
0000
0000
0000
1000
0000
0001
1000
0100
0000
1000
0001
,  // measure 62
0200
0000
0000
0320
0000
0000
2030
0000
3001
0000
0010
0000
0100
0000
0010
0000
,  // measure 63
0001
0000
1000
0010
0000
0010
0200
0000
0301
0000
1000
0000
0100
0000
0002
0000
,  // measure 64
0000
0103
1000
0002
0000
1003
0010
0100
,  // measure 65
0001
0000
1000
0001
0010
0000
0001
0000
1000
0000
0010
0000
0100
0000
0001
0000
,  // measure 66
1000
0001
0010
0100
1000
0001
0100
0010
,  // measure 67
0100
1000
0100
0010
1000
0001
0010
2100
,  // measure 68
0000
0000
3001
0000
0001
0000
0001
0000
0001
1000
0000
0000
1010
0000
0000
0000
,  // measure 69
0101
0000
0000
0000
0101
0000
0000
0000
0201
0000
0301
1000
0000
0000
0100
0000
,  // measure 70
0010
0000
0010
0000
0020
0000
0031
1000
0000
0000
0020
0000
0000
0000
0000
0000
,  // measure 71
0130
0000
0000
0000
0101
0000
0000
0000
0201
0000
0310
1000
0001
0010
0100
1000
,  // measure 72
0001
0000
0001
0000
0002
0000
1003
0010
0000
0000
0100
0001
1000
0000
0100
0000
,  // measure 73
0110
0000
0000
0000
;

//---------------dance-single - Kimchi----------------
#NOTES:
     dance-single:
     Kimchi:
     Hard:
     8:
     0.485139,0.440940,0.201342,0.476510,0.117450,405.000000,30.000000,71.000000,0.000000,0.000000,0.000000,0.485139,0.440940,0.201342,0.476510,0.117450,405.000000,30.000000,71.000000,0.000000,0.000000,0.000000:
// measure 0
0000
0000
0000
0000
,  // measure 1
0000
0000
0000
0000
,  // measure 2
0000
0000
0000
0000
,  // measure 3
0000
0000
0000
0000
0000
0000
0000
0000
0000
0000
1000
0100
0010
0000
0000
0000
,  // measure 4
0011
0000
0011
0000
0021
0031
1000
0000
,  // measure 5
0001
0000
0001
0000
0002
0000
1003
0000
0100
0000
0020
0000
0000
0000
0000
0030
,  // measure 6
0011
0000
0011
0000
0021
0031
1000
0000
,  // measure 7
0010
0010
0020
0130
0001
1000
0100
0010
,  // measure 8
0002
0000
0003
1000
0010
0100
0001
0000
,  // measure 9
0001
0100
0001
1000
0010
0100
0001
1000
,  // measure 10
0100
0000
0010
0000
0001
0000
0100
0010
,  // measure 11
1000
0000
0000
1010
0000
0000
0120
0000
0000
0000
1030
0000
0001
0000
0010
0000
,  // measure 12
0200
0000
1300
0001
0100
0010
1000
0000
,  // measure 13
0100
0010
0001
1000
0010
0100
0001
1000
,  // measure 14
0100
0000
0010
0000
0001
0000
0100
0010
,  // measure 15
1000
0000
0000
1001
0000
0000
0021
0000
0000
0000
0031
0000
0000
0000
0000
0000
,  // measure 16
1000
0000
0000
1000
0000
0000
0100
0000
0010
0000
0000
0010
0000
0000
0001
0000
,  // measure 17
1000
0000
0000
1000
0000
0000
0010
0000
0100
0000
0000
0000
0002
0000
0000
0000
,  // measure 18
1003
0000
0000
1000
0000
0000
0001
0000
0010
0000
0000
0010
0000
0000
0100
0000
,  // measure 19
0001
0100
0010
0001
,  // measure 20
1000
0000
0000
1000
0000
0000
0010
0000
0100
0000
0000
0100
0000
0000
0001
0000
,  // measure 21
1000
0000
0000
1000
0000
0000
0001
0000
0010
0000
0000
0000
0100
0000
1000
0000
,  // measure 22
0001
0000
0000
0100
0000
0000
0010
0000
0000
0000
1000
0000
0001
0000
0020
0000
,  // measure 23
0000
0130
1000
0002
0000
0203
0000
0310
,  // measure 24
1000
0000
1001
0000
1000
0001
0100
0001
,  // measure 25
0200
0000
0000
0302
0000
0000
2003
0000
3100
0000
0000
0000
1000
0000
0001
0000
,  // measure 26
0200
0000
0300
0010
0000
0000
1000
0000
0001
0000
0010
0000
0100
0000
0002
0000
,  // measure 27
0000
0000
0103
0000
0010
0000
0002
0000
0000
0003
2000
0000
0000
0000
3010
0000
,  // measure 28
0000
0100
0101
0000
0001
1000
0100
1000
,  // measure 29
0200
0000
0000
2300
0000
0000
3002
0000
0103
0000
0000
0000
0001
0000
1000
0000
,  // measure 30
0020
0000
0030
0100
0000
0000
0001
0000
1000
0000
0100
0000
0010
0000
2000
0000
,  // measure 31
0000
0000
3010
0000
0100
0000
2000
0000
0000
3000
0002
0000
0000
0000
0103
0000
,  // measure 32
0020
0000
0000
1030
0000
0000
0001
0000
0000
0000
0010
0000
0100
0000
2000
0000
,  // measure 33
0000
3001
0100
0010
0000
1000
0001
0020
,  // measure 34
0000
0031
1000
0010
0000
0100
0010
2000
,  // measure 35
0000
3001
0010
0100
0000
1000
0000
1000
,  // measure 36
0001
0000
1001
0000
1002
1003
0001
0000
,  // measure 37
0100
0100
0200
0310
1000
0200
0000
0000
,  // measure 38
0310
0000
0011
0000
0012
0013
0100
0000
,  // measure 39
1000
0000
1000
0000
2000
0000
3001
0000
0100
0000
0010
0100
0001
0000
0000
0000
,  // measure 40
2000
0000
0000
3002
0000
0000
0203
0000
0000
0000
0000
0000
0000
0000
0300
0000
,  // measure 41
0001
1000
0100
0010
0100
1000
0001
0000
,  // measure 42
1000
0001
0100
0010
0100
0001
1000
0000
,  // measure 43
1001
1001
1001
1001
,  // measure 44
0011
0000
0000
0110
0000
0000
2100
0000
0000
0000
0000
0000
3001
0000
0100
0000
,  // measure 45
0020
0000
0000
0000
0130
0001
1000
0010
,  // measure 46
0100
0001
1000
0100
0010
0001
0000
1000
,  // measure 47
0020
0000
0130
0001
1000
0000
0100
0010
,  // measure 48
1000
0000
0010
0000
0100
0000
1000
0000
0002
0000
0000
0000
0023
0000
0000
0030
,  // measure 49
0001
0000
0000
0001
0000
0000
0100
0000
0010
0000
0000
0010
0000
0000
1000
0000
,  // measure 50
0001
0000
0000
0001
0000
0000
1000
0000
0100
0000
0000
0000
0020
0000
0000
0000
,  // measure 51
0031
0000
0000
0001
0000
0000
1000
0000
0100
0000
0000
0100
0000
0000
0010
0000
,  // measure 52
1000
0010
0100
1000
,  // measure 53
0001
0000
0000
0001
0000
0000
0100
0000
0010
0000
0000
0010
0000
0000
1000
0000
,  // measure 54
0001
0000
0000
0001
0000
0000
1000
0000
0100
0000
0000
0000
0010
0000
0001
0000
,  // measure 55
1000
0000
0000
0010
0000
0000
0100
0000
0000
0000
0001
0000
1000
0000
0200
0000
,  // measure 56
0000
0310
0001
2000
0000
3010
0100
0001
,  // measure 57
2000
3000
1001
0000
0001
1000
0010
1000
,  // measure 58
0020
0000
0000
2030
0000
0000
3002
0000
0013
0000
0000
0000
0001
0000
1000
0000
,  // measure 59
0020
0000
0030
0100
0000
0000
0001
0000
1000
0000
0100
0000
0010
0000
2000
0000
,  // measure 60
0000
0000
3010
0000
0100
0000
2000
0000
0000
3000
0002
0000
0000
0000
0103
0000
,  // measure 61
0000
0010
1010
0000
1000
0001
0010
0001
,  // measure 62
0020
0000
0000
0032
0000
0000
2003
0000
3010
0000
0000
0000
1000
0000
0001
0000
,  // measure 63
0200
0000
0300
0010
0000
0000
1000
0000
0001
0000
0010
0000
0100
0000
0002
0000
,  // measure 64
0000
0000
0103
0000
0010
0000
0002
0000
0000
0003
2000
0000
0000
0000
3010
0000
,  // measure 65
0200
0000
0000
0301
0000
0000
1000
0000
0000
0000
0100
0000
0010
0000
0002
0000
,  // measure 66
0000
1003
0010
0100
0000
0001
1000
0200
,  // measure 67
0000
1300
0001
0100
0000
0010
0100
0002
,  // measure 68
0000
1003
0100
0010
0000
0001
0000
0001
,  // measure 69
1000
0000
1001
0000
2001
3001
1000
0000
,  // measure 70
0010
0010
0020
0130
0001
0020
0000
0000
,  // measure 71
0130
0000
1100
0000
2100
3100
0010
0000
,  // measure 72
0001
0000
0001
0000
0002
0000
1003
0000
0010
0000
0100
0010
1000
0000
0001
0000
,  // measure 73
1001
0000
0000
0000
;

//---------------dance-single - Bulgogi----------------
#NOTES:
     dance-single:
     Bulgogi:
     Beginner:
     2:
     0.151486,0.171477,0.046980,0.000000,0.000000,151.000000,7.000000,0.000000,0.000000,0.000000,0.000000,0.151486,0.171477,0.046980,0.000000,0.000000,151.000000,7.000000,0.000000,0.000000,0.000000,0.000000:
// measure 0
0000
0000
0000
0000
,  // measure 1
0000
0000
0000
0000
,  // measure 2
0000
0000
0000
0000
,  // measure 3
0000
0000
0000
0000
,  // measure 4
1001
0000
0000
0000
,  // measure 5
1000
0000
0000
0000
,  // measure 6
0100
0000
0000
0000
,  // measure 7
0010
0000
0000
0000
,  // measure 8
1100
0000
0001
0000
,  // measure 9
1000
1000
1000
0000
,  // measure 10
0101
0000
1000
0000
,  // measure 11
0010
0010
0010
0000
,  // measure 12
1000
0000
0001
0000
,  // measure 13
0100
0100
0100
0000
,  // measure 14
0010
0000
1000
0000
,  // measure 15
1000
1000
1000
0000
,  // measure 16
0100
0010
0100
0000
,  // measure 17
1000
0001
1000
0000
,  // measure 18
0001
0100
0001
0000
,  // measure 19
1000
0010
1000
0000
,  // measure 20
0100
0010
0100
0000
,  // measure 21
0010
0100
0010
0000
,  // measure 22
0001
1000
0001
0000
,  // measure 23
0010
0010
0010
0010
,  // measure 24
0100
1100
0001
0000
,  // measure 25
1000
0000
0100
0000
,  // measure 26
0010
0000
0100
0000
,  // measure 27
1000
0000
0001
0000
,  // measure 28
0100
1010
0010
0000
,  // measure 29
0100
0000
0001
0000
,  // measure 30
1000
0000
0100
0000
,  // measure 31
1000
0000
0001
0000
,  // measure 32
0100
0000
0010
0000
,  // measure 33
0100
0000
0001
0000
,  // measure 34
1000
0000
1000
0000
,  // measure 35
0010
0000
0100
0000
,  // measure 36
0010
0000
1000
0000
,  // measure 37
1000
0000
0010
0000
,  // measure 38
0100
0000
0001
0000
,  // measure 39
1000
0000
0010
0000
,  // measure 40
1000
0000
0000
0000
,  // measure 41
0001
0000
1000
0000
,  // measure 42
0010
0000
0100
0000
,  // measure 43
0001
0000
0001
0000
,  // measure 44
0001
0000
1000
0000
,  // measure 45
0100
0000
0010
0000
,  // measure 46
0100
0000
1000
0000
,  // measure 47
0001
0000
0100
0000
,  // measure 48
0010
0000
0100
0000
,  // measure 49
0001
0000
1000
0000
,  // measure 50
0100
0000
1000
0000
,  // measure 51
0001
0000
0100
0000
,  // measure 52
0010
0000
0100
0000
,  // measure 53
0001
0000
1000
0000
,  // measure 54
0100
0000
1000
0000
,  // measure 55
0001
0000
0100
0000
,  // measure 56
0010
0000
1000
0000
,  // measure 57
0010
1010
1000
0000
,  // measure 58
0001
0000
0010
0000
,  // measure 59
0100
0000
0010
0000
,  // measure 60
0001
0000
1000
0000
,  // measure 61
0010
0101
0100
0000
,  // measure 62
0010
0000
1000
0000
,  // measure 63
0001
0000
0010
0000
,  // measure 64
0001
0000
1000
0000
,  // measure 65
0010
0000
0100
0000
,  // measure 66
0010
0000
1000
0000
,  // measure 67
0001
0000
0001
0000
,  // measure 68
0100
0000
0010
0000
,  // measure 69
0100
0000
1000
0000
,  // measure 70
0001
0000
0100
0000
,  // measure 71
0010
0000
1000
0000
,  // measure 72
0001
0000
0100
0000
,  // measure 73
1000
0000
0000
0000
;

//---------------dance-single - Bibimbap----------------
#NOTES:
     dance-single:
     Bibimbap:
     Easy:
     4:
     0.265580,0.244966,0.040268,0.013423,0.000000,269.000000,6.000000,2.000000,0.000000,0.000000,0.000000,0.265580,0.244966,0.040268,0.013423,0.000000,269.000000,6.000000,2.000000,0.000000,0.000000,0.000000:
// measure 0
0000
0000
0000
0000
,  // measure 1
0000
0000
0000
0000
,  // measure 2
0000
0000
0000
0000
,  // measure 3
0000
0000
0000
0000
,  // measure 4
1000
1000
1000
0001
,  // measure 5
0100
0100
0010
1000
,  // measure 6
0001
0001
0001
1000
,  // measure 7
0100
0100
0010
0001
,  // measure 8
2001
3010
0100
0001
,  // measure 9
1000
0100
0010
0100
,  // measure 10
1000
0001
0100
0010
,  // measure 11
0100
0001
1000
0100
,  // measure 12
2100
3001
0100
0010
,  // measure 13
1000
0001
1000
0001
,  // measure 14
1000
0100
0010
0100
,  // measure 15
1000
0001
0100
0010
,  // measure 16
1000
1000
0100
0100
,  // measure 17
0010
0010
0001
0000
,  // measure 18
1000
1000
0010
0010
,  // measure 19
0100
0001
1000
0100
,  // measure 20
0010
0010
0001
0001
,  // measure 21
1000
1000
0010
0000
,  // measure 22
0100
0001
1000
0100
,  // measure 23
0010
0001
1000
0010
,  // measure 24
0100
0101
1000
0100
,  // measure 25
1000
0001
0100
0010
,  // measure 26
1000
0001
0010
0100
,  // measure 27
0010
0001
1000
0010
,  // measure 28
0100
0010
0100
0001
,  // measure 29
1000
0100
1000
0001
,  // measure 30
0100
0010
0100
0001
,  // measure 31
1000
0100
1000
0001
,  // measure 32
0100
0010
0100
0001
,  // measure 33
1000
0100
1000
0001
,  // measure 34
0100
0010
1000
0001
,  // measure 35
0010
0100
1000
0001
,  // measure 36
0100
0100
0100
0001
,  // measure 37
1000
1000
0010
0100
,  // measure 38
0001
0001
0001
1000
,  // measure 39
0100
0100
0010
0000
,  // measure 40
0000
0000
0000
0000
,  // measure 41
1001
1000
0010
0100
,  // measure 42
0010
1000
0001
0010
,  // measure 43
0100
0010
0001
1000
,  // measure 44
0010
0100
0001
1000
,  // measure 45
0100
1000
0001
0100
,  // measure 46
0010
1000
0001
0010
,  // measure 47
0100
1000
0001
0100
,  // measure 48
0010
0100
0001
1000
,  // measure 49
0100
1000
0001
0100
,  // measure 50
0010
0100
0001
1000
,  // measure 51
0100
1000
0001
0100
,  // measure 52
0010
0100
0001
1000
,  // measure 53
0100
1000
0001
0100
,  // measure 54
0010
1000
0001
0010
,  // measure 55
0100
1000
0001
0100
,  // measure 56
0010
0100
0001
1000
,  // measure 57
0010
1010
0001
0010
,  // measure 58
0001
1000
0010
0100
,  // measure 59
0001
1000
0100
0010
,  // measure 60
0100
1000
0001
0100
,  // measure 61
0010
0100
0010
1000
,  // measure 62
0001
0010
0001
1000
,  // measure 63
0010
0100
0010
1000
,  // measure 64
0001
0010
0001
1000
,  // measure 65
0010
0100
0010
1000
,  // measure 66
0001
0010
0001
1000
,  // measure 67
0010
0100
0001
1000
,  // measure 68
0100
0010
0001
1000
,  // measure 69
0010
0010
0010
1000
,  // measure 70
0001
0001
0100
0010
,  // measure 71
1000
1000
1000
0001
,  // measure 72
0010
0010
0100
0000
,  // measure 73
1100
0000
0000
0000
;

//---------------dance-single - KBBQ----------------
#NOTES:
     dance-single:
     KBBQ:
     Medium:
     6:
     0.330777,0.318456,0.120805,0.026846,0.006711,323.000000,18.000000,4.000000,0.000000,0.000000,0.000000,0.330777,0.318456,0.120805,0.026846,0.006711,323.000000,18.000000,4.000000,0.000000,0.000000,0.000000:
// measure 0
0000
0000
0000
0000
,  // measure 1
0000
0000
0000
0000
,  // measure 2
0000
0000
0000
0000
,  // measure 3
0000
0000
0000
0000
,  // measure 4
1000
1100
1000
0001
,  // measure 5
0100
0100
0100
0000
0010
0000
1000
0000
,  // measure 6
0001
1001
0001
0010
,  // measure 7
0100
0100
0100
0000
1000
0000
0001
1000
,  // measure 8
0010
0100
0001
1000
,  // measure 9
0100
0010
0100
0000
1000
0000
0001
0000
,  // measure 10
1000
0010
0100
0001
,  // measure 11
1000
0000
0000
1000
0000
0000
1000
0000
0000
0000
0000
0000
0100
0000
0010
0000
,  // measure 12
0001
1000
0010
0100
,  // measure 13
0001
0000
1000
0100
1000
0000
0001
0000
,  // measure 14
0100
0010
0100
0001
,  // measure 15
1000
0000
0000
1000
0000
0000
1000
0000
0000
0000
0000
0000
0100
0000
0000
0000
,  // measure 16
0010
0001
1000
0010
,  // measure 17
0100
0000
0001
1000
0100
0000
0010
0000
,  // measure 18
0001
1000
0010
0100
,  // measure 19
0101
1001
1100
0110
,  // measure 20
0001
1000
0010
0100
,  // measure 21
0001
0000
1000
0100
0010
0000
0001
0000
,  // measure 22
1000
0010
0100
0001
,  // measure 23
1000
0001
1000
0001
0010
0100
1000
0001
,  // measure 24
1000
1001
1000
0010
,  // measure 25
0100
0000
0001
0000
1000
0000
0100
0010
,  // measure 26
0001
1000
0010
0100
,  // measure 27
0001
0000
1000
0000
0100
0000
0010
0100
,  // measure 28
1000
0001
0001
0000
0100
0000
0010
0000
,  // measure 29
1000
0000
0001
0000
0010
0000
0100
1000
,  // measure 30
0001
0100
0010
1000
,  // measure 31
0001
0000
0010
0000
0100
0000
1000
0001
,  // measure 32
0200
0000
0310
0000
1000
0001
0010
0000
,  // measure 33
0010
0000
0100
1000
0001
0000
1000
0000
,  // measure 34
0010
0100
0001
0000
1000
0000
0100
0010
,  // measure 35
0000
0001
1000
0001
1000
0000
0001
0000
,  // measure 36
0001
0101
0001
1000
,  // measure 37
0100
0100
0100
0000
1000
0000
0002
0000
,  // measure 38
0103
0101
0100
0010
,  // measure 39
1000
1000
1000
0000
0001
0000
0010
0000
,  // measure 40
0000
0000
0000
0000
,  // measure 41
1001
0000
1000
0000
0010
0100
0001
0000
,  // measure 42
1000
0000
0100
0000
0010
0001
1000
0000
,  // measure 43
0010
0000
0100
0000
0010
1000
0001
0000
,  // measure 44
0010
0000
0100
0000
1000
0001
0100
0000
,  // measure 45
0010
0000
1000
0000
0001
1000
0010
0000
,  // measure 46
0100
0000
0001
0000
1000
0100
0010
0000
,  // measure 47
0100
0000
1000
0000
0001
0100
0010
0000
,  // measure 48
0100
0000
0001
0000
1000
0100
0010
0000
,  // measure 49
0100
1000
0001
0100
,  // measure 50
0010
0000
1000
0001
0010
0000
0100
0000
,  // measure 51
1000
0001
0100
0010
,  // measure 52
1010
1001
0011
0110
,  // measure 53
1000
0001
0100
0010
,  // measure 54
1000
0000
0001
0010
0100
0000
1000
0000
,  // measure 55
0001
0100
0010
1000
,  // measure 56
0001
1000
0001
1000
0100
0010
0001
1000
,  // measure 57
0001
1001
0001
0100
,  // measure 58
0010
0000
1000
0000
0001
0000
0010
0100
,  // measure 59
1000
0001
0100
0010
,  // measure 60
1000
0000
0001
0000
0010
0000
0100
0010
,  // measure 61
0001
1000
1000
0000
0010
0000
0100
0000
,  // measure 62
0001
0000
1000
0000
0100
0000
0010
0001
,  // measure 63
1000
0010
0100
0001
,  // measure 64
1000
0000
0100
0000
0010
0000
0001
1000
,  // measure 65
0020
0000
0130
0000
0001
1000
0100
0000
,  // measure 66
0100
0000
0010
0001
1000
0000
0001
0000
,  // measure 67
0100
0010
1000
0000
0001
0000
0010
0100
,  // measure 68
0000
1000
0001
1000
0001
0000
1000
0000
,  // measure 69
1000
1010
1000
0001
,  // measure 70
0010
0010
0010
0000
0001
0000
2000
0000
,  // measure 71
3010
1010
0010
0100
,  // measure 72
0001
0001
0001
0000
1000
0000
0100
0000
,  // measure 73
0110
0000
0000
0000
;
