#TITLE:Burn Me Down;
#SUBTITLE:;
#ARTIST:YusukeKira ft. GUMI;
#TITLETRANSLIT:;
#SUBTITLETRANSLIT:;
#ARTISTTRANSLIT:;
#GENRE:;
#CREDIT:;
#BANNER:[VIP Room Round 3] - Burn Me Down.png;
#BACKGROUND:[VIP Room Round 3] - Burn Me Down-bg.png;
#LYRICSPATH:;
#CDTITLE:;
#MUSIC:[VIP Room Round 3] - Burn Me Down.mp3;
#OFFSET:-0.243083;
#SAMPLESTART:35.434536;
#SAMPLELENGTH:16.000000;
#SELECTABLE:YES;
#BPMS:0.000000=120.000000
;
#STOPS:
;
#BGCHANGES:7.667=[VIP Room Round 3] - Burn Me Down.avi=1.000=0=0=0=StretchNoLoop==CrossFade_Faster==,
99999=-nosongbg-=1.000=0=0=0 // don't automatically add -songbackground-
;
#KEYSOUNDS:;
#ATTACKS:;

//---------------dance-single - EXPERT2----------------
#NOTES:
     dance-single:
     :
     Edit:
     8:
     0.461973,0.460818,0.517409,0.494582,0.034240,425.000000,357.000000,68.000000,65.000000,0.000000,0.000000,0.461973,0.460818,0.517409,0.494582,0.034240,425.000000,357.000000,68.000000,65.000000,0.000000,0.000000:
0000
0000
0000
0000
,
0000
0000
0000
0000
,
0002
0023
0230
2300
,
3100
0010
0001
0000
0011
0000
1001
0000
,
2000
3020
0230
0302
,
0103
0010
1000
0000
1010
0000
1001
0000
,
0002
0010
2003
0010
,
3001
0100
0010
0000
0110
0000
1001
0000
,
2000
0000
0100
0000
3001
0010
0100
0100
,
1000
0001
2002
3003
,
0001
0000
1001
0000
1000
0100
0001
0100
,
0020
0000
0031
0001
1000
0010
0001
0010
,
0200
0000
0301
0001
0100
0010
1000
0001
,
2000
3200
0302
0023
,
1030
0000
1001
0000
0001
0010
1000
0010
,
0002
0000
1003
1000
0001
0100
1000
0100
,
0020
0000
0130
0100
0002
0000
1003
1000
,
0200
0000
0320
0000
0031
0010
0100
1000
,
0020
0000
0031
0010
0100
0010
1000
0001
,
0020
0000
1030
0010
0100
0010
0001
1000
,
0020
0000
1030
0001
0010
0100
1000
0001
,
0200
2300
3200
0302
,
2003
0000
3001
0001
0010
0010
0100
1000
,
0002
0000
1003
1000
0010
0010
0100
0001
,
0020
0000
0031
0100
0010
1000
0001
0010
,
0200
0302
0203
2300
,
3020
0000
0130
0001
0100
0010
1000
0001
,
0020
0000
0130
1000
0100
0010
0001
1000
,
0020
0000
1030
0001
0010
0100
1000
0100
,
2100
3100
0102
0103
,
2001
0000
3001
0001
0100
0100
0010
1000
,
0200
0000
1300
1000
0001
0001
1000
0001
,
0020
0000
0031
1000
0010
0100
0001
1000
,
1200
1300
0201
0301
,
0002
0000
1003
0010
1010
0000
1001
0000
,
0002
0000
0013
0100
1000
0000
1100
0000
,
2000
0000
3100
0010
0000
0000
0110
0000
,
0011
0000
0000
0000
0010
0001
1000
0000
0010
0000
0100
0000
0101
0000
0001
0000
,
2001
0000
3100
1000
0001
0000
1001
0000
,
1020
0000
0130
0001
1000
0000
1001
0000
,
0012
0000
0013
0100
0000
0100
1000
0000
,
1001
0000
0000
0000
0001
0100
0010
0000
1000
0000
0000
0000
1001
0000
0000
0000
,
2000
0000
0000
3100
0000
0000
2200
0000
0000
0000
3300
0000
0000
0000
1000
0000
,
0001
0000
0000
0001
0000
0000
2002
0000
0000
0000
3003
0000
1000
0001
2000
0000
,
3002
0000
0000
0103
0000
0000
0202
0000
0000
0000
0303
0000
0000
0000
0001
0000
,
1000
0000
0000
1000
0000
0000
2002
0000
3003
0000
0001
0000
0011
0000
0010
0000
,
0110
0000
0010
0100
1000
0010
0001
0010
,
0110
0000
0100
0001
1000
0100
0001
0100
,
0110
0000
0001
0100
0110
0010
1000
0100
,
1100
0110
0101
0110
,
1001
0000
0001
0010
1000
0001
0100
1000
,
1001
0000
0001
0100
1000
0001
0010
1000
,
1010
0000
1000
0001
0011
0001
1000
0100
,
1100
0101
1100
0101
,
1001
0000
1000
0010
0100
0010
0001
0010
,
1010
0000
0001
0010
0100
0010
1000
0010
,
0011
0000
0001
1000
1010
1000
0001
0100
,
0101
1100
0101
1100
,
1001
0000
1000
0100
0001
1000
0001
0100
,
0110
0000
1000
0010
0001
1000
0001
0010
,
0110
0000
1000
0100
0110
0010
0001
1000
,
1100
0110
0101
0110
,
1001
0000
0000
0001
0000
0000
1001
0000
0000
0000
0000
0000
0000
0000
1000
0000
,
1010
0000
0000
0010
0000
0000
0110
0000
0000
0000
0100
0000
0010
0000
0000
0000
;

//---------------dance-single - HEAVYDRAFT----------------
#NOTES:
     dance-single:
     :
     Edit:
     8:
     0.492408,0.460818,0.730460,0.311967,0.034240,453.000000,357.000000,96.000000,41.000000,0.000000,0.000000,0.492408,0.460818,0.730460,0.311967,0.034240,453.000000,357.000000,96.000000,41.000000,0.000000,0.000000:
0000
0000
0000
0000
,
0000
0000
0000
0000
,
0002
0023
0230
2300
,
3100
0010
0001
0000
0011
0000
1001
0000
,
2000
3020
0230
0302
,
0103
0010
1000
0000
1010
0000
1001
0000
,
0002
0010
2003
0010
,
3001
0100
0010
0000
0110
0000
1001
0000
,
2000
0000
0100
0000
3001
0010
0100
0100
,
1000
0001
2002
3003
,
0001
0000
1001
0000
1000
0100
0001
0100
,
0020
0000
0031
0001
1000
0010
0001
0010
,
0200
0000
0301
0001
0100
0010
1000
0001
,
2000
3200
0302
0023
,
1030
0000
1001
0000
0001
0010
1000
0010
,
0002
0000
1003
1000
0001
0100
1000
0100
,
0020
0000
0130
0100
0002
0000
1003
1000
,
0200
0000
0320
0000
0031
1000
1001
0001
,
1001
0000
1000
0010
0100
0001
0100
0010
,
0110
0000
1000
0100
0010
0001
0010
0100
,
0110
0000
1000
0010
0110
0100
0001
1000
,
1100
0101
1100
0101
,
1001
0000
1000
0100
1000
0001
1000
0010
,
1010
0000
0001
0100
0001
1000
0001
0010
,
0011
0000
0001
1000
1010
1000
0001
0100
,
0101
1100
0101
1100
,
1001
0000
0001
0010
1000
0010
0001
1000
,
1001
0000
1000
0010
0001
0010
1000
0001
,
1001
0000
0001
0010
0110
0100
1000
0001
,
0101
0110
1100
0110
,
1001
0000
0001
0010
1000
0001
0100
1000
,
1001
0000
0001
0100
1000
0001
0010
1000
,
1010
0000
0001
0010
0011
0010
0100
1000
,
1100
0110
0101
0110
,
0020
0000
1030
0010
1010
0000
1001
0000
,
0002
0000
0013
0100
1000
0000
1100
0000
,
2000
0000
3100
0010
0000
0000
0110
0000
,
0011
0000
0000
0000
0010
0001
1000
0000
0010
0000
0100
0000
0101
0000
0001
0000
,
2001
0000
3100
1000
0001
0000
1001
0000
,
1020
0000
0130
0001
1000
0000
1001
0000
,
0012
0000
0013
0100
0000
0100
1000
0000
,
1001
0000
0000
0000
0001
0100
0010
0000
1000
0000
0000
0000
1001
0000
0000
0000
,
2000
0000
0000
3100
0000
0000
2200
0000
0000
0000
3300
0000
0000
0000
1000
0000
,
0001
0000
0000
0001
0000
0000
2002
0000
0000
0000
3003
0000
1000
0001
2000
0000
,
3002
0000
0000
0103
0000
0000
0202
0000
0000
0000
0303
0000
0000
0000
0001
0000
,
1000
0000
0000
1000
0000
0000
2002
0000
3003
0000
0001
0000
0011
0000
0010
0000
,
0110
0000
0010
0100
1000
0010
0001
0010
,
0110
0000
0100
0001
1000
0100
0001
0100
,
0110
0000
0001
0100
0110
0010
1000
0100
,
1100
0110
0101
0110
,
1001
0000
0001
0010
1000
0001
0100
1000
,
1001
0000
0001
0100
1000
0001
0010
1000
,
1010
0000
1000
0001
0011
0001
1000
0100
,
1100
0101
1100
0101
,
1001
0000
1000
0010
0100
0010
0001
0010
,
1010
0000
0001
0010
0100
0010
1000
0010
,
0011
0000
0001
1000
1010
1000
0001
0100
,
0101
1100
0101
1100
,
1001
0000
1000
0100
0001
1000
0001
0100
,
0110
0000
1000
0010
0001
1000
0001
0010
,
0110
0000
1000
0100
0110
0010
0001
1000
,
1100
0110
0101
0110
,
1001
0000
0000
0001
0000
0000
1001
0000
0000
0000
0000
0000
0000
0000
1000
0000
,
1010
0000
0000
0010
0000
0000
0110
0000
0000
0000
0100
0000
0010
0000
0000
0000
;

//---------------dance-single - ----------------
#NOTES:
     dance-single:
     :
     Hard:
     8:
     0.461973,0.460818,0.517409,0.494582,0.034240,425.000000,357.000000,68.000000,65.000000,0.000000,0.000000,0.461973,0.460818,0.517409,0.494582,0.034240,425.000000,357.000000,68.000000,65.000000,0.000000,0.000000:
0000
0000
0000
0000
,
0000
0000
0000
0000
,
0002
0023
0230
2300
,
3100
0010
0001
0000
0011
0000
1001
0000
,
2000
3020
0230
0302
,
0103
0010
1000
0000
1010
0000
1001
0000
,
0002
0010
2003
0010
,
3001
0100
0010
0000
0110
0000
1001
0000
,
2000
0000
0100
0000
3001
0010
0100
0100
,
1000
0001
2002
3003
,
0001
0000
1001
0000
1000
0100
0001
0100
,
0020
0000
0031
0001
1000
0010
0001
0010
,
0200
0000
0301
0001
0100
0010
1000
0001
,
2000
3200
0302
0023
,
1030
0000
1001
0000
0001
0010
1000
0010
,
0002
0000
1003
1000
0001
0100
1000
0100
,
0020
0000
0130
0100
0002
0000
1003
1000
,
0200
0000
0320
0000
0031
0010
0100
1000
,
0020
0000
0031
0010
0100
0010
1000
0001
,
0020
0000
1030
0010
0100
0010
0001
1000
,
0020
0000
1030
0001
0010
0100
1000
0001
,
0200
2300
3200
0302
,
2003
0000
3001
0001
0010
0010
0100
1000
,
0002
0000
1003
1000
0010
0010
0100
0001
,
0020
0000
0031
0100
0010
1000
0001
0010
,
0200
0302
0203
2300
,
3020
0000
0130
0001
0100
0010
1000
0001
,
0020
0000
0130
1000
0100
0010
0001
1000
,
0020
0000
1030
0001
0010
0100
1000
0100
,
2100
3100
0102
0103
,
2001
0000
3001
0001
0100
0100
0010
1000
,
0200
0000
1300
1000
0001
0001
1000
0001
,
0020
0000
0031
1000
0010
0100
0001
1000
,
1200
1300
0201
0301
,
0002
0000
1003
0010
1010
0000
1001
0000
,
0002
0000
0013
0100
1000
0000
1100
0000
,
2000
0000
3100
0010
0000
0000
0110
0000
,
0011
0000
0000
0000
0010
0001
1000
0000
0010
0000
0100
0000
0101
0000
0001
0000
,
2001
0000
3100
1000
0001
0000
1001
0000
,
1020
0000
0130
0001
1000
0000
1001
0000
,
0012
0000
0013
0100
0000
0100
1000
0000
,
1001
0000
0000
0000
0001
0100
0010
0000
1000
0000
0000
0000
1001
0000
0000
0000
,
2000
0000
0000
3100
0000
0000
2200
0000
0000
0000
3300
0000
0000
0000
1000
0000
,
0001
0000
0000
0001
0000
0000
2002
0000
0000
0000
3003
0000
1000
0001
2000
0000
,
3002
0000
0000
0103
0000
0000
0202
0000
0000
0000
0303
0000
0000
0000
0001
0000
,
1000
0000
0000
1000
0000
0000
2002
0000
3003
0000
0001
0000
0011
0000
0010
0000
,
0110
0000
0010
0100
1000
0010
0001
0010
,
0110
0000
0100
0001
1000
0100
0001
0100
,
0110
0000
0001
0100
0110
0010
1000
0100
,
1100
0110
0101
0110
,
1001
0000
0001
0010
1000
0001
0100
1000
,
1001
0000
0001
0100
1000
0001
0010
1000
,
1010
0000
1000
0001
0011
0001
1000
0100
,
1100
0101
1100
0101
,
1001
0000
1000
0010
0100
0010
0001
0010
,
1010
0000
0001
0010
0100
0010
1000
0010
,
0011
0000
0001
1000
1010
1000
0001
0100
,
0101
1100
0101
1100
,
1001
0000
1000
0100
0001
1000
0001
0100
,
0110
0000
1000
0010
0001
1000
0001
0010
,
0110
0000
1000
0100
0110
0010
0001
1000
,
1100
0110
0101
0110
,
1001
0000
0000
0001
0000
0000
1001
0000
0000
0000
0000
0000
0000
0000
1000
0000
,
1010
0000
0000
0010
0000
0000
0110
0000
0000
0000
0100
0000
0010
0000
0000
0000
;

//---------------dance-single - ----------------
#NOTES:
     dance-single:
     :
     Medium:
     6:
     0.347838,0.377404,0.197833,0.091308,0.000000,320.000000,294.000000,26.000000,12.000000,0.000000,0.000000,0.347838,0.377404,0.197833,0.091308,0.000000,320.000000,294.000000,26.000000,12.000000,0.000000,0.000000:
0000
0000
0000
0000
,
0000
0000
0000
0000
,
0000
1000
0000
0100
0000
0010
0000
0001
,
0010
0010
0011
0011
,
0000
0001
0000
0100
0000
0010
0000
1000
,
0010
1000
0010
0000
1010
0000
1010
0000
,
0000
1000
0000
0001
0000
0010
0000
0100
,
0000
0100
0010
0000
0110
0000
0110
0000
,
0000
0100
0000
0010
0000
0001
1000
0001
,
0100
0010
0220
0330
,
0100
0000
0001
0001
0000
1000
1000
0000
,
0100
0000
0100
0010
0000
0010
0001
0000
,
1000
0000
1000
0010
0000
0010
0100
0000
,
0001
0101
1000
1100
,
0100
0000
1000
1000
0000
0001
0001
0000
,
0100
0000
0100
0010
0000
0000
1010
0000
,
1000
0000
1000
0001
0000
0000
1001
0000
,
0001
0000
0100
0000
0010
0000
1000
0001
,
0010
0000
0100
0010
0100
0000
1000
0100
,
1000
0000
0001
0100
0001
0000
1000
0001
,
1000
0000
0010
0100
0010
0000
1000
0001
,
0100
0100
0100
0100
,
0010
0000
1000
0001
1000
0000
0100
1000
,
0100
0000
0010
0001
0010
0000
0001
1000
,
0001
0000
0010
0100
0010
0000
0001
1000
,
0100
0100
0100
0100
,
0010
0000
0001
0000
1000
0010
1000
0010
,
0100
0000
0001
0000
0010
0001
0010
0001
,
0010
0000
0100
0010
0100
0000
1000
0001
,
0100
0100
0100
0100
,
0010
0000
1000
0000
0100
1000
0100
1000
,
0100
0000
0010
0000
0001
0100
0001
0100
,
0010
0000
1000
0100
0010
0000
0001
1000
,
0100
0100
0100
0100
,
0010
0000
0000
0001
0010
0000
0011
0000
,
1000
0000
0000
0010
1000
0000
1010
0000
,
0010
0000
0010
0100
0000
0000
0110
0000
,
0001
0000
0001
1000
0000
0000
1001
0000
,
1000
0000
0100
1000
0100
0000
1100
0000
,
0011
0000
0001
0100
0001
0000
0101
0000
,
1010
0000
1000
0001
0000
0001
0010
0000
,
0100
0000
1000
0001
1000
0000
1001
0000
,
0002
0000
0000
0000
,
0203
0000
0000
0000
,
0320
0000
0000
0000
,
2030
0000
0000
0000
3000
0001
0001
0010
,
0010
0000
0001
1000
0100
0000
1000
0001
,
0100
0000
0001
0100
0010
0000
1000
0001
,
0010
0000
0001
1000
0010
0000
0100
0001
,
1000
0100
0001
0100
,
0010
0000
0001
1000
0010
0000
1000
0010
,
0100
0000
0001
0100
0010
0000
1000
0100
,
0010
0000
0001
0100
0010
0000
0010
1000
,
0001
0100
1000
0100
,
0010
0000
1000
0010
1000
0001
1000
0100
,
0020
0000
0031
0010
0001
1000
0001
0100
,
0020
0000
1030
0100
0020
0000
0031
0010
,
0100
0110
0100
0110
,
1001
0000
0001
0100
0010
0010
1000
0001
,
0200
0000
0301
0010
0100
0100
1000
0100
,
0020
0000
0031
0100
0020
0000
0130
0010
,
0100
0110
0100
0110
,
1001
0000
0000
0000
;

//---------------dance-single - ----------------
#NOTES:
     dance-single:
     :
     Easy:
     4:
     0.180441,0.212290,0.007609,0.053263,0.000000,166.000000,165.000000,1.000000,7.000000,0.000000,0.000000,0.180441,0.212290,0.007609,0.053263,0.000000,166.000000,165.000000,1.000000,7.000000,0.000000,0.000000:
0000
0000
0000
0000
,
0000
0000
0000
0000
,
1000
0000
0100
0000
,
0010
0001
0010
0000
,
0001
0000
0100
0000
,
0010
1000
0010
0000
,
1000
0000
0001
0000
,
1000
0100
1000
0000
,
0001
0000
1000
0000
,
0001
0100
0001
0000
,
0100
0000
0100
0000
,
0020
0000
0030
0000
,
2000
0000
3000
0000
,
0001
0000
0001
0000
,
1000
0000
1000
0000
,
2000
0000
3000
0000
,
0200
0000
0300
0000
,
0020
0000
0030
0000
,
0001
0010
0001
0000
,
1000
0010
1000
0000
,
0010
0000
0010
0000
,
0100
0100
0100
0100
,
0100
0001
0100
0000
,
0001
1000
0001
0000
,
0010
0000
0010
0000
,
0100
0100
0100
0100
,
0100
1000
0001
0000
,
1000
0001
0100
0000
,
0010
0000
0010
0000
,
1000
0001
1000
0001
,
1000
0100
0010
0000
,
0001
0100
0010
0000
,
1000
0000
0001
0000
,
0010
0100
0010
0100
,
0010
0000
0001
0001
,
0001
0000
1000
0000
,
1000
0000
0000
0010
,
0010
0000
0000
1000
,
1000
0000
0001
0001
,
0001
0000
0010
0010
,
0010
0000
0100
0000
,
1000
0000
0001
0000
,
2002
0000
0000
0000
,
0000
0000
0000
0000
,
0000
0000
0000
0000
,
0000
0000
3003
0010
,
0010
1000
0010
0100
,
0001
0010
0100
1000
,
0010
1000
0001
1000
,
0100
0010
0100
0010
,
0100
0010
0001
0100
,
0100
0010
1000
0100
,
0100
0010
0010
0001
,
0100
0010
0100
0010
,
0100
0010
1000
0001
,
0001
1000
0001
0010
,
0010
0100
0100
1000
,
0001
1000
0001
1000
,
0001
0100
0010
1000
,
1000
0001
0010
0100
,
0100
1000
1000
0001
,
1000
0001
1000
0001
,
1000
0000
0000
0000
;

//---------------dance-single - ----------------
#NOTES:
     dance-single:
     :
     Beginner:
     1:
     0.076090,0.116037,0.000000,0.000000,0.000000,70.000000,70.000000,0.000000,0.000000,0.000000,0.000000,0.076090,0.116037,0.000000,0.000000,0.000000,70.000000,70.000000,0.000000,0.000000,0.000000,0.000000:
// measure 0
0000
0000
0000
0000
,  // measure 1
0000
0000
0000
0000
,  // measure 2
1000
0000
0000
0000
,  // measure 3
1000
0000
0000
0000
,  // measure 4
0001
0000
0000
0000
,  // measure 5
0001
0000
0000
0000
,  // measure 6
0100
0000
0000
0000
,  // measure 7
0100
0000
0000
0000
,  // measure 8
0010
0000
0000
0000
,  // measure 9
0010
0000
0000
0000
,  // measure 10
1000
0000
1000
0000
,  // measure 11
1000
0000
0000
0000
,  // measure 12
0100
0000
0000
0000
,  // measure 13
0010
0000
0010
0000
,  // measure 14
0001
0000
0001
0000
,  // measure 15
0001
0000
0000
0000
,  // measure 16
0100
0000
0000
0000
,  // measure 17
0010
0000
0000
0000
,  // measure 18
1000
0000
0000
0000
,  // measure 19
1000
0000
0000
0000
,  // measure 20
0001
0000
0001
0000
,  // measure 21
0001
0000
0000
0000
,  // measure 22
0010
0000
0000
0000
,  // measure 23
0010
0000
0000
0000
,  // measure 24
0100
0000
0100
0000
,  // measure 25
0100
0000
0000
0000
,  // measure 26
1000
0000
0000
0000
,  // measure 27
0001
0000
0000
0000
,  // measure 28
1000
0000
1000
0000
,  // measure 29
1000
0000
0000
0000
,  // measure 30
0010
0000
0000
0000
,  // measure 31
0100
0000
0000
0000
,  // measure 32
0010
0000
0010
0000
,  // measure 33
0100
0000
0000
0000
,  // measure 34
0000
0000
0001
0000
,  // measure 35
0001
0000
0100
0000
,  // measure 36
0100
0000
0000
0000
,  // measure 37
0010
0000
0000
0000
,  // measure 38
1000
0000
0000
0000
,  // measure 39
0001
0000
0000
0000
,  // measure 40
0010
0000
0000
0000
,  // measure 41
0100
0000
0100
0000
,  // measure 42
0100
0000
0000
0000
,  // measure 43
0000
0000
0000
0000
,  // measure 44
0000
0000
0000
0000
,  // measure 45
0000
0000
0000
0000
,  // measure 46
1000
0000
0000
0000
,  // measure 47
0100
0000
0000
0000
,  // measure 48
0010
0000
0001
0000
,  // measure 49
0100
0000
0000
0000
,  // measure 50
0001
0000
0000
0000
,  // measure 51
0100
0000
0000
0000
,  // measure 52
0010
0000
1000
0000
,  // measure 53
0100
0000
0000
0000
,  // measure 54
0010
0000
0000
0000
,  // measure 55
0001
0000
0000
0000
,  // measure 56
0010
0000
0010
0000
,  // measure 57
0100
0000
0000
0000
,  // measure 58
1000
0000
0000
0000
,  // measure 59
0010
0000
0000
0000
,  // measure 60
0010
0000
0010
0000
,  // measure 61
0100
0000
0000
0000
;
