#TITLE:붐바야;
#SUBTITLE:;
#ARTIST:블랙핑크;
#TITLETRANSLIT:BOOMBAYAH;
#SUBTITLETRANSLIT:;
#ARTISTTRANSLIT:BLACKPINK;
#GENRE:;
#CREDIT:;
#BANNER:[VIP Room Round 3] - BOOMBAYAH.png;
#BACKGROUND:[VIP Room Round 3] - BOOMBAYAH-bg.png;
#LYRICSPATH:;
#CDTITLE:cdtitle.png;
#MUSIC:[VIP Room Round 3] - BOOMBAYAH.ogg;
#OFFSET:-0.139000;
#SAMPLESTART:75.014999;
#SAMPLELENGTH:15.000000;
#SELECTABLE:YES;
#BPMS:0.000000=124.999992
,31.000000=62.499996
,31.500000=124.999992
,148.000000=62.499996
,150.000000=124.999992
;
#STOPS:31.500000=1.200000
;
#BGCHANGES:1.250=[VIP Room Round 3] - BOOMBAYAH.avi=1.000=0=0=0=StretchNoLoop====,
99999=-nosongbg-=1.000=0=0=0 // don't automatically add -songbackground-
;
#KEYSOUNDS:;
#ATTACKS:;

//---------------dance-single - ----------------
#NOTES:
     dance-single:
     9646_BEG:
     Beginner:
     2:
     0.141833,0.196965,0.048040,0.088074,0.000000,124.000000,118.000000,6.000000,11.000000,0.000000,0.000000,0.141833,0.196965,0.048040,0.088074,0.000000,124.000000,118.000000,6.000000,11.000000,0.000000,0.000000:
0000
0000
0000
0000
,
0000
0000
0000
0000
,
0000
0000
0000
0000
,
0000
0000
0000
0000
,
0000
0000
0000
0000
,
1000
0000
1000
0000
,
0001
0000
0001
0000
,
0100
0000
0010
0000
,
0000
1000
0000
1000
,
0000
1000
1000
1000
,
0000
0001
0000
0001
,
0000
0001
0001
0001
,
0000
1000
1000
1000
,
0000
0001
0001
0001
,
0000
0010
0000
1000
,
0000
0100
0100
0100
,
0000
0001
0000
1000
,
0000
0001
0001
0001
,
0000
1000
0000
0100
,
0000
0010
0010
0010
,
0000
0100
0000
1000
,
0000
0001
0001
0001
,
0000
1001
0000
0110
,
0000
0001
1000
0001
,
0000
2000
0000
0000
,
0000
3000
0000
1000
,
0000
0002
0000
0000
,
0000
0000
0000
0003
,
0000
0020
0000
0000
,
0000
0030
0000
0010
,
0000
0200
0000
0000
,
0000
0000
0000
0300
,
0000
2000
0000
3000
,
0000
0002
0000
0003
,
0000
1000
0000
0001
,
0000
0010
0000
0100
,
0000
0020
0000
0000
,
0030
0000
0000
0001
,
0000
1000
0000
0001
,
0001
0001
0000
1000
,
0000
0001
0000
1000
,
1000
1000
0000
0002
,
0003
0020
0030
0200
,
0300
2000
3000
0001
,
0000
1000
1000
0000
,
0010
0000
1001
1000
,
0000
0100
0000
0001
,
0001
0001
0000
0010
,
0000
1000
0000
0100
,
0100
0100
0000
0001
,
0000
0010
0000
1000
,
1000
1000
0000
0100
,
0000
0010
0000
0010
,
0000
0000
1001
1000
,
0000
0100
0000
0001
,
0001
0001
0000
0100
,
0000
1000
0000
0010
,
0010
0010
0000
0001
,
0000
0010
0000
1000
,
1000
1000
0000
1001
,
0000
0010
0000
1001
,
0000
0010
0010
0000
;

//---------------dance-single - ----------------
#NOTES:
     dance-single:
     9646_BSP:
     Easy:
     4:
     0.313406,0.443172,0.616518,0.200168,0.000000,274.000000,197.000000,77.000000,25.000000,0.000000,0.000000,0.313406,0.443172,0.616518,0.200168,0.000000,274.000000,197.000000,77.000000,25.000000,0.000000,0.000000:
0000
0000
0000
0000
,
0000
0000
0000
0000
,
0000
0000
0000
0000
,
0000
0000
0000
0000
,
0000
0000
0000
0000
,
1000
0100
1000
0100
,
0010
0001
0010
0001
,
0100
0000
0010
0000
1000
0000
0200
0300
,
1001
0001
0010
0100
,
0100
1000
0010
0100
,
0100
0002
0003
2000
,
3000
0001
0001
0001
,
0110
1000
1000
1000
,
0110
0001
0100
1000
,
0001
0010
0000
1000
,
0001
0010
0100
0010
,
0010
1001
1001
0101
,
0101
1100
1010
0202
,
0303
1001
1001
1100
,
1100
0101
0011
1100
,
0120
0031
0010
1100
,
0010
0101
1100
2002
,
3003
1000
1100
0001
,
0101
1000
0010
0001
,
0100
2000
0000
0002
,
0000
3003
0000
0001
,
0100
0020
0000
2000
,
0030
0002
0000
0000
,
3003
0002
0000
2000
,
0000
3003
0000
1000
,
0100
0020
0000
0002
,
0030
2000
0000
0000
,
3003
1000
1000
1000
,
1000
0001
0001
0001
,
0001
0010
0010
0100
,
0100
1000
0010
0001
,
0100
2000
0000
0000
,
3001
0000
0010
1100
,
0100
0101
0100
1100
,
0101
1100
1001
1010
,
0010
0011
0010
1010
,
0011
1010
1001
0102
,
0103
2100
3100
2010
,
3010
0012
0013
1000
,
0100
0001
0010
0100
,
0100
0000
1001
0001
,
0001
0010
0010
1000
,
0100
0001
1001
1000
,
1000
0010
0010
0001
,
0100
1000
0110
0101
,
0101
1100
1100
1010
,
0011
1010
1001
1100
,
1100
0101
0101
0010
,
0010
0000
0110
1001
,
0100
1001
0010
0110
,
0110
2001
3010
0110
,
1000
0110
0001
1001
,
1001
0120
0031
1001
,
0010
1001
0100
0110
,
0110
1001
0110
1001
,
0000
0010
0110
1001
,
0000
1001
0110
0000
;

//---------------dance-single - ----------------
#NOTES:
     dance-single:
     9646_ESP:
     Hard:
     7:
     0.497561,0.493414,0.480404,0.200168,0.036030,435.000000,375.000000,60.000000,25.000000,0.000000,0.000000,0.497561,0.493414,0.480404,0.200168,0.036030,435.000000,375.000000,60.000000,25.000000,0.000000,0.000000:
0000
0000
0000
0000
,
0000
0000
0000
0000
,
0000
0000
0000
0000
,
0000
0000
0000
0000
,
0000
0000
0000
0000
,
1000
0000
0100
0000
0010
0000
0100
0000
1000
0000
0000
0210
0000
0000
1300
0000
,
0001
0000
0100
0000
0010
0000
0100
0000
0001
0000
0000
2100
0000
0000
3001
0000
,
1000
0000
0010
0000
1000
0000
0100
0000
0001
0000
0100
2000
0000
0000
3000
0000
,
2002
0000
3003
0000
0001
0000
0000
1000
0100
0000
1000
0000
0010
0000
0010
0000
,
0010
0000
1000
0001
0100
0001
0010
0010
,
0010
0000
0100
0000
1000
0000
0002
0000
0003
0000
0001
0000
1000
0000
0000
0001
,
0000
0000
0001
0000
0010
0000
0100
0000
0001
0000
0100
0000
1000
0000
0000
0110
,
0000
0000
0000
0000
0001
0000
0100
0000
1000
0000
0100
0000
0010
0000
0000
0110
,
0000
0000
0001
0000
1000
0000
0010
0000
0001
0000
0010
0000
1000
0000
0000
1100
,
0000
0200
0310
0000
0001
1000
0100
1000
,
0010
0100
0001
0001
0001
0010
1000
0000
,
0110
0000
1100
0000
1100
0001
0101
0000
,
0101
0001
1000
0100
0001
0100
1000
0001
,
0001
0000
0011
0000
0011
1000
1010
0000
,
1010
1000
0001
0010
1000
0010
0001
1000
,
2000
0000
3001
0000
0001
0100
0010
0000
,
0010
1000
0100
0001
0100
0010
0002
0000
,
0013
0100
1000
1000
1000
0010
0001
0001
,
0001
0100
1000
0010
0001
0010
2000
0000
,
3001
0012
0010
2003
,
0100
0000
3100
0000
0100
1000
0001
0100
,
0010
1000
0002
0000
0010
0000
0023
0000
,
0130
2000
0001
0000
0001
0000
0001
0000
,
3001
2100
0100
3002
,
0010
0000
0013
0000
0010
0001
1000
0010
,
0100
0001
2000
0000
0100
0000
3200
0000
,
0310
0002
1000
0000
1000
0000
1000
0000
,
1003
0100
0001
0000
0001
0000
0001
0100
,
1000
0010
0001
0000
0001
0000
0001
0010
,
1000
0100
0001
0100
0001
0100
1000
0001
,
1000
0001
1000
0010
0100
0001
1000
0010
,
0100
0001
0010
0010
1000
1000
0100
0100
,
0001
0000
0000
0000
0000
0000
0010
0100
1001
0000
0000
0000
1100
0000
0000
0000
,
1100
0100
0101
0000
0101
0100
1000
0010
,
0001
0010
1000
0100
0100
0010
0011
0000
,
0011
0010
1010
0000
1010
0010
0001
0100
,
1000
0100
0001
0010
0010
0100
2000
3100
,
0100
0002
0103
0100
2000
3010
0010
0002
,
0013
0010
2000
3001
1001
0000
0011
0000
,
1010
0010
0001
0010
1000
0100
0001
0001
,
0001
0100
0010
0100
1001
0000
0110
0000
,
0110
0001
1000
0100
0100
0001
0010
0010
,
1000
0100
0100
0001
1001
0000
0110
0000
,
0110
1000
0001
0100
0100
1000
0010
0010
,
0001
0100
0100
1000
1001
0000
0110
0000
,
1001
0001
0010
1000
0001
0100
1000
0010
,
0001
1000
0100
0001
1001
0000
0110
0000
,
1001
1000
0010
0001
1000
0100
0001
0001
,
0001
0010
0100
0010
1001
0000
0110
0000
,
0110
1000
1001
0000
1001
0001
0010
0010
,
1000
0001
0100
1000
1001
0000
0110
0000
,
0110
0001
1001
0000
1001
1000
0100
0100
,
0001
1000
0010
0001
1001
0000
0110
0000
,
0110
1000
0001
0001
0010
0100
1000
1000
,
0010
0100
0001
1000
1100
0000
0011
0000
,
0010
0100
1000
0001
0101
0000
1010
0010
,
1000
0100
0010
0010
1001
0110
0000
0000
;

//---------------dance-single - ----------------
#NOTES:
     dance-single:
     9646_CSP:
     Challenge:
     9:
     0.570765,0.764792,0.232195,0.216182,0.296249,499.000000,470.000000,29.000000,27.000000,12.000000,0.000000,0.570765,0.764792,0.232195,0.216182,0.296249,499.000000,470.000000,29.000000,27.000000,12.000000,0.000000:
// measure 0
0000
0000
0000
0000
,  // measure 1
0000
0000
0000
0000
,  // measure 2
0000
0000
0000
0000
,  // measure 3
0000
0000
0000
0000
,  // measure 4
0000
0000
0000
0000
,  // measure 5
1000
0100
1000
0000
0001
0000
0000
1000
0100
1000
0000
0020
0000
0000
0130
0000
,  // measure 6
0001
0100
0001
0000
1000
0000
0000
0001
0100
0000
0001
0020
0000
0000
0130
0000
,  // measure 7
1000
0100
1000
0100
0001
0000
0000
0100
1000
0000
1000
0002
0000
0003
MMMM
0000
,  // measure 8
0220
0000
0330
0000
1001
0000
0000
1000
0100
0000
0010
0001
0010
0000
0100
1000
,  // measure 9
0100
0000
0000
0000
1000
0001
0010
0000
0001
0000
0001
0000
0001
0000
0001
1000
,  // measure 10
0010
0000
0100
0001
1000
0000
0002
0000
1003
0000
1000
0000
0001
0000
0100
0001
,  // measure 11
0000
0000
0010
0000
0100
0000
0100
0000
1000
0000
0001
0000
0010
0100
0000
0110
,  // measure 12
0000
0000
MMMM
0000
0010
0000
0010
0000
0010
0001
0010
0001
1000
0010
0000
0010
,  // measure 13
0000
0000
0100
0001
0100
0000
0001
1000
0001
0000
1000
0000
0100
0010
0000
0011
,  // measure 14
0000
0000
2001
0000
3010
0000
0000
0000
0100
0000
0001
0100
0001
0000
1000
0000
,  // measure 15
0010
0000
0010
1000
0100
0000
0100
0000
0100
0000
0100
0000
1000
0100
0000
0000
,  // measure 16
0001
0100
0000
0000
1100
0000
1000
0000
0001
0000
0100
0000
0101
0000
0001
0000
,  // measure 17
1000
0100
1000
0010
0100
0001
0010
0100
,  // measure 18
0110
MMMM
0011
0001
1000
0010
1010
1000
,  // measure 19
0001
0000
0010
0000
0001
0000
0100
0000
0010
0000
1000
0000
0100
0010
0100
0010
,  // measure 20
0100
0000
0000
1000
0001
1000
0001
0000
0000
0001
0000
0000
0010
0000
0000
0100
0000
0000
1000
0000
0000
1000
0000
0000
,  // measure 21
0100
0010
0001
0100
0010
1000
0002
0010
,  // measure 22
0013
0000
0100
0000
1000
0100
1000
0100
1000
0000
0010
0000
0100
0001
0100
0001
,  // measure 23
0100
0000
0010
0000
2000
0000
3001
0010
0100
0000
1000
0000
0002
0000
0013
0100
,  // measure 24
1000
0000
0010
0100
0002
0000
0000
0000
0100
0000
0000
0000
2003
0000
0000
0000
,  // measure 25
0100
0000
3010
0000
0100
0010
1000
0100
,  // measure 26
0010
0001
2000
0000
0100
0000
3002
0000
,  // measure 27
0103
0020
0001
0000
1000
0000
0001
0000
,  // measure 28
1000
2030
0010
3002
,  // measure 29
0010
0000
0103
0000
0010
0100
0001
0010
,  // measure 30
0100
1000
0002
0000
0010
0000
2003
0000
,  // measure 31
3010
0200
1000
0000
0001
0000
1000
0000
,  // measure 32
0301
1000
0002
0000
0010
0000
0013
0100
,  // measure 33
1000
0001
2000
0000
0100
0000
3001
0001
,  // measure 34
0100
0010
1000
0100
1000
0100
0001
0100
,  // measure 35
0001
0000
0100
0000
1000
0100
0010
0001
1000
0100
0010
0001
1000
0100
0010
0001
,  // measure 36
1000
0100
0010
0001
1000
0001
0010
0001
1000
0100
1000
0001
0100
0010
1000
0100
,  // measure 37
0001
0000
0000
0000
0000
0000
0100
0010
0110
0000
0000
0000
1001
0000
0001
0000
,  // measure 38
1000
0010
1010
0010
1000
0001
0100
0100
,  // measure 39
0001
0010
0100
0100
1000
0001
1001
0001
,  // measure 40
1000
0100
1100
0100
1000
0001
0010
0010
,  // measure 41
0001
0100
0010
0010
1000
0001
0020
1000
,  // measure 42
1030
0020
0001
0031
0200
1000
1300
0200
,  // measure 43
0001
0301
0020
0130
0110
0000
1001
0001
,  // measure 44
0010
0000
0000
0001
0000
0000
1000
0000
0000
0100
0000
0000
1000
0000
0000
0010
0100
0010
0100
0000
0000
0100
0000
0000
,  // measure 45
0100
0000
0001
0000
1000
0000
0100
0010
0110
0000
0000
0000
1001
0000
0001
0000
,  // measure 46
0010
1000
0001
0100
1000
0010
0001
1000
,  // measure 47
0100
0000
0001
0000
0010
0000
0100
0000
1000
0001
1000
0001
1000
0000
0100
0000
,  // measure 48
0001
1000
0010
0001
0100
1000
0001
0010
,  // measure 49
1000
0100
0010
0100
1001
0000
1001
1000
,  // measure 50
0100
0100
0001
0010
0010
1000
0100
0100
,  // measure 51
0001
0000
0010
0000
0010
0000
1000
0000
0001
1000
0001
1000
0001
0000
1000
0000
,  // measure 52
0010
0000
0000
0010
0000
0000
0001
0000
0000
0100
0000
0000
0100
0000
0000
1000
0001
1000
0001
0000
0000
0001
0000
0000
,  // measure 53
0001
0010
0100
1000
1001
0000
0011
0001
,  // measure 54
0010
1000
1010
1000
0010
0001
1000
0010
,  // measure 55
0001
0000
1000
0000
0100
0000
0001
0000
1000
0010
1000
0010
1000
0000
0001
0000
,  // measure 56
0100
1000
1100
1000
0100
0001
1000
0100
,  // measure 57
0001
0000
1000
0000
0010
0000
0001
0000
1000
0100
1000
0100
1000
0000
0100
0000
,  // measure 58
0010
0100
0001
0100
1000
0010
0100
0010
,  // measure 59
0001
0010
1000
0100
1100
0000
0011
0010
,  // measure 60
1000
0000
0000
0010
0000
0000
0001
0000
0000
0100
0000
0000
0101
0000
0000
0100
0010
0100
0010
0000
0000
0010
0000
0000
,  // measure 61
0010
0000
1000
0000
0001
0000
0010
0100
1000
0000
1100
0000
0000
0000
0000
0000
;

//---------------dance-single - ----------------
#NOTES:
     dance-single:
     9646_DSP:
     Medium:
     6:
     0.380891,0.418552,0.376316,0.192161,0.000000,333.000000,286.000000,47.000000,24.000000,0.000000,0.000000,0.380891,0.418552,0.376316,0.192161,0.000000,333.000000,286.000000,47.000000,24.000000,0.000000,0.000000:
0000
0000
0000
0000
,
0000
0000
0000
0000
,
0000
0000
0000
0000
,
0000
0000
0000
0000
,
0000
0000
0000
0000
,
1000
0100
0100
0000
0001
0000
1100
0000
,
0001
0100
0100
0000
1000
0000
0101
0000
,
0001
0010
0010
0000
1000
0000
0002
0003
,
0220
0330
0001
0000
1000
0000
0001
0100
,
1000
0000
0100
0001
1000
0000
0001
0010
,
0100
2000
3000
0001
,
0001
0000
1000
0000
0100
0000
0001
0001
,
0001
0000
0100
0000
1000
0000
0010
0010
,
0010
0000
0001
0000
1000
0000
0100
0100
,
0100
0000
0010
0000
0010
0000
1000
0001
,
0010
0000
0100
0100
0100
1000
0001
0000
,
0010
1001
1001
0101
,
0101
0000
1000
0100
0001
0100
2000
0000
,
3001
1001
1001
0011
,
0011
0000
0001
1000
0010
0100
0001
0000
,
0020
1030
0010
2100
,
3001
0000
0100
0010
0001
0010
2000
0000
,
3001
0000
1000
1000
1000
0000
0001
0001
,
0001
0000
2000
0000
3100
0010
0002
0000
,
1003
2100
0100
0001
,
0001
0001
0001
3010
,
0100
0002
0100
0010
,
1000
2003
0100
0100
,
3100
0102
0100
1000
,
1000
1000
1000
0013
,
0100
2000
0100
0010
,
0001
3002
0100
0100
,
0100
1003
0100
0001
,
0010
1000
0100
0001
,
0010
0000
1000
1000
0100
0000
0001
0001
,
0010
0000
1000
0100
0010
0001
1000
0100
,
0010
0001
0200
0000
2300
0000
3020
0000
,
0031
0000
1001
0110
,
1000
0001
0100
0000
0100
0001
1000
0100
,
1000
0001
0010
0000
1001
0000
0110
0000
,
0001
1000
0100
0000
0100
1000
0001
0100
,
0001
1000
0010
0000
1001
0000
0002
0000
,
1003
0020
0000
0031
0200
0000
1300
0200
,
0000
0301
0020
0000
1030
0000
0001
0000
,
0001
0000
0010
0100
0100
0100
0000
0010
,
0010
0010
0000
0100
0110
0000
1001
0000
,
0011
0000
1001
0000
1000
0010
0100
0000
,
0100
0010
1000
0000
1010
0000
1001
0000
,
0101
0000
1001
0000
1000
0100
0010
0000
,
0010
0100
1000
0000
0110
0000
1001
0000
,
1010
0000
1001
0000
0001
0010
0100
0000
,
0100
0010
0001
0000
0011
0000
1001
0000
,
1100
0000
1001
0000
0101
0000
0010
0010
,
0010
0000
1001
0110
,
1000
0001
0100
0000
0100
0001
1000
0100
,
1000
0001
0010
0000
1001
0000
0110
0000
,
0001
1000
0100
0000
0100
1000
0001
0100
,
0001
1000
0010
0000
1001
0000
0110
0000
,
1000
0001
0100
0010
0100
0001
1000
0100
,
1000
0001
0010
0000
1001
0000
0110
0000
,
0001
0100
1000
0000
1001
0000
0110
0000
,
1000
0100
0001
0000
1001
0000
0000
0000
;
