#VERSION:0.83;
#TITLE:You’re On;
#SUBTITLE:(feat. Kyan);
#ARTIST:Madeon;
#TITLETRANSLIT:;
#SUBTITLETRANSLIT:;
#ARTISTTRANSLIT:;
#GENRE:EDM;
#ORIGIN:;
#CREDIT:;
#BANNER:You’re On-bn.png;
#BACKGROUND:You’re On-bg.png;
#PREVIEWVID:;
#JACKET:You’re On-jacket.png;
#CDIMAGE:;
#DISCIMAGE:;
#LYRICSPATH:;
#CDTITLE:cd-title-Benpai.png;
#MUSIC:You're On.ogg;
#OFFSET:0.009000;
#SAMPLESTART:88.809000;
#SAMPLELENGTH:19.650000;
#SELECTABLE:YES;
#DISPLAYBPM:50.000000:100.000000;
#BPMS:0.000=100.000,
180.000=50.000;
#STOPS:;
#DELAYS:;
#WARPS:;
#TIMESIGNATURES:0.000=4=4;
#TICKCOUNTS:0.000=4;
#COMBOS:0.000=1;
#SPEEDS:0.000=1.000=0.000=0;
#SCROLLS:0.000=1.000;
#FAKES:;
#LABELS:0.000=Song Start;
#BGCHANGES:;
#KEYSOUNDS:;
#ATTACKS:
;

//---------------dance-single - ----------------
#NOTEDATA:;
#CHARTNAME:;
#STEPSTYPE:dance-single;
#DESCRIPTION:;
#CHARTSTYLE:;
#DIFFICULTY:Challenge;
#METER:9;
#RADARVALUES:0.429691,0.423296,0.219894,0.761776,0.400521,383.000000,355.000000,28.000000,97.000000,14.000000,0.000000,0.000000,0.000000,0.000000,0.429691,0.423296,0.219894,0.761776,0.400521,383.000000,355.000000,28.000000,97.000000,14.000000,0.000000,0.000000,0.000000,0.000000;
#CREDIT:Benpai;
#DISPLAYBPM:50.000000:100.000000;
#NOTES:
// measure 0
0000
0000
0000
M00M
,  // measure 1
1000
0000
0001
0000
0010
0000
0100
0000
0010
0000
0001
1000
0000
0020
0030
0020
,  // measure 2
0000
0000
1030
0000
0100
0000
1000
0000
0010
0000
0100
0001
0000
2000
3000
2000
,  // measure 3
0000
3100
0010
0100
1000
0010
0200
0302
,  // measure 4
1003
0000
1000
0000
0100
0000
0100
0000
1000
0001
1000
0001
0100
0000
0010
0000
,  // measure 5
1MM1
0000
0001
0000
0010
0000
0100
0000
1000
0000
0001
0100
0000
0020
0030
0020
,  // measure 6
0000
0000
1030
0000
0100
0000
0010
0000
0001
0000
0100
0010
0000
0200
0300
0200
,  // measure 7
0000
0000
0301
0000
1000
0000
0100
0000
0010
0000
0001
1000
0010
0000
0200
0000
,  // measure 8
0010
0000
0000
0000
0302
0000
0000
2003
0100
0000
0000
0000
3001
0000
1000
0000
,  // measure 9
1001
0000
0001
0000
0010
0000
0001
0000
1000
0000
0010
0100
0000
0020
0030
0002
,  // measure 10
0000
0000
0013
0000
0100
0000
0010
0000
1000
0000
0100
0010
0000
0200
0300
0002
,  // measure 11
0000
0000
0103
0000
0010
0000
0001
0000
0100
0000
0010
1000
0002
0000
0023
0000
,  // measure 12
0100
0000
0000
0000
0032
0000
0000
2003
0010
0000
0000
0000
3001
0000
0000
1000
,  // measure 13
0100
0000
1000
0001
0100
0000
0001
1000
0000
0100
0010
0000
0001
1000
0001
0000
,  // measure 14
0100
0000
0010
0000
1000
0000
0001
1000
0000
0100
0010
0000
0001
0100
0001
0000
,  // measure 15
1000
0000
0100
0000
0010
0000
0100
0010
0000
0001
1000
0000
0010
0100
0001
0000
,  // measure 16
1000
0000
0100
0000
0010
0000
0100
1000
0000
0001
0100
0000
0010
1000
0000
0001
,  // measure 17
1002
0000
0000
0000
0013
0000
0100
0010
0000
0001
1000
0000
0010
0100
0010
0000
,  // measure 18
1000
0000
0100
0000
0010
0000
0100
1000
0000
0001
0100
0000
0010
0100
0001
0000
,  // measure 19
0010
0000
0100
0000
0010
0000
0001
1000
0000
0010
1000
0000
0001
0100
0001
0000
,  // measure 20
2000
0000
3100
0000
0100
0000
0010
0001
0000
1000
0010
1000
010M
0000
M010
0000
,  // measure 21
0022
0000
0033
0000
2002
0000
3003
0000
1000
0000
0010
0100
0000
0010
0000
2010
,  // measure 22
0000
0000
3100
0000
0021
0000
0000
0000
0130
0000
0010
0001
0000
1000
0000
1020
,  // measure 23
0000
0000
0130
0000
0102
0000
0000
0000
1003
0000
0001
1000
0200
0000
0320
0000
,  // measure 24
0001
0000
0000
0000
0230
0000
0000
2300
0001
0000
0000
0000
3010
0000
0100
0000
,  // measure 25
0202
0000
0303
0000
2002
0000
3003
0000
1000
0000
0100
0010
0000
0001
0000
2001
,  // measure 26
0000
0000
3010
0000
0210
0000
0000
0000
0301
0000
1000
0100
0000
0010
0000
0012
,  // measure 27
0000
0000
1003
0000
1020
0000
0000
0000
0130
0000
0001
1000
0200
0000
2300
0000
,  // measure 28
0010
0000
0000
0000
3002
0000
0000
0203
0000
0000
0310
1000
0001
0000
0010
0000
,  // measure 29
M11M
0000
0100
0000
1000
0000
0010
0000
0100
0000
0001
0010
0000
0002
0003
0002
,  // measure 30
0000
0000
1003
0000
0100
0000
0010
0000
0100
0000
1000
0010
0000
2000
3000
2000
,  // measure 31
0000
0000
3001
0000
0010
0000
0100
0000
0010
0000
0001
1000
0020
0000
2030
0000
,  // measure 32
0001
0000
0000
0000
3200
0000
0000
0320
0001
0000
0000
0000
0130
0000
1000
0000
,  // measure 33
1001
0000
0001
0000
0100
0000
0010
0000
0100
0000
0001
1000
0000
0200
0300
0002
,  // measure 34
0000
0000
0103
0000
0010
0000
0001
0000
1000
0000
0010
0100
0000
0020
0030
0002
,  // measure 35
0000
0000
0013
0000
0100
0000
0001
0000
0010
0000
0100
1000
0002
0000
0023
0000
,  // measure 36
M230
0000
0000
0000
2300
0000
0000
3002
0000
0000
0100
0000
1003
0000
0000
0000
,  // measure 37
2020
0000
3030
0000
0220
0000
0330
0000
0001
0000
0010
0100
0000
1000
0000
1002
,  // measure 38
0000
0000
0103
0000
0120
0000
0000
0000
1030
0000
0100
0010
0000
0001
0000
2001
,  // measure 39
0000
0000
3010
0000
0210
0000
0000
0000
0301
0000
1000
0100
0020
0000
0032
0000
,  // measure 40
0100
0000
0000
0000
2003
0000
0000
3200
1000
0000
0000
0000
0310
0000
0001
0000
,  // measure 41
0022
0000
0033
0000
0220
0000
0330
0000
1000
0000
0010
0100
0000
0001
0000
2001
,  // measure 42
0000
0000
3100
0000
0021
0000
0000
0000
0031
0000
1000
0010
0000
1000
0000
0100
,  // measure 43
0020
0000
0000
0000
0230
0000
0000
0000
1300
0000
0001
1000
0010
0000
0100
0000
,  // measure 44
0002
0000
0000
0000
2003
0000
0000
3200
0000
0000
0000
0000
0310
0000
0001
0000
,  // measure 45
2MM1
0000
3020
0000
,  // measure 46
0230
0000
0000
0000
0000
0000
0000
0000
0000
0000
0000
0000
0000
0000
0000
0000
0302
0000
0000
0000
0000
0000
0000
0000
2003
0000
0000
3200
0000
0000
0320
0000
,  // measure 47
MM32
0000
0203
0000
,  // measure 48
0320
0000
0000
0000
,  // measure 49
0M30
0000
0000
0000
;

//---------------dance-single - ----------------
#NOTEDATA:;
#CHARTNAME:;
#STEPSTYPE:dance-single;
#DESCRIPTION:;
#CHARTSTYLE:;
#DIFFICULTY:Beginner;
#METER:1;
#RADARVALUES:0.052730,0.096204,0.000000,0.007853,0.000000,47.000000,47.000000,0.000000,1.000000,0.000000,0.000000,0.000000,0.000000,0.000000,0.052730,0.096204,0.000000,0.007853,0.000000,47.000000,47.000000,0.000000,1.000000,0.000000,0.000000,0.000000,0.000000,0.000000;
#CREDIT:Benpai;
#DISPLAYBPM:50.000000:100.000000;
#NOTES:
// measure 0
0000
0000
0000
0000
,  // measure 1
0000
0000
0000
0000
,  // measure 2
0000
0000
0000
0000
,  // measure 3
0000
0000
0000
0000
,  // measure 4
0000
0000
0000
0000
,  // measure 5
1000
0000
0000
0000
,  // measure 6
0001
0000
0000
0000
,  // measure 7
0100
0000
0000
0000
,  // measure 8
0010
0000
0000
0000
,  // measure 9
1000
0000
0000
0000
,  // measure 10
0001
0000
0000
0000
,  // measure 11
0010
0000
0000
0000
,  // measure 12
0100
0000
0000
0000
,  // measure 13
1000
0000
0000
0000
,  // measure 14
0010
0000
0000
0000
,  // measure 15
1000
0000
0000
0000
,  // measure 16
0100
0000
0000
0000
,  // measure 17
0010
0000
0000
0000
,  // measure 18
0001
0000
0000
0000
,  // measure 19
0100
0000
0000
0000
,  // measure 20
0001
0000
0000
0000
,  // measure 21
1000
0000
0000
0000
,  // measure 22
0100
0000
0000
0000
,  // measure 23
0010
0000
0000
0000
,  // measure 24
0001
0000
0000
0000
,  // measure 25
0100
0000
0000
0000
,  // measure 26
0010
0000
0000
0000
,  // measure 27
1000
0000
0000
0000
,  // measure 28
0100
0000
0000
0000
,  // measure 29
1000
0000
0000
0000
,  // measure 30
0001
0000
0000
0000
,  // measure 31
0100
0000
0000
0000
,  // measure 32
0001
0000
0000
0000
,  // measure 33
1000
0000
0000
0000
,  // measure 34
0100
0000
0000
0000
,  // measure 35
0010
0000
0000
0000
,  // measure 36
0001
0000
0000
0000
,  // measure 37
1000
0000
0000
0000
,  // measure 38
0001
0000
0000
0000
,  // measure 39
0010
0000
0000
0000
,  // measure 40
0100
0000
0000
0000
,  // measure 41
1000
0000
0000
0000
,  // measure 42
0001
0000
0000
0000
,  // measure 43
0100
0000
0000
0000
,  // measure 44
0010
0000
0000
0000
,  // measure 45
1000
0000
0010
0000
,  // measure 46
1000
0000
0001
0000
,  // measure 47
0010
0000
0100
0000
,  // measure 48
2000
0000
0000
0000
,  // measure 49
3000
0000
0000
0000
;

//---------------dance-single - ----------------
#NOTEDATA:;
#CHARTNAME:;
#STEPSTYPE:dance-single;
#DESCRIPTION:;
#CHARTSTYLE:;
#DIFFICULTY:Easy;
#METER:3;
#RADARVALUES:0.093118,0.115444,0.000000,0.047120,0.000000,83.000000,83.000000,0.000000,6.000000,0.000000,0.000000,0.000000,0.000000,0.000000,0.093118,0.115444,0.000000,0.047120,0.000000,83.000000,83.000000,0.000000,6.000000,0.000000,0.000000,0.000000,0.000000,0.000000;
#CREDIT:Benpai;
#DISPLAYBPM:50.000000:100.000000;
#NOTES:
// measure 0
0000
0000
0000
0000
,  // measure 1
0000
0000
0000
0000
,  // measure 2
0000
0000
0000
0000
,  // measure 3
0000
0000
0000
0000
,  // measure 4
0000
0000
0000
0000
,  // measure 5
1000
0000
0010
0000
,  // measure 6
1000
0000
0001
0000
,  // measure 7
0010
0000
0100
0000
,  // measure 8
1000
0000
0001
0000
,  // measure 9
0100
0000
0010
0000
,  // measure 10
0100
0000
0001
0000
,  // measure 11
0010
0000
0100
0000
,  // measure 12
1000
0000
0010
0000
,  // measure 13
0100
0000
0001
0000
,  // measure 14
0100
0000
0010
0000
,  // measure 15
1000
0000
0001
0000
,  // measure 16
0010
0000
0100
0000
,  // measure 17
0010
0000
0001
0000
,  // measure 18
1000
0000
0001
0000
,  // measure 19
0010
0000
0100
0000
,  // measure 20
2000
0000
0000
0000
,  // measure 21
3001
0000
0100
0000
,  // measure 22
0001
0000
1000
0000
,  // measure 23
0010
0000
1000
0000
,  // measure 24
0001
0000
0010
0000
,  // measure 25
0001
0000
1000
0000
,  // measure 26
0100
0000
1000
0000
,  // measure 27
0010
0000
0100
0000
,  // measure 28
0002
0000
0000
0000
,  // measure 29
1003
0000
0100
0000
,  // measure 30
0010
0000
0100
0000
,  // measure 31
1000
0000
0010
0000
,  // measure 32
0100
0000
0001
0000
,  // measure 33
0010
0000
0001
0000
,  // measure 34
0100
0000
0010
0000
,  // measure 35
0100
0000
0001
0000
,  // measure 36
2000
0000
0000
0000
,  // measure 37
3010
0000
0100
0000
,  // measure 38
0010
0000
1000
0000
,  // measure 39
0100
0000
0010
0000
,  // measure 40
0001
0000
0010
0000
,  // measure 41
0100
0000
0010
0000
,  // measure 42
0001
0000
1000
0000
,  // measure 43
0020
0000
0000
0000
,  // measure 44
0230
0000
0000
0000
,  // measure 45
0301
0000
0010
0000
,  // measure 46
0100
0000
1000
0010
,  // measure 47
1000
0000
0100
0000
,  // measure 48
0020
0000
0000
0000
,  // measure 49
0030
0000
0000
0000
;

//---------------dance-single - ----------------
#NOTEDATA:;
#CHARTNAME:;
#STEPSTYPE:dance-single;
#DESCRIPTION:;
#CHARTSTYLE:;
#DIFFICULTY:Medium;
#METER:6;
#RADARVALUES:0.235601,0.250130,0.039267,0.290574,0.000000,210.000000,205.000000,5.000000,37.000000,0.000000,0.000000,0.000000,0.000000,0.000000,0.235601,0.250130,0.039267,0.290574,0.000000,210.000000,205.000000,5.000000,37.000000,0.000000,0.000000,0.000000,0.000000,0.000000;
#CREDIT:Benpai;
#DISPLAYBPM:50.000000:100.000000;
#NOTES:
// measure 0
0000
0000
0000
0000
,  // measure 1
0001
0010
0002
0000
,  // measure 2
1003
0010
2000
0000
,  // measure 3
3100
0010
0100
1000
,  // measure 4
0001
0100
0001
1000
0100
0010
0002
0000
,  // measure 5
1003
0100
1000
0010
,  // measure 6
0100
0001
0100
0010
,  // measure 7
1000
0100
0010
0100
,  // measure 8
1000
0010
0100
0001
,  // measure 9
1000
0100
1000
0001
,  // measure 10
0010
0001
0100
0010
,  // measure 11
0100
0001
0010
0100
,  // measure 12
1000
0100
0010
0001
,  // measure 13
0100
0000
0010
1000
0010
0000
1000
0100
,  // measure 14
0010
0000
0001
0000
0100
0000
0010
1000
,  // measure 15
0001
0000
0010
0000
0001
0100
0010
0000
,  // measure 16
0100
0000
0001
0000
0010
0000
0100
1000
,  // measure 17
0001
0000
0100
0010
1000
0000
0001
0010
,  // measure 18
0001
0000
1000
0000
0100
0000
0010
0100
,  // measure 19
1000
0000
0001
0000
0010
0100
1000
0100
,  // measure 20
2000
0000
0000
0000
0000
0000
3010
0100
,  // measure 21
0102
0000
2003
0000
3100
0000
0010
0001
,  // measure 22
0100
0000
0020
0000
1030
0000
0010
1000
,  // measure 23
0100
0000
2000
0000
3001
0100
0010
2000
,  // measure 24
0000
0000
3001
0020
0000
0000
0130
1000
,  // measure 25
1002
0000
0203
0000
0310
0000
0100
0001
,  // measure 26
0010
0000
0200
0000
1300
0000
0100
1000
,  // measure 27
0010
0000
0200
0000
0301
0010
0100
2000
,  // measure 28
3001
0000
0010
0200
0000
0000
1300
0001
,  // measure 29
1001
0001
0100
0010
,  // measure 30
1000
0100
0010
0001
,  // measure 31
1000
0010
1000
0001
,  // measure 32
0100
0001
0010
0100
,  // measure 33
0010
0001
0100
0010
,  // measure 34
0100
0001
0010
0100
,  // measure 35
1000
0001
0100
0001
,  // measure 36
2000
0000
0000
3001
,  // measure 37
0021
0000
0230
0000
1300
0000
0010
0100
,  // measure 38
0010
0000
2000
0000
3100
0000
0010
0001
,  // measure 39
0100
0000
0002
0000
0013
0100
1000
0020
,  // measure 40
0000
0000
0130
0002
0000
0000
1003
0100
,  // measure 41
2100
0000
3002
0000
0103
0000
0010
0100
,  // measure 42
0010
0000
2000
0000
3100
0000
0010
0001
,  // measure 43
0020
0000
0230
0000
1300
0010
0100
0002
,  // measure 44
0000
0000
0000
0000
,  // measure 45
2003
0000
3200
0000
,  // measure 46
2300
0000
3020
0230
,  // measure 47
0302
0000
2003
0000
,  // measure 48
3002
0000
0000
0000
,  // measure 49
0003
0000
0000
0000
;

//---------------dance-single - ----------------
#NOTEDATA:;
#CHARTNAME:;
#STEPSTYPE:dance-single;
#DESCRIPTION:;
#CHARTSTYLE:;
#DIFFICULTY:Hard;
#METER:8;
#RADARVALUES:0.286087,0.327093,0.015707,0.604709,0.270941,255.000000,253.000000,2.000000,77.000000,3.000000,0.000000,0.000000,0.000000,0.000000,0.286087,0.327093,0.015707,0.604709,0.270941,255.000000,253.000000,2.000000,77.000000,3.000000,0.000000,0.000000,0.000000,0.000000;
#CREDIT:Benpai;
#DISPLAYBPM:50.000000:100.000000;
#NOTES:
// measure 0
0000
0000
0000
M00M
,  // measure 1
1000
0000
0001
0000
0200
0000
0000
0000
0310
0000
0000
1000
0000
0001
0000
0001
,  // measure 2
0000
0000
1000
0000
0200
0000
0000
0000
0310
0000
0000
0001
0000
1000
0000
0100
,  // measure 3
0000
0000
1000
0000
0020
0000
0000
0000
0130
0000
0000
0001
1000
0000
0200
0000
,  // measure 4
0310
0001
1000
0001
1000
0010
0100
0001
,  // measure 5
1001
0000
1000
0000
0020
0000
0000
0000
0130
0000
0000
0001
0000
0010
0000
0010
,  // measure 6
0000
0000
0100
0000
2000
0000
0000
0000
3001
0000
0000
0100
0000
0010
0000
1000
,  // measure 7
0000
0000
0001
0000
2000
0000
0000
0000
3001
0000
0000
0010
0100
0000
2000
0000
,  // measure 8
0000
0000
3001
0200
0000
0000
0310
0100
,  // measure 9
0001
0000
1000
0000
0200
0000
0000
0000
0310
0000
0000
0001
0000
0100
0000
0100
,  // measure 10
0000
0000
0001
0000
2000
0000
0000
0000
3100
0000
0000
0010
0000
0001
0000
1000
,  // measure 11
0000
0010
0200
0000
0302
0000
1003
0200
,  // measure 12
0000
0000
0310
0002
0000
0000
1003
0001
,  // measure 13
0100
0000
0000
0000
0010
0000
0010
0000
1000
0000
0001
1000
0001
0000
0010
0000
,  // measure 14
0200
0000
0000
0000
0000
0000
0000
0000
0000
0000
1300
0001
1000
0000
0100
0000
,  // measure 15
0020
0000
0000
0000
0000
0000
0000
0000
0000
0130
1000
0001
0100
0000
0020
0000
,  // measure 16
0000
2030
0000
0000
0000
0000
0000
0000
0000
0000
0000
0000
0000
0000
3010
0100
,  // measure 17
0002
0000
0000
0000
0013
0000
0100
1000
0100
0000
0010
0001
1000
0000
0010
0000
,  // measure 18
0200
0000
0000
0000
0000
0000
0000
0000
0000
0000
0310
0100
0001
0000
1000
0000
,  // measure 19
0002
0000
0000
0000
0000
0000
0000
0000
0000
0000
0013
0100
0010
0000
0001
0000
,  // measure 20
0200
0000
0000
0000
0000
0000
0000
0000
0000
0000
0301
1000
0001
0000
0010
0000
,  // measure 21
0200
0000
0000
0000
2300
0000
0000
0000
3001
0000
0000
0100
0000
0100
0000
0020
,  // measure 22
0000
0000
0000
0000
2030
0000
0000
0000
3100
0000
0000
0010
0000
0010
0000
0002
,  // measure 23
0000
0000
2003
0000
3010
0100
0001
0020
,  // measure 24
0000
0000
0031
2000
0000
0000
3010
0100
,  // measure 25
0002
0000
0000
0000
0203
0000
0000
0000
0301
0000
0000
1000
0000
1000
0000
0200
,  // measure 26
0000
0000
0000
0000
0320
0000
0000
0000
0031
0000
0000
0100
0000
0100
0000
0020
,  // measure 27
0000
0000
2030
0000
3001
0100
0001
2000
,  // measure 28
0000
0000
3100
0020
0000
0031
1000
0010
,  // measure 29
0100
0000
0001
0000
2000
0000
0000
0000
3001
0000
0000
0010
0000
0100
0000
0100
,  // measure 30
0000
0000
1000
0000
0020
0000
0000
0000
1030
0000
0000
0001
0000
1000
0000
0100
,  // measure 31
0000
0010
0200
0000
2300
0000
3001
0200
,  // measure 32
0000
0000
0310
2000
0000
0000
3001
0010
,  // measure 33
0100
0000
1000
0000
0200
0000
0000
0000
1300
0000
0000
0001
0000
0100
0000
0010
,  // measure 34
0000
0000
1000
0000
0002
0000
0000
0000
1003
0000
0000
0100
0000
0010
0000
0001
,  // measure 35
0000
1000
0020
0000
0230
0000
0301
2000
,  // measure 36
0000
0000
3100
0020
0000
0000
0031
0000
,  // measure 37
2001
0000
0000
0000
3200
0000
0000
0000
1300
0000
0000
0001
0000
0001
0000
0020
,  // measure 38
0000
0000
0000
0000
0230
0000
0000
0000
1300
0000
0000
0010
0000
0010
0000
0200
,  // measure 39
0000
0000
0302
0000
1003
0100
0010
0200
,  // measure 40
0000
0000
1300
0002
0000
0000
0103
0010
,  // measure 41
2000
0000
0000
0000
3200
0000
0000
0000
1300
0000
0000
0010
0000
0010
0000
0200
,  // measure 42
0000
0000
0000
0000
0302
0000
0000
0000
1003
0000
0000
0100
0000
0100
0000
0010
,  // measure 43
0002
0000
0203
0000
0301
1000
0010
0200
,  // measure 44
0000
0000
0301
2000
0000
0000
3100
0010
,  // measure 45
0002
0000
0023
0000
,  // measure 46
0230
0000
0000
0000
0000
0000
0000
0000
0000
0000
0000
0000
0000
0000
0000
0000
2300
0000
0000
0000
0000
0000
0000
0000
3020
0000
0000
0230
0000
0000
0320
0000
,  // measure 47
2030
0000
3200
0000
,  // measure 48
0320
0000
0000
0000
,  // measure 49
0M30
0000
0000
0000
;
