#TITLE:Sparkling Latinade;
#SUBTITLE:;
#ARTIST:Kamisys x Mellover;
#TITLETRANSLIT:;
#SUBTITLETRANSLIT:;
#ARTISTTRANSLIT:;
#GENRE:;
#CREDIT:;
#BANNER:../bn.png;
#BACKGROUND:../bg.png;
#LYRICSPATH:;
#CDTITLE:;
#MUSIC:Sparkling Latinade - Kamisys x Mellover.ogg;
#OFFSET:-0.050;
#SAMPLESTART:43.478;
#SAMPLELENGTH:12.000;
#SELECTABLE:YES;
#BPMS:0.000=137.980;
#STOPS:;
#BGCHANGES:;
#KEYSOUNDS:;

//---------------dance-single - warpdr!ve----------------
#NOTES:
     dance-single:
     warpdr!ve:
     Challenge:
     10:
     0.707,0.776,0.130,0.441,1.000:
0000
0000
0000
0000
,
0000
0000
0000
0000
,
0000
0000
0000
0000
,
0000
0000
0000
0000
,
0000
0000
0000
0000
,
1001
0000
1000
0000
0001
1000
0000
0001
0000
0000
1000
0000
0100
0001
0100
1000
,
0000
0000
0001
0000
0100
1000
0100
0001
0000
2000
0000
0000
3100
0000
0010
0000
,
0001
0000
1000
0000
0010
0100
0000
0010
0000
0000
1000
0001
1000
0010
0000
0000
,
1000
0001
1000
0000
0100
0000
0010
0000
0001
0000
0000
0000
1000
0001
1000
0000
0010
0000
0100
0000
0000
0000
0000
0000
0101
0000
0000
0000
0000
0000
0000
0000
,
0001
0000
0010
0100
0000
1000
0000
0100
0000
0001
0000
0100
0000
1000
0000
0001
,
0100
0000
0010
0100
0000
0001
0000
0100
0000
1000
0000
0100
0000
0010
0000
0010
,
0100
0000
0001
1000
0000
0001
0000
0010
0000
1000
0000
0010
0000
0001
0000
1000
,
0010
0000
0000
0000
0100
0000
0001
0000
0000
0000
1000
0000
0000
0000
0001
0000
0100
0010
0100
0000
0001
0000
0000
0000
0000
0000
0001
0000
1000
0000
0100
0000
,
0010
0000
0100
1000
0000
0001
0000
0010
0000
1000
0000
0010
0000
0001
0000
1000
,
0010
0000
0100
0010
0000
1000
0000
0010
0000
0001
0000
0010
0000
0100
0000
0000
,
0100
0000
0001
1000
0000
0001
0000
0010
0000
1000
0000
0010
0000
0001
0000
1000
,
0000
0000
1001
0000
0000
1001
0000
0000
0001
0100
0001
1000
0100
0010
0001
1000
,
0002
0000
0000
0203
,
0320
0000
0000
2030
0000
0000
3002
0000
,
0023
0000
0130
0020
0000
0032
0000
2003
,
3010
0000
0100
0000
0010
0000
1000
0000
0000
0000
0001
0000
0001
1000
0100
0010
,
0002
0000
0000
2003
,
3020
0000
0000
0230
0000
0000
0302
0000
,
2003
0000
0000
3200
0000
0000
0000
0000
,
1300
0001
1000
0000
0010
0000
0100
0000
0001
0000
0000
0000
1000
0001
1000
0000
0100
0000
0010
0000
0000
0000
0000
0000
0011
0000
0000
0000
0000
0000
0000
0000
,
0002
0000
0000
2003
0000
0000
3000
0001
,
0200
0000
0000
0320
0000
0000
2030
0000
,
3002
0000
0013
0200
0000
2300
0000
3002
,
0103
0010
0100
0001
1000
0001
0002
0000
,
2003
0000
0000
3020
0000
0000
1030
0001
,
0200
0000
0000
0000
0000
0000
0310
0000
1000
0000
0001
0000
1000
0100
0000
0200
,
0000
0000
0000
0000
,
0300
0000
2000
0000
3002
0000
0203
0000
0302
0000
1003
0000
0010
0100
0001
0000
,
1000
0100
0000
0000
0000
0000
0000
0000
1000
0000
0000
0000
0001
0000
0000
0000
0000
0000
0000
0000
0100
0000
0000
0000
0000
0000
0000
0000
0010
1000
0000
0000
0000
0000
0000
0000
0001
0000
0000
0000
0000
0000
0000
0000
1000
0000
0000
0000
0000
0000
0000
0000
0001
0000
0000
0000
0010
0000
0000
0000
0100
0000
0000
0000
,
1000
0000
0000
0000
0000
0000
0100
0000
0000
0000
0000
0000
1000
0000
0000
0001
0000
0000
0000
0000
0000
0100
0000
0000
0000
0000
0000
0000
0000
0000
0001
0000
0000
0000
1000
0000
0010
0000
0000
0000
1000
0000
0010
0000
0000
0000
1000
0000
,
0001
0000
0010
0100
0000
1000
0000
0001
0000
0100
0010
1000
0010
0000
0100
0001
,
0000
0000
0000
0000
0000
0000
0000
0000
0000
0000
0000
0000
0000
0000
0000
0000
0000
0000
0000
0000
0000
0000
0000
0000
1000
0000
0000
0000
0000
0000
0000
0000
0000
0000
0000
0000
0000
0000
0000
0000
0001
0000
0000
0000
0000
0000
0000
0000
0010
0000
0000
0000
0000
0000
0000
0000
0000
0000
0000
0000
0000
0000
0000
0000
0001
0000
0000
0000
0000
0000
0000
0000
0010
0000
0000
0000
0000
0000
0000
0000
0000
0000
0000
0000
0000
0000
0000
0000
0100
0000
0000
0000
0000
0000
0000
0000
1000
0000
0000
0000
0000
0000
0001
0000
0000
0000
0000
0000
1000
0000
0000
0000
0000
0000
0000
0000
0000
0000
0000
0000
0000
0000
0000
0000
0000
0000
0000
0000
0000
0000
0000
0000
0000
0000
0000
0000
0000
0000
0000
0000
0000
0000
0000
0000
0010
0000
0000
0000
0000
0000
0000
0000
0000
0000
0000
0000
0000
0000
0000
0000
0000
0000
0000
0000
0000
0000
0000
0000
0100
0000
0000
0000
0000
0000
0000
0000
0000
0000
0000
0000
0000
0000
0000
0000
0000
0000
0000
0000
0000
0000
0000
0000
,
0001
0000
0000
0010
0000
0001
0000
0000
1000
0010
0000
0010
0100
0000
0000
0001
0000
1000
0000
0000
0001
0010
0000
0010
,
0100
0000
0000
1000
0000
0001
0000
0000
1000
0010
0000
0010
0100
0000
0000
0001
0000
0100
0010
0000
0100
0010
0000
0100
,
0001
0001
1000
1000
0100
0100
1000
1000
,
0001
0000
0100
0010
0000
0100
0010
0000
1000
0010
0000
1000
0010
0100
0001
0100
0010
1000
0001
0000
0010
0100
0000
0010
,
0100
0000
1000
0000
0001
0010
0000
0001
0000
0000
1M00
0000
0010
0100
0000
0001
,
1000
0000
1000
0000
0100
0010
M000
0001
0000
0010
0M01
0000
0010
0000
0001
0000
,
1000
0000
0001
0000
0100
0010
0000
1000
0M00
0000
0001
0010
0100
0000
1000
0001
,
0100
0010
0100
0010
1000
0010
0000
0110
0000
0200
0000
0000
0301
1000
0001
1000
,
0100
0000
1000
0000
0001
0100
0000
0010
0000
0000
M100
0000
0001
1000
0001
1000
,
0000
0000
0001
0000
1000
0100
000M
0010
0000
0100
M000
0000
0100
0000
1000
0000
,
0001
0000
1000
0010
0100
0001
0000
0001
0000
0000
1000
0010
0100
0001
0000
1001
,
0000
0000
0011
0000
0000
0011
0000
0000
0011
0000
0010
0001
1000
0010
0100
0010
,
1000
0000
0001
0000
0100
0010
0000
1000
0000
0010
0100
0000
0001
0000
1000
0000
,
0001
0000
0010
0100
0000
0010
0000
0001
0000
1000
0100
0000
1000
0000
0001
0000
,
2000
0000
3001
0200
0000
0320
0000
2030
,
0000
0000
0000
0000
0000
0000
0000
0000
0000
0000
0000
0000
3200
0000
0000
0000
1300
0001
1000
0000
0100
0000
0010
0000
0001
0000
0000
0000
1000
0000
0000
0000
,
0001
0000
1000
0000
0010
0100
0000
0010
0000
1000
0010
0000
1000
0000
0001
0000
,
1000
0000
0100
0010
0000
0001
0000
1000
0000
0001
0010
0000
0001
0000
1000
0000
,
0002
0000
0000
0000
0000
0000
2003
0000
0000
0000
0000
0000
0000
0000
3001
0020
,
0000
0000
0000
0000
0032
0000
0000
0000
2003
0000
0000
0000
3020
0000
0000
0000
0230
0000
0000
0000
0320
0000
0000
0030
1010
0000
0000
0000
2000
0000
0000
0000
,
3001
0000
0100
0010
0000
1000
0000
0010
0000
0001
0000
0010
0000
1000
0000
0001
,
0010
0000
0100
1000
0000
0001
0000
0100
0000
1000
0000
0100
0000
0010
0000
1000
,
0001
0000
0100
0001
0000
1000
0000
0100
0000
0001
0000
0100
0000
1000
0000
0001
,
1000
0010
1000
0000
0010
0000
0100
0000
0001
0000
0000
0000
1000
0010
1000
0000
0001
0000
0010
0000
0100
0000
0000
0000
0100
0000
1000
0000
0001
0000
0100
0000
,
0010
0000
0100
0001
0000
1000
0000
0100
0000
0001
0000
0100
0000
1000
0000
0001
,
0100
0000
0010
1000
0000
0001
0000
0010
0000
1000
0000
0010
0000
0100
0000
1000
,
0001
0000
0100
0001
0000
1000
0000
0001
0010
0100
0000
0010
0000
0001
0000
1000
,
0000
0000
1001
0000
0000
1001
0000
0000
1010
0000
0101
0000
0001
1000
0100
0010
,
0001
0010
0001
0000
0000
0000
1000
0000
0040
0000
0000
0000
0000
0000
0000
0000
0230
0000
0000
0000
0000
0000
0000
0000
0000
0000
0000
0000
0000
0000
0000
0000
,
0000
0000
0300
0000
;
