#VERSION:0.83;
#TITLE:SAKE★BEAT;
#SUBTITLE:;
#ARTIST:YusukeKira feat. 鏡音リン・レン;
#TITLETRANSLIT:;
#SUBTITLETRANSLIT:;
#ARTISTTRANSLIT:YusukeKira feat. Kagamine Rin & Len;
#GENRE:;
#ORIGIN:;
#CREDIT:;
#BANNER:[VIP Room Round 2] - SAKE BEAT.png;
#BACKGROUND:[VIP Room Round 2] - SAKE BEAT-bg.png;
#PREVIEWVID:;
#JACKET:[VIP Room Round 2] - SAKE BEAT-jacket.png;
#CDIMAGE:;
#DISCIMAGE:;
#LYRICSPATH:;
#CDTITLE:cdtitle.png;
#MUSIC:[VIP Room Round 2] - SAKE BEAT.ogg;
#OFFSET:-15.011948;
#SAMPLESTART:45.036015;
#SAMPLELENGTH:29.999996;
#SELECTABLE:YES;
#DISPLAYBPM:64.000000:128.000000;
#BPMS:0.000=128.000,
64.000=64.000,
96.000=32.000,
97.000=128.000;
#STOPS:;
#DELAYS:;
#WARPS:;
#TIMESIGNATURES:0.000=4=4;
#TICKCOUNTS:0.000=4;
#COMBOS:0.000=1;
#SPEEDS:0.000=1.000=0.000=0;
#SCROLLS:0.000=1.000;
#FAKES:;
#LABELS:0.000=Song Start;
#BGCHANGES:0.750=[VIP Room Round 2] - SAKE BEAT.avi=1.000=1=0=0=StretchNoLoop==CrossFade==,
99999=-nosongbg-=1.000=0=0=0 // don't automatically add -songbackground-
;
#KEYSOUNDS:;
#ATTACKS:
;

//---------------dance-single - ----------------
#NOTEDATA:;
#CHARTNAME:;
#STEPSTYPE:dance-single;
#DESCRIPTION:;
#CHARTSTYLE:;
#DIFFICULTY:Hard;
#METER:7;
#RADARVALUES:0.372904,0.438078,0.157724,0.157724,0.362765,331.000000,311.000000,20.000000,20.000000,0.000000,0.000000,0.000000,0.000000,0.000000,0.372904,0.438078,0.157724,0.157724,0.362765,331.000000,311.000000,20.000000,20.000000,0.000000,0.000000,0.000000,0.000000,0.000000;
#CREDIT:;
#DISPLAYBPM:64.000000:128.000000;
#NOTES:
// measure 0
2000
3100
0002
0013
,  // measure 1
1000
0000
0000
0100
0000
0100
0010
0000
0000
0001
0000
0000
,  // measure 2
2000
3010
0002
0103
,  // measure 3
1000
0000
1000
0010
0000
0000
0100
0000
0100
0001
0000
0000
,  // measure 4
1000
0000
1000
0010
0000
0010
0002
0000
0000
0013
0000
0000
,  // measure 5
1010
0000
1000
0100
0000
0100
0002
0000
0000
0103
0000
0000
,  // measure 6
0110
0000
0000
0010
0000
0010
0002
0000
0000
0103
0000
0100
,  // measure 7
0010
0000
0000
1010
0000
1000
0001
0000
0000
0011
0000
0000
,  // measure 8
1000
0010
0100
0001
,  // measure 9
1000
0000
1000
0010
0000
0010
0100
0001
0100
0001
0000
0001
,  // measure 10
1000
0100
0010
0001
,  // measure 11
1000
0000
1000
0100
0000
0100
0010
0001
0010
0001
0000
0001
,  // measure 12
2000
0000
0000
0100
0000
0000
0010
0000
0000
3100
0000
1000
,  // measure 13
0020
0000
0000
0001
0000
0000
0100
0000
0000
1030
0000
0010
,  // measure 14
0200
0000
0000
0301
0000
0000
0100
0000
0100
0010
0000
0010
,  // measure 15
2000
0000
0000
3001
0000
1000
0001
0000
0000
1000
1000
1000
,  // measure 16
0001
0000
0000
0010
0000
0000
0100
0000
0000
1000
0000
0000
0001
0000
0001
0010
0000
0010
0100
0000
0000
0010
0000
0000
,  // measure 17
0001
0000
0000
1000
0000
0001
1000
0000
0000
0000
0000
0000
0001
0000
0001
0000
0000
1000
0001
0000
0000
0000
0000
0000
,  // measure 18
1000
0000
0000
0010
0000
0000
0100
0000
0000
0001
0000
0000
1000
0000
1000
0010
0000
0010
0100
0000
0000
0010
0000
0000
,  // measure 19
1000
0000
0000
0000
0000
0010
1000
0000
0000
0000
0000
0000
0001
0000
0001
0000
0000
1000
0001
0000
0000
1000
0000
0000
,  // measure 20
0100
0000
1000
0100
0000
0000
1000
0000
0001
1000
0000
0000
0001
0000
0001
0100
0000
0100
1000
0000
0000
0100
0000
0000
,  // measure 21
0001
0000
0000
0000
0000
1000
0001
0000
0000
0000
0000
0000
1000
0000
1000
0000
0000
0001
1000
0000
0000
0001
0000
0000
,  // measure 22
0100
0000
0001
0100
0000
0000
0001
0000
1000
0001
0000
0000
1000
0000
1000
0100
0000
0100
0001
0000
0000
0100
0000
0000
,  // measure 23
1000
0000
0000
0000
0000
0001
1000
0000
0000
0000
0000
0000
0001
0000
0010
0000
0100
0000
1000
0000
0000
0001
0000
0000
,  // measure 24
1001
0000
0000
0001
0000
0000
0100
0000
0100
0010
0000
0000
,  // measure 25
0110
0000
0000
1000
0000
0000
1010
0000
1000
0001
0000
0000
,  // measure 26
0011
0000
0000
0010
0000
0000
1000
0000
0000
0010
0000
0001
,  // measure 27
0010
0000
0001
0100
0000
0000
1000
0000
0000
0100
0000
0000
,  // measure 28
0001
0000
1000
0002
0000
0000
0010
0000
0000
0100
0000
0000
,  // measure 29
1003
0000
0001
2000
0000
0000
0010
0000
0000
0100
0000
0000
,  // measure 30
3001
0000
0000
1000
0000
0000
0010
0000
0000
0100
0000
0100
,  // measure 31
0001
0000
0001
1000
0000
0000
0100
0000
0000
0001
0000
0000
,  // measure 32
0100
0000
0000
1000
0000
0000
0001
0000
0001
0010
0000
0000
,  // measure 33
0011
0000
0000
1000
0000
0000
1001
0000
1000
0010
0000
0000
,  // measure 34
1010
0000
0000
0120
0000
0000
1000
0000
0000
0130
0000
0010
,  // measure 35
1000
0000
0100
0020
0000
0000
0001
0000
0000
1000
0000
0000
,  // measure 36
0130
0000
0000
0010
0000
0001
0010
0000
0001
1000
0000
0000
,  // measure 37
0010
0000
0000
0100
0010
0100
0001
0100
0001
1000
0000
1000
,  // measure 38
0100
0000
0000
0010
0000
0000
0110
0000
0000
0001
0000
0001
,  // measure 39
1000
0000
0000
0001
0000
0001
0100
0000
0100
0010
0000
0000
,  // measure 40
0110
2010
3010
0102
,  // measure 41
0103
0021
0031
1200
,  // measure 42
1300
0000
0000
0001
0000
0001
0010
0000
0010
0100
0000
0000
,  // measure 43
1000
0000
0000
0001
0000
0001
0100
0000
0100
0010
0000
0000
,  // measure 44
1000
0000
0000
0010
1000
0010
1000
0000
0000
0001
0010
0001
,  // measure 45
0010
0000
0001
1000
0000
0000
0010
0000
0000
0100
0000
0000
,  // measure 46
0001
0000
0000
1000
0000
1000
0100
0000
0100
1000
0000
0000
,  // measure 47
1100
0000
0000
0001
0000
0001
0100
0000
0100
0001
0000
0000
,  // measure 48
0101
0000
0000
1000
0000
0010
0000
0100
0000
0001
0000
0100
,  // measure 49
0000
0010
0000
1000
0000
0100
0000
0010
0000
0001
0000
0000
,  // measure 50
1000
0200
0300
0000
;

//---------------dance-single - ----------------
#NOTEDATA:;
#CHARTNAME:;
#STEPSTYPE:dance-single;
#DESCRIPTION:;
#CHARTSTYLE:;
#DIFFICULTY:Medium;
#METER:6;
#RADARVALUES:0.253485,0.358427,0.078862,0.299675,0.090691,225.000000,215.000000,10.000000,38.000000,0.000000,0.000000,0.000000,0.000000,0.000000,0.253485,0.358427,0.078862,0.299675,0.090691,225.000000,215.000000,10.000000,38.000000,0.000000,0.000000,0.000000,0.000000,0.000000;
#CREDIT:;
#NOTES:
0001
0001
0100
0100
,
0001
0000
0000
0100
0000
0010
1000
0000
0000
0001
0000
0000
,
1000
1000
0100
0100
,
1000
0000
0000
0100
0000
0000
0010
0000
0010
0001
0000
0001
,
0200
0010
0001
1000
,
0020
0300
0000
1000
0000
0000
0100
0000
0000
0001
0000
0000
,
2030
0100
0010
0100
,
3002
0010
2003
0010
,
3001
0001
0001
0001
,
0010
0010
0010
0010
,
0100
0100
0100
0100
,
1000
0000
0000
0001
0000
0000
0100
0000
0100
0010
0000
0010
,
1000
1000
1000
1000
,
0010
0010
0010
0010
,
0200
0000
0000
0300
0000
0000
0001
0000
0000
0001
0000
0001
,
2000
0000
0000
3000
0000
1000
0002
0000
0000
1003
0001
1000
,
0100
0000
0100
0000
0100
0010
0001
0000
,
0100
0100
0100
0000
0220
0000
0330
0000
,
0010
0000
0010
0000
0010
1000
0001
0000
,
0010
0000
0000
0000
0000
0000
0010
0000
0000
0000
0000
0000
0010
0000
0100
0000
0000
0100
0010
0000
0000
0001
0000
0000
,
0100
0000
0000
0001
0000
0000
0100
0000
0001
0100
0000
0000
0010
0000
0000
1000
0000
0000
0001
0000
0000
0010
0000
0000
,
0010
0110
1000
1001
,
1000
0000
0000
0010
0000
0000
1000
0000
0010
1000
0000
0000
0010
0000
0000
0100
0000
0000
0001
0000
0000
1000
0000
0000
,
1000
0000
0000
1001
0000
0000
0001
0001
0000
1001
0000
0000
,
1000
0100
0010
0002
,
0000
2000
3003
2002
,
3003
0001
0001
0100
,
0100
0001
0001
1000
,
1000
0100
1000
2200
,
3300
0010
0001
0022
,
0033
0001
0001
1000
,
1000
0010
0100
0001
,
1000
0000
0000
0010
0000
0000
0100
0000
0100
0002
0000
0000
,
0000
2003
0000
3200
,
0000
0310
0001
0010
,
0001
0000
0001
1000
0000
0000
0010
0000
0000
1000
0000
0000
,
0010
0000
0100
0100
,
0000
0000
0001
1000
0000
1000
0100
0000
0100
0010
0000
0010
,
0001
1000
0100
1000
,
0001
1000
0010
0220
,
0330
0002
0203
2300
,
3200
0302
0023
2030
,
3010
0220
0000
0000
,
0330
0000
0000
0010
0000
0000
0100
0000
0000
0010
0000
0010
,
0100
0000
0000
0100
0000
0100
1000
0000
0000
1000
0000
1000
,
0001
0001
0100
0020
,
0030
0100
0010
2000
,
3000
0010
1000
0002
,
0003
2000
3000
0200
,
0300
0010
0001
0100
,
0100
0200
0300
0000
;

//---------------dance-single - ----------------
#NOTEDATA:;
#CHARTNAME:;
#STEPSTYPE:dance-single;
#DESCRIPTION:;
#CHARTSTYLE:;
#DIFFICULTY:Easy;
#METER:4;
#RADARVALUES:0.162230,0.198140,0.055203,0.055203,0.000000,144.000000,137.000000,7.000000,7.000000,0.000000,0.000000,0.000000,0.000000,0.000000,0.162230,0.198140,0.055203,0.055203,0.000000,144.000000,137.000000,7.000000,7.000000,0.000000,0.000000,0.000000,0.000000,0.000000;
#CREDIT:;
#NOTES:
1000
0000
1000
0000
,
0100
0100
0100
0000
,
0010
0000
0010
0000
,
0001
0000
0001
0000
,
1000
1000
1000
0000
,
0010
0010
0010
0000
,
0100
0000
0100
0000
,
0001
0000
1001
0000
,
1000
0010
1000
0000
,
0001
1000
0001
0000
,
0010
0001
0010
0000
,
0100
0100
0200
0300
,
0010
0001
0010
0000
,
0001
1000
0001
0000
,
1000
0000
0010
0010
,
0100
0000
0100
0100
,
0100
0000
0100
0100
,
0001
0001
0001
0000
1000
0000
0000
0000
,
0100
0000
0100
0100
,
0010
0000
0010
0000
,
0001
0000
0010
0000
0001
0001
0001
0000
,
1000
0000
1001
0000
,
1000
0000
0010
0000
1000
1000
1000
0000
,
0001
0000
1001
0000
,
1000
0100
0010
0001
,
0000
1000
0000
1001
,
0000
0001
0100
0001
,
0001
1000
0010
1000
,
1000
0100
1000
0200
,
0300
0010
0001
0020
,
0030
0001
0001
1000
,
1000
0001
1000
1001
,
0000
0001
0100
0010
,
0000
0100
0000
0110
,
0000
0010
0010
1000
,
1000
0001
0001
1000
,
1000
0000
0100
0100
,
0000
0010
0100
1000
,
0001
0100
0000
0100
,
0000
0010
0010
0010
,
0000
1000
0000
1000
,
0000
0001
0000
0001
,
0000
2002
0000
0000
,
0000
0000
0000
0000
,
3003
1000
0000
1000
,
0000
0200
0000
0300
,
0000
0010
0010
0010
,
0000
0002
0000
0003
,
0000
1000
0000
1000
,
0000
0010
0000
0010
,
0000
0100
0000
0000
;

//---------------dance-single - ----------------
#NOTEDATA:;
#CHARTNAME:;
#STEPSTYPE:dance-single;
#DESCRIPTION:;
#CHARTSTYLE:;
#DIFFICULTY:Beginner;
#METER:1;
#RADARVALUES:0.075482,0.138698,0.015772,0.000000,0.000000,67.000000,65.000000,2.000000,0.000000,0.000000,0.000000,0.000000,0.000000,0.000000,0.075482,0.138698,0.015772,0.000000,0.000000,67.000000,65.000000,2.000000,0.000000,0.000000,0.000000,0.000000,0.000000,0.000000;
#CREDIT:;
#NOTES:
0001
0000
0000
0000
,
0000
0000
0000
0000
,
1000
0000
0000
0000
,
0010
0000
0010
0000
,
0100
0000
0000
0000
,
0100
0000
0000
0000
,
0100
0000
0000
0000
,
0000
0000
0000
0000
,
0001
0000
0000
0000
,
0001
0000
0000
0000
,
0001
0000
0000
0000
,
0001
0000
0001
0000
,
1000
0000
0000
0000
,
1000
0000
0000
0000
,
1000
0000
0000
0000
,
1000
0000
1000
0000
,
0100
0000
0100
0000
,
0100
0100
0100
0000
,
0010
0000
0010
0000
,
0010
0010
0010
0000
,
0001
0000
0100
0000
,
0001
0000
1001
0000
,
1000
0000
0100
0000
,
1000
0000
1001
0000
,
0000
0001
0000
0000
,
0000
0001
0000
0000
,
0000
0010
0000
0010
,
0000
0010
0000
0000
,
0000
0100
0000
0000
,
0000
0100
0000
0000
,
0000
1000
0000
1000
,
0000
1000
0000
0000
,
0000
0001
0000
0000
,
0000
1000
0000
0000
,
0000
0001
0000
0001
,
0000
0001
0000
0000
,
0000
0100
0000
0000
,
0000
0100
0000
0000
,
0000
0010
0000
0010
,
0000
0010
0000
0000
,
0000
1000
0000
1000
,
0000
0001
0000
0001
,
0000
0010
0000
0000
,
0000
0000
0000
0000
,
0000
0000
0000
0000
,
0000
0000
0000
0000
,
0000
0100
0000
0000
,
0000
1000
0000
0000
,
0000
0001
0000
0000
,
0000
0001
0000
0000
,
0000
0100
0000
0000
;
