#TITLE:New Rules;
#SUBTITLE:;
#ARTIST:Dua Lipa;
#TITLETRANSLIT:;
#SUBTITLETRANSLIT:;
#ARTISTTRANSLIT:;
#GENRE:;
#CREDIT:;
#BANNER:[VIP Room Round 2] -New Rules-bn.png;
#BACKGROUND:[VIP Room Round 2] - New Rules-bg.png;
#LYRICSPATH:;
#CDTITLE:;
#MUSIC:[VIP Room Round 2] - New Rules.ogg;
#OFFSET:0.326875;
#SAMPLESTART:58.746037;
#SAMPLELENGTH:15.000000;
#SELECTABLE:YES;
#BPMS:0.000000=116.000000
;
#STOPS:114.000000=2.080000
;
#BGCHANGES:0.500=[VIP Room Round 2] - New Rules.avi=1.000=0=0=1=====,
99999=-nosongbg-=1.000=0=0=0 // don't automatically add -songbackground-
;
#KEYSOUNDS:;
#ATTACKS:;

//---------------dance-single - ----------------
#NOTES:
     dance-single:
     :
     Easy:
     3:
     0.182225,0.352776,0.279032,0.079723,0.000000,128.000000,100.000000,28.000000,8.000000,0.000000,0.000000,0.182225,0.352776,0.279032,0.079723,0.000000,128.000000,100.000000,28.000000,8.000000,0.000000,0.000000:
0000
0000
0000
0000
,
0000
0000
0000
0000
,
0000
0000
0000
0000
,
0000
0000
0000
0000
,
0000
0000
1000
1000
,
0001
0001
0100
0100
,
0010
1000
0000
0000
,
0000
0000
0000
0000
,
0000
0000
0001
0001
,
0100
0100
0010
1000
,
0100
0010
0000
0000
,
0000
0000
0000
0000
,
0000
0000
0002
0000
,
0000
0003
2000
0000
,
0000
3000
0020
0000
,
0000
0030
0200
0000
,
0300
1001
0002
0000
,
0000
0003
0020
0000
,
0000
0030
0200
0000
,
0300
0000
2000
0000
,
0000
3000
1001
0000
,
0000
0000
0000
0000
,
0000
0000
1010
0000
,
0000
0000
0000
0000
,
0000
0000
0101
0000
,
0000
0000
0000
0000
,
0000
0000
0100
0100
,
0001
0001
0010
1000
,
0010
0001
0100
0001
,
0001
0001
1000
0100
,
0010
0001
0100
0100
,
0100
0100
0010
1000
,
0100
0010
0100
0100
,
0100
0100
1000
0001
,
0100
0001
0010
0010
,
0010
0010
0100
0010
,
0001
0100
0010
1010
,
0010
1010
1100
0011
,
0101
1010
0100
0101
,
0100
0101
0011
0101
,
1010
1100
1000
1100
,
0001
0101
0101
0011
,
0101
1010
1000
1100
,
1000
1100
0011
0101
,
1010
1001
0000
0000
;

//---------------dance-single - ----------------
#NOTES:
     dance-single:
     :
     Hard:
     8:
     0.415700,0.396873,0.000000,0.159447,0.363738,292.000000,292.000000,0.000000,16.000000,0.000000,0.000000,0.415700,0.396873,0.000000,0.159447,0.363738,292.000000,292.000000,0.000000,16.000000,0.000000,0.000000:
// measure 0
0000
0000
0000
0000
,  // measure 1
0000
0000
0000
0000
,  // measure 2
0000
0000
0000
0000
,  // measure 3
0000
0000
0000
0000
,  // measure 4
0000
0000
0000
0000
1000
0100
0010
0001
,  // measure 5
0100
0010
0200
0000
0301
0100
0010
1000
,  // measure 6
0002
0000
0000
0000
2003
0000
0000
0000
3010
0000
0000
0010
0000
0000
0100
0000
,  // measure 7
0001
0000
0000
1000
0100
1000
0100
0000
0010
0000
0000
0010
0000
0000
0100
0000
,  // measure 8
1000
0000
0000
0001
0000
0000
0001
0000
1000
0000
0100
0000
0010
0000
0001
0000
,  // measure 9
0100
0001
0020
0000
0130
0010
0001
1000
,  // measure 10
0200
0000
0000
0000
2300
0000
0000
0000
3001
0000
0000
0001
0000
0000
0100
0000
,  // measure 11
0100
0000
0000
0010
0100
0010
0100
0000
0010
0000
0000
1000
0000
0000
0001
0000
,  // measure 12
0001
0000
0000
1000
0000
0000
1000
0000
0002
0000
0000
0010
0000
0000
0000
0000
,  // measure 13
0100
0000
0000
0100
0003
0000
0100
0000
0001
0000
0000
0010
0000
0000
0001
0000
,  // measure 14
1000
0000
0000
1000
0000
0000
0100
0000
0010
0000
0000
0100
0000
0000
0010
0000
,  // measure 15
0010
0000
0000
0001
0100
0001
0100
0000
0010
0000
0000
1000
0000
0000
1000
0000
,  // measure 16
0001
1000
0001
1000
0001
0000
0000
0000
2000
0000
0000
0100
0000
0000
0000
0000
,  // measure 17
0010
0000
0000
0010
3000
0000
0010
0000
0100
0000
0000
0001
0000
0000
0100
0000
,  // measure 18
0100
0000
0000
0010
0000
0000
1000
0000
0100
0000
0000
0010
0000
0000
0100
0000
,  // measure 19
1000
0000
0000
0001
1000
0001
1000
0000
0001
0000
0000
0100
0000
0000
0001
0000
,  // measure 20
0001
0000
0000
1000
0000
0000
0100
0000
2000
0000
0000
0000
3010
0000
0100
0000
,  // measure 21
0001
0100
0000
0100
0010
0000
1000
0000
0002
0000
0000
0000
1003
0000
0010
0000
,  // measure 22
0100
0001
0000
0001
0100
0000
0001
0000
2000
0000
0000
0000
3100
0000
1000
0000
,  // measure 23
0100
0010
0000
0010
0001
0000
0100
0000
0020
0000
0000
0000
1030
0000
0100
0000
,  // measure 24
1000
0010
0000
0010
0100
0000
0100
0000
0002
0000
0000
0000
0103
0000
0010
0000
,  // measure 25
1000
0001
0000
0001
1000
0000
0100
0000
2000
0000
0000
0000
3100
0000
1000
0000
,  // measure 26
0001
0100
0000
0100
0001
0000
1000
0000
0002
0000
0000
0000
0103
0000
0010
0000
,  // measure 27
1000
0001
0000
0001
1000
0000
0010
0000
0100
0000
0001
0000
0100
0000
0010
0000
,  // measure 28
2000
0000
0000
0001
0000
0000
0001
0000
3000
0000
0000
0000
0001
0000
0000
0001
,  // measure 29
0100
0000
0000
0100
0010
0000
0000
0010
1000
0000
0000
1000
0000
0000
0100
0000
,  // measure 30
1000
0000
0010
0000
0100
0000
0001
0000
0100
0000
0000
0100
0001
0000
0000
0001
,  // measure 31
0010
0000
0000
0010
0100
0000
0000
0100
0010
0000
0000
0001
0000
0000
0100
0000
,  // measure 32
0010
0000
1000
0000
0100
1000
0100
0000
1000
0000
0000
1000
0010
0000
0000
0010
,  // measure 33
0100
0000
0000
0100
0001
0000
0000
0001
0100
0000
0000
0010
0000
0000
1000
0000
,  // measure 34
0100
0000
0010
0000
0001
0000
1000
0000
0001
0000
0000
0001
0100
0000
0000
0100
,  // measure 35
0010
0000
0000
0010
1000
0000
0000
1000
0010
0000
0000
1000
0000
0000
0100
0000
,  // measure 36
0010
0000
0001
0000
1000
0100
1000
0000
0001
0000
0100
0001
0000
0000
0100
0000
,  // measure 37
0001
0000
1000
0100
0000
0000
0100
0000
0001
0000
0100
0000
1000
0000
0100
0000
,  // measure 38
0001
0000
0100
0000
1000
0000
0010
0000
0100
0000
0001
0100
0000
0000
0001
0000
,  // measure 39
1000
0000
0100
1000
0000
0000
0010
0000
1000
0000
0010
0000
0001
0000
0010
0000
,  // measure 40
1000
0000
0010
0000
0001
0000
0010
0000
1000
0000
0100
1000
0000
0000
0001
0000
,  // measure 41
0100
0000
0001
1000
0000
0000
0100
0000
1000
0000
0100
0000
0001
0000
0100
0000
,  // measure 42
1000
0000
0100
0000
0001
0000
0100
0000
1000
0000
0010
0100
0000
0000
0001
0000
,  // measure 43
0010
0000
0100
0010
0000
0000
0010
0000
1000
0000
0010
0000
0001
0000
0010
0000
,  // measure 44
1000
0010
0100
0000
0000
0000
0000
0000
;

//---------------dance-single - ----------------
#NOTES:
     dance-single:
     :
     Medium:
     5:
     0.284726,0.332596,0.109620,0.249135,0.000000,200.000000,189.000000,11.000000,25.000000,0.000000,0.000000,0.284726,0.332596,0.109620,0.249135,0.000000,200.000000,189.000000,11.000000,25.000000,0.000000,0.000000:
0000
0000
0000
0000
,
0000
0000
0000
0000
,
0000
0000
0000
0000
,
0000
0000
0000
0000
,
0000
0000
1000
0001
,
0100
0010
0100
0000
0001
0000
1000
0000
,
0200
0000
0320
0000
0030
0000
0000
0001
,
0100
0010
1000
0000
0000
1000
0100
0010
,
0001
0000
1000
0001
,
1000
0001
1000
0000
0010
0000
0100
0010
,
0200
0000
0320
0000
0030
0000
0000
1000
,
0100
0010
0001
0000
0000
0001
0100
0010
,
1000
0010
1000
0100
,
0010
0010
0001
0001
,
0001
0100
0110
0010
,
1000
0100
1000
1000
,
1000
0001
0100
0000
0201
0000
0301
0000
,
0010
0001
0100
0000
0010
0000
1000
0000
,
1000
0010
0100
0000
0001
0000
1000
0000
,
1000
0001
0001
0100
,
0100
0001
0100
0000
2002
0000
3003
0000
,
0001
1000
2020
3030
,
0010
1000
0202
0303
,
0001
0100
0220
0330
,
0010
1000
2200
3300
,
0010
0001
0202
0303
,
0001
0100
0220
0330
,
0010
0000
1000
0000
1000
0100
0010
0001
,
1000
0001
1000
0001
1000
0000
0001
0100
,
0010
0000
1010
0000
0010
1000
0100
0010
,
0001
1000
0001
0000
0100
0001
0100
0000
,
0010
1000
0100
0000
0010
0000
0100
0000
,
0010
0001
0100
0010
1000
0100
1000
0000
,
0001
0100
0001
0000
0100
0010
1000
0100
,
0010
0001
1000
0000
1000
0100
1000
0000
,
0001
0100
0001
0000
0001
0010
0100
0010
,
0001
0100
0010
1000
0001
0000
1000
0000
,
0001
1000
0020
0130
,
0020
0130
0010
1000
,
0100
0010
0002
0103
,
0002
0000
0013
0000
0100
1000
0100
0000
,
0010
0001
0010
0000
0200
0000
0310
0000
,
0002
0000
0103
0000
0010
1000
0010
0000
,
0100
0001
0100
0000
0001
0000
1000
0000
,
0100
0010
1001
0000
;

//---------------dance-single - ----------------
#NOTES:
     dance-single:
     :
     Beginner:
     1:
     0.103925,0.154339,0.000000,0.029896,0.000000,73.000000,73.000000,0.000000,3.000000,0.000000,0.000000,0.103925,0.154339,0.000000,0.029896,0.000000,73.000000,73.000000,0.000000,3.000000,0.000000,0.000000:
0000
0000
0000
0000
,
0000
0000
0000
0000
,
0000
0000
0000
0000
,
0000
0000
0000
0000
,
0000
0000
0001
0000
,
0000
0000
0001
0000
,
0000
0000
0100
0000
,
0000
0000
0100
0000
,
0000
0000
0010
0000
,
0010
0000
1000
0000
,
1000
0000
0001
0000
,
0000
0000
0001
0000
,
0000
0000
0100
0000
,
0100
0000
0100
0000
,
0100
0000
0001
0000
,
0001
0000
0001
0000
,
0001
0000
1000
0000
,
1000
0000
1000
0000
,
1000
0000
0100
0000
,
0100
0000
0010
0000
,
0010
0000
0002
0003
,
0000
0000
0000
0000
,
0000
0000
2000
3000
,
0000
0000
0000
0000
,
0000
0000
0020
0030
,
0000
0000
0000
0000
,
0000
0000
0100
0000
,
0100
0000
0001
0000
,
0010
0000
0100
0010
,
0010
0010
0000
0000
,
0000
0000
0100
0100
,
0100
0100
0000
0000
,
0000
0000
1000
1000
,
1000
1000
0000
0000
,
0000
0000
0001
0001
,
0001
0001
0000
0000
,
0000
0000
0000
0100
,
0000
0100
0001
0001
,
1000
1000
0010
0000
,
0010
0000
0100
0100
,
0001
0001
1000
0000
,
1000
0000
0001
0001
,
0010
0010
0100
0000
,
0100
0000
0010
0010
,
0001
0001
0000
0000
;
