#TITLE:Megalara Garuda;
#SUBTITLE:;
#ARTIST:SYUNN;
#TITLETRANSLIT:;
#SUBTITLETRANSLIT:;
#ARTISTTRANSLIT:;
#GENRE:Neurostep;
#CREDIT:;
#BANNER:[VIP Room Round 2] - Megalara Garuda.png;
#BACKGROUND:[VIP Room Round 2] - Megalara Garuda-bg.png;
#LYRICSPATH:;
#CDTITLE:cdtitle.png;
#MUSIC:[VIP Room Round 2] - Megalara Garuda.ogg;
#OFFSET:-0.519445;
#SAMPLESTART:32.514446;
#SAMPLELENGTH:10.666668;
#SELECTABLE:YES;
#DISPLAYBPM:90.000000:180.000000;
#BPMS:0.000000=180.000000
,60.000000=360.000000
,60.375000=180.000000
,60.562500=90.000000
,60.750000=360.000000
,61.125000=180.000000
,61.312500=90.000000
,61.500000=360.000000
,64.000000=90.000000
,80.000000=180.000000
,144.000000=360.000000
,144.500000=180.000000
,144.750000=90.000000
,145.000000=180.000000
,147.000000=360.000000
,147.500000=180.000000
,147.750000=90.000000
,148.000000=180.000000
,152.000000=90.000000
,152.250000=180.000000
,152.500000=360.000000
,153.000000=180.000000
,160.000000=270.000000
,160.750000=90.000000
,162.000000=180.000000
,257.000000=360.000000
,257.500000=180.000000
,257.750000=90.000000
,258.000000=180.000000
,286.000000=360.000000
,286.375000=180.000000
,286.562500=90.000000
,286.750000=360.000000
,287.125000=180.000000
,287.312500=90.000000
,287.500000=360.000000
,290.000000=90.000000
;
#STOPS:61.500000=0.042000,
61.750000=0.041000,
62.000000=0.056000,
62.333332=0.055000,
62.666668=0.056000,
63.000000=0.056000,
63.333332=0.055000,
63.666668=0.056000,
160.750000=0.333000,
287.500000=0.042000,
287.750000=0.041000,
288.000000=0.056000,
288.333344=0.055000,
288.666656=0.056000,
289.000000=0.056000,
289.333344=0.055000,
289.666656=0.056000
;
#BGCHANGES:;
#KEYSOUNDS:;
#ATTACKS:;

//---------------dance-single - ----------------
#NOTES:
     dance-single:
     :
     Challenge:
     12:
     0.997824,1.142670,0.461097,1.212515,1.216784,818.000000,764.000000,54.000000,142.000000,66.000000,0.000000,0.997824,1.142670,0.461097,1.212515,1.216784,818.000000,764.000000,54.000000,142.000000,66.000000,0.000000:
0000
0000
0000
0000
,
0000
0000
0000
0000
,
0000
0000
0000
0000
,
0000
0000
0000
0000
,
2000
3000
0020
0030
1000
0000
0200
0300
1000
0000
0020
0030
1000
0000
0200
0300
,
1000
0000
0020
0030
0200
0300
0002
0003
0010
0000
0002
0003
0200
0300
0020
0030
,
1000
0000
0200
0300
0010
0000
0200
0300
0001
0000
0200
0300
2000
3000
0020
0030
,
0200
0300
0002
0003
1000
0000
0002
0003
0010
0000
2000
3000
0020
0030
0002
0003
,
1000
0000
0010
1000
0010
0000
1000
0010
0100
0010
0100
0010
1000
0000
0010
1000
,
0001
0000
0010
0001
0010
0000
0001
0010
0100
0010
0100
0010
0001
0000
1000
0001
,
0100
0000
0010
0100
0010
0000
0100
0010
1000
0010
1000
0010
0100
0000
0001
1000
,
0100
0000
0010
0100
0010
0000
0100
0010
0001
0010
0001
0010
0100
0000
0010
0001
,
2000
0000
3010
0000
0201
0000
0000
0000
0000
0300
0001
1000
0100
0000
0020
0000
,
0000
0000
0031
0000
1001
0000
2000
0000
0000
0000
3001
0100
0010
0000
1000
0000
,
1001
0000
0000
0000
1010
0000
0000
0000
0100
0000
0001
0000
0011
0000
0100
1000
,
0001
0000
0000
0000
0000
0000
0000
0000
0000
0101
0000
0000
0000
0000
0000
0000
0000
0000
0001
0000
0000
0100
0000
0000
0001
0000
0000
0000
0100
0000
0000
0000
1000
0000
0000
0000
0001
0000
0000
0000
0010
0000
0000
0000
1000
0000
0000
0000
,
0001
0000
0010
0000
0100
0000
0002
0000
0000
0000
0103
0000
0010
0000
0002
0000
0000
0000
0103
0000
0010
0100
0001
1000
0100
0000
0010
0000
0001
0000
0100
0000
,
1000
0000
0100
0000
0001
0000
0010
0000
0100
0000
1000
0000
0010
0000
0001
0000
0010
0000
1000
0000
0100
0010
0100
1000
0001
0000
0100
0000
0010
0000
1000
0000
,
0001
0000
0010
0000
0100
0000
2000
0000
0000
0000
3010
0000
0100
0000
2000
0000
0000
0000
3100
0000
0010
0000
2000
0000
0000
0000
3001
0100
0001
0000
0010
0000
,
1000
0000
0010
0000
0001
0000
0100
0000
1000
0000
0100
0000
0010
0000
2000
0000
0000
0000
3001
0000
0010
0001
0100
0010
1000
0000
0100
0000
0010
0000
0001
0000
,
1002
0000
0000
0000
0000
0000
0000
0000
M000
0000
0000
0000
0023
0000
0000
0000
0000
0000
0001
0000
0000
0000
0000
0000
0031
0000
0000
0000
0000
0000
0100
0000
0000
0010
0000
0000
1000
0000
0000
0001
0000
0000
1000
0000
0000
0001
0000
0000
,
1000
0001
0010
0100
0020
0000
0000
0000
1030
0000
0010
0100
0010
0100
0010
0001
,
2000
0000
0000
0000
000M
0000
0000
0000
0000
0000
0000
0000
3020
0000
0000
0000
0000
0000
2030
0000
0000
0000
0000
0000
3100
0000
0000
0010
0000
0000
0100
0000
0000
0010
0000
0000
0100
0000
0000
1000
0000
0000
0010
0000
0000
0100
0000
0000
,
0001
0000
0100
0000
0100
0000
1000
0100
1000
0100
0010
0100
0001
0000
1000
0100
,
0020
0000
0000
0000
0M00
0000
0000
0000
0000
0000
0000
0000
0032
0000
0000
0000
0000
0000
0100
0000
0000
0000
0000
0000
0103
0000
0000
0000
0000
0000
0010
0000
0000
0100
0000
0000
0001
0000
0000
1000
0000
0000
0001
0000
0000
1000
0000
0000
,
0001
1000
0100
0010
0100
0000
0001
0000
0001
0000
0100
0010
0100
0010
0100
1000
,
0002
0000
0000
0000
0000
0000
0000
0000
0100
0000
0000
0000
0000
0000
0000
0003
2001
0000
0000
0000
0000
0000
0000
0000
0100
0000
0000
0000
0000
0000
0000
0000
3001
0000
0000
0000
1000
0000
0000
0000
0001
0000
0000
0000
1000
0000
0000
0000
0200
0000
0000
0000
0000
0000
0000
0000
0310
0000
0000
0000
0001
0000
0000
0000
,
1000
0000
1010
0000
0001
0100
0001
0000
0010
0000
0011
0000
1000
0100
1000
0000
,
2001
0000
0000
0000
0000
0000
0000
0000
000M
0000
0000
0000
3020
0000
0000
0000
0000
0000
1000
0000
0000
0000
0000
0000
1030
0000
0000
0000
0000
0000
0100
0000
0000
0010
0000
0000
0001
0000
0000
0100
0000
0000
0001
0000
0000
0100
0000
0000
,
0001
0100
0010
1000
0200
0000
0000
0000
0301
0000
0100
0010
0100
1000
0001
0100
,
0002
0000
0000
0000
0M00
0000
0000
0000
0000
0000
0000
0000
0023
0000
0000
0000
0000
0000
0032
0000
0000
0000
0000
0000
1003
0000
0000
0010
0000
0000
1000
0000
0000
0010
0000
0000
0100
0000
0000
0001
0000
0000
0010
0000
0000
0100
0000
0000
,
1000
0000
0010
0000
0010
0000
0001
0010
0100
0010
1000
0001
1000
0000
0100
0010
,
0200
0000
0000
0000
00M0
0000
0000
0000
0000
0000
0000
0000
2300
0000
0000
0000
0000
0000
0001
0000
0000
0000
0000
0000
3001
0000
0000
0000
0000
0000
0100
0000
0000
0010
0000
0000
1000
0000
0000
0001
0000
0000
1000
0000
0000
0001
0000
0000
,
1000
0100
0010
0100
0002
0000
0000
0000
0103
0000
1000
0100
0010
0001
0100
0010
,
1000
0000
1000
0000
0100
0000
0100
0000
0010
0001
0010
0001
0100
0000
0010
0000
,
1000
0100
0010
0001
0010
0001
1000
0010
1000
0010
0100
0001
1000
0100
0010
0001
,
02M0
M000
000M
0300
1010
0000
1001
0000
0011
0000
1001
0000
0M20
M000
000M
0030
,
1001
0000
1010
0000
1001
0000
0011
0000
1001
0000
1010
0000
0001
0100
0010
1000
,
02MM
0300
0000
0000
1100
0000
1100
0000
0011
0000
0011
0000
0101
0000
0101
0000
,
1010
1010
1001
1001
1100
0011
0101
1010
,
2002
0000
0000
0000
0000
0000
0000
0000
0000
3003
0000
0000
1000
0000
0100
0000
0001
0000
1000
0000
0010
0000
0001
0000
1000
0000
0000
0000
0000
0000
0010
0000
0000
0000
0000
0000
0100
0000
0000
0000
0000
0000
2000
0000
0000
0MM0
0000
0000
,
0000
0000
3100
0000
0010
0000
2000
0MM0
0000
0000
3100
0000
0010
0100
1000
0001
,
0100
0010
1000
0100
0001
0100
1000
0010
,
0100
0000
0001
0000
0010
0000
1000
0000
0010
0000
0001
0000
0100
0010
0100
0001
,
1000
0000
0100
0000
0010
0000
0001
0000
1000
0000
0010
0000
0100
0000
0002
0MM0
,
0000
0000
0013
0000
0100
0000
0002
0MM0
0000
0000
0103
0000
0010
0000
0002
0MM0
,
0000
0000
1003
0100
1000
0000
0010
0000
0001
0000
0010
0000
1000
0000
0100
0000
,
0001
0000
0100
0000
0010
0000
0001
0000
1000
0010
1000
0000
0010
1000
0100
0010
,
0001
0000
0100
0000
1000
0000
0100
0000
0001
0000
0010
0000
0001
0000
2100
00MM
,
0000
0000
3001
0100
0001
0000
2010
0M0M
0000
0000
3001
0000
0010
0100
1000
0001
,
0100
0000
0010
1000
0100
0000
0010
0000
0001
0000
1000
0000
0100
0000
0012
MM00
,
0000
0000
0103
0000
0100
0000
0001
1000
0001
0000
0100
0000
0010
1000
0001
1000
,
0010
0000
0100
0001
0010
0000
0100
1000
0001
0000
1000
0000
0010
0000
0102
M0M0
,
0000
0000
1003
0100
1000
0000
0012
MM00
0000
0000
1003
0000
0100
0010
0001
1000
,
0010
0000
0100
0010
0100
0000
0001
0000
1000
0000
0001
0000
0100
0000
2010
0M0M
,
0000
0000
3010
0000
1000
0000
0001
1000
0000
0000
0001
0000
1000
0100
0010
0100
,
0001
0000
0000
0000
0100
0000
0000
0000
1000
0000
0000
0000
0001
0000
0000
0000
0100
0000
0000
0000
0010
0000
0000
0000
2M2M
0000
0000
0000
0000
0000
0000
0000
0000
0000
0000
0000
0000
0000
0000
0030
0000
0000
3010
0000
0000
1000
0000
0000
,
0001
0000
0000
0000
0000
0000
0000
0000
0000
0000
0000
0000
2MM2
0000
0000
0000
0000
0000
0000
3000
0000
0000
0000
0000
0013
0000
0000
0000
0001
0000
0000
0000
1000
0000
0000
0000
0001
0000
0000
0000
02M0
0000
0000
0000
0000
0000
0000
0000
0000
0000
0000
0000
0000
0000
0000
0000
0310
0000
0000
0000
1000
0000
0000
0000
,
0M02
0000
0000
0000
0000
0000
0013
0000
0000
0100
0000
0000
1000
0000
0000
0100
0000
0000
0020
0000
0000
0000
0000
0000
0031
0000
0000
0000
0100
0000
0000
0000
0000
0000
0000
0000
M11M
0000
0000
0000
0000
0000
0000
0000
0001
0000
0000
0000
,
0100
1000
0000
M11M
0000
1000
0100
0001
0000
M11M
0000
0001
,
1000
0000
0000
0000
0100
0000
0000
0000
0000
0000
0000
0000
11MM
0000
0000
0000
0000
0000
0000
0000
0010
0000
0000
0000
MM22
0000
0000
0000
0000
0000
0000
0000
0000
0000
0000
0000
0030
0000
0000
0000
0000
0000
0013
0000
0000
0001
0000
0000
,
1000
0000
0000
2MM2
0003
0000
3010
1000
0001
1000
02M0
0000
0000
0000
0310
0001
,
2M00
0000
0000
0000
0000
0000
3001
0000
0000
0100
0000
0000
0010
0000
0000
1000
0000
0000
0001
0000
0000
0000
0000
0000
0010
0000
0000
0000
1000
0000
0000
0000
0000
0000
0000
0000
M11M
0000
0000
0000
0000
0000
0000
0000
1000
0000
0000
0000
,
0010
0001
0000
M11M
0000
0001
0010
1000
0010
0001
0100
1000
,
0100
0000
0000
0000
0001
0000
0000
0000
0010
0000
0000
0000
MM02
0000
0000
0000
0000
0000
0000
0000
0000
0003
0000
0000
1002
0000
0000
0000
0000
0000
0000
0000
M000
0000
0000
0000
0023
0000
0000
0000
0000
0000
0001
0000
0000
0000
0000
0000
,
0031
0000
1000
0010
0100
0001
0100
0001
0100
0001
1000
0100
0020
0000
0000
0000
,
1030
0000
0000
0000
0000
0000
0010
0000
0000
0100
0000
0000
0010
0000
0000
0001
0000
0000
0100
0000
0000
0010
0000
0000
2000
0000
0000
0000
00M0
0000
0000
0000
0000
0000
0000
0000
3020
0000
0000
0000
0000
0000
0032
0000
0000
0000
0000
0000
,
0013
0100
0010
0100
0001
1000
0100
0010
0100
0000
0001
0000
0001
0000
0100
0010
,
0100
0000
0000
1000
0000
0000
0010
0000
0000
0100
0000
0000
0001
0000
0000
0000
0000
0000
1000
0000
0000
0010
0000
0000
0200
0000
0000
0000
00M0
0000
0000
0000
0000
0000
0000
0000
0302
0000
0000
0000
0000
0000
1000
0000
0000
0000
0000
0000
,
1003
0000
0100
0010
0001
0100
0001
0100
0010
1000
0001
1000
0100
0000
0100
0000
,
0001
0000
0000
0000
0000
0000
0100
0000
0000
0010
0000
0000
0100
0000
0000
1000
0000
0000
0001
0000
0000
0100
0000
0000
0020
0000
0000
0000
0M00
0000
0000
0000
0000
0000
0000
0000
2030
0000
0000
0000
0000
0000
3002
0000
0000
0000
0000
0000
,
0013
0100
0010
0100
1000
0000
0010
0100
0001
0000
0000
0101
0000
0000
0001
0100
,
0001
0000
0000
0000
0000
0000
0000
0000
0000
0000
0000
0000
0000
0000
0000
0000
0100
0000
0000
0000
0000
0000
0000
0000
0000
0000
0000
0000
0000
0000
0000
0000
1000
0000
0000
0000
0000
0000
0000
0000
0000
0000
0000
0000
0000
0000
0000
0000
0001
0000
0000
0000
0000
0000
0000
0000
0000
0000
0000
0000
0000
0000
0000
0000
0010
0000
0000
0000
0000
0000
0000
0000
0000
0000
0000
0000
0000
0000
0000
0000
1000
0000
0000
0000
0000
0000
0000
0000
0000
0000
0000
0000
0000
0000
0000
0000
0002
0000
0000
0000
0000
0000
0003
0000
0000
0000
0000
0000
0020
0000
0000
0000
0000
0000
0030
0000
0000
0000
0000
0000
0001
0000
0000
0000
0000
0000
0000
0000
0000
0000
0000
0000
0200
0000
0000
0000
0000
0000
0300
0000
0000
0000
0000
0000
0001
0000
0000
0000
0000
0000
0000
0000
0000
0000
0000
0000
0020
0000
0000
0000
0000
0000
0030
0000
0000
0000
0000
0000
0001
0000
0000
0000
0000
0000
0000
0000
0000
0000
0000
0000
0200
0000
0000
0000
0000
0000
0300
0000
0000
0000
0000
0000
,
0001
0000
0020
0030
0002
0003
0200
0300
2000
0000
3200
0300
0002
0003
0020
0030
0100
0000
2000
3000
0010
0000
0200
0300
0010
0000
2000
3000
0002
0003
0020
0030
,
2000
0000
3020
0030
0100
0000
0020
0030
0001
0000
0200
0300
2000
3000
0002
0003
0020
0030
2000
3000
0100
0000
0020
0030
0100
0000
2000
3000
0100
0000
0002
0003
,
0200
0000
2300
3000
0020
0030
0002
0003
0020
0000
2030
3000
0200
0300
0002
0003
0200
0000
0320
0030
0001
0000
2000
3000
0001
0000
0020
0030
0002
0003
0200
0300
,
2000
0000
3200
0300
0001
0000
2000
3000
0200
0000
0320
0030
0200
0300
0002
0003
0000
0000
0000
0000
0000
0000
0000
0000
0000
0000
0000
0000
0000
0000
0000
0000
;

//---------------dance-single - ----------------
#NOTES:
     dance-single:
     :
     Hard:
     10:
     0.814849,1.142203,0.281782,0.486714,0.828267,668.000000,635.000000,33.000000,57.000000,48.000000,0.000000,0.814849,1.142203,0.281782,0.486714,0.828267,668.000000,635.000000,33.000000,57.000000,48.000000,0.000000:
0000
0000
0000
0000
,
0000
0000
0000
0000
,
0000
0000
0000
0000
,
0000
0000
0000
0000
,
1000
0010
0000
0100
0000
0010
0000
1000
,
0000
0001
1000
0100
0000
1000
0001
0100
,
0000
0010
0000
0100
0000
0001
0010
0100
,
1000
0001
0000
0100
0000
1000
0100
0001
,
0010
0000
0000
0000
0010
0000
0000
0010
0001
1000
0010
0000
0100
0000
0000
0000
,
0010
0000
0000
0000
0010
0000
0000
0010
1000
0001
0010
0000
0100
0000
0000
0000
,
1000
0000
0000
0000
1000
0000
0000
1000
0010
0100
0001
0000
0010
0000
0000
0000
,
0001
0000
0000
0000
0001
0000
0000
0001
0010
0100
1000
0000
0010
0000
0000
0000
,
0100
0000
0010
0000
2000
0000
0000
0000
3000
0000
0010
1000
0200
0000
0000
0000
,
0300
0000
0010
0000
0002
0000
0000
0000
1003
0000
0001
0100
0020
0000
1000
0000
,
1030
0000
0000
0000
1001
0000
0000
0000
1000
0000
0100
0000
0001
0000
0100
0010
,
0100
0000
0000
0000
0000
0000
0000
0000
0000
1MM1
0000
0000
0000
0000
0000
0000
0000
0000
0001
0000
0000
1000
0000
0000
0001
0000
0000
0000
0100
0000
0000
0000
0010
0000
0000
0000
1000
0000
0000
0000
0100
0000
0000
0000
0010
0000
0000
0000
,
0001
0000
0100
0000
0010
0000
2000
0000
0000
0000
3001
0000
0010
0000
0200
0000
0000
0000
0310
0000
0001
0100
0001
0100
0010
0000
1000
0000
0001
0000
1000
0000
,
0100
0000
0010
0000
0001
0000
1000
0000
0001
0000
0100
0000
0010
0000
0100
0000
1000
0000
0100
0000
0001
1000
0001
1000
0100
0000
0010
0000
0001
0000
0100
0000
,
0010
0000
1000
0000
0001
0000
0020
0000
0000
0000
0130
0000
0010
0000
0002
0000
0000
0000
0103
0000
0010
0000
2000
0000
0000
0000
3100
0010
0100
0000
1000
0000
,
0010
0000
0001
0000
0010
0000
1000
0000
0100
0000
0010
0000
0001
0000
0200
0000
0000
0000
0310
0000
1000
0001
1000
0001
0010
0000
0100
0000
1000
0000
0001
0000
,
2001
0000
0000
0000
3010
0000
1000
0000
0100
0000
0010
0100
0010
0000
0001
0000
,
0100
0000
0010
0000
1020
0000
0000
0000
0130
0000
0001
1000
0001
0000
0010
0000
,
0210
0000
0000
0000
1300
0000
0100
0000
0001
0000
0100
0000
1000
0000
0010
0100
,
0010
0000
0100
0000
0100
0000
0001
1000
0001
0000
0100
0001
1000
0000
0100
1000
,
0002
0000
0000
0000
0013
0000
0001
0000
0100
0000
0010
0100
0010
0000
1000
0000
,
0100
0000
0010
0000
0001
0000
0001
0000
1000
0000
0010
0100
0010
0000
0100
0000
,
0102
0000
0000
0000
1003
0000
0100
0000
2100
0000
0000
0000
3001
0000
0100
0001
,
1000
0000
0100
0000
0010
0100
0010
0000
0001
0000
0100
0000
0010
0100
0010
0000
,
1002
0000
0000
0000
0013
0000
0001
0000
0100
0000
0010
1000
0010
0000
0100
0000
,
0001
0000
0010
0000
0021
0000
0000
0000
0130
0000
0010
0001
1000
0000
0010
0000
,
0210
0000
0000
0000
0301
0000
0010
0000
1000
0000
0010
0000
0001
0000
0100
0010
,
0100
0000
1000
0000
1000
0000
0100
0010
0100
0000
0010
1000
0001
0000
0010
0001
,
2000
0000
0000
0000
3010
0000
1000
0000
0100
0000
0010
0001
0010
0000
0100
0000
,
1000
0000
0010
0000
1020
0000
0000
0000
0130
0000
0010
1000
0001
0000
1000
0000
,
0100
0100
0010
0010
0001
0001
1000
1000
,
0001
0000
1000
0100
1000
0000
0001
0100
0001
0000
1000
0010
1000
0010
0100
0001
,
2000
0000
3100
0100
0100
0100
1002
0000
,
0103
0000
0100
0000
0100
0000
0100
0000
0100
0000
0100
0000
0001
1000
0001
1000
,
0200
0000
1300
0100
0001
1000
0010
0001
,
0100
1000
0001
0010
1000
0100
0010
0001
,
2002
0000
0000
0000
0000
0000
0000
0000
0000
3003
0000
0000
1000
0000
0100
0000
0010
0000
0001
0000
0100
0000
0010
0000
1000
0000
0000
0000
0000
0000
0100
0000
0000
0000
0000
0000
0010
0000
0000
0000
0000
0000
0002
0000
0000
00M0
0000
0000
,
0000
0000
1003
0000
0010
0000
0200
00M0
0000
0000
0310
0000
1000
0100
1000
0100
,
0010
0001
1000
0001
0100
0010
1000
0001
,
1000
0000
0100
0000
0010
0000
0100
0000
0001
0000
0100
0000
1000
0001
1000
0001
,
0100
0000
0010
0000
1000
0000
0100
0000
0010
0000
0001
0000
1000
0000
0020
M000
,
0000
0000
0130
0000
0010
0000
2000
00M0
0000
0000
3100
0000
0010
0000
0002
00M0
,
0000
0000
0103
0010
0100
0000
0001
0000
0010
0000
1000
0000
0010
0000
0001
0000
,
0100
0000
0010
0000
1000
0000
0100
0000
0010
0100
0010
0000
0001
0000
0100
0000
,
1000
0000
0000
0000
0001
0000
0000
0000
0010
0000
0000
0000
1000
0000
0000
0000
0001
0000
0000
0000
1000
0000
0000
0000
0100
0000
0000
0000
M002
00M0
0M00
0000
,
0000
0000
0000
0000
0103
0000
0000
0000
1000
0000
0000
0000
0M02
00M0
M000
0000
0000
0000
0000
0000
1003
0000
0000
0000
0001
0000
0100
0000
0010
0000
1000
0000
,
0001
0000
0000
0000
0010
0000
0000
0000
0100
0000
0000
0000
0010
0000
0000
0000
0001
0000
0000
0000
0100
0000
0000
0000
0010
0000
0000
0000
200M
0M00
00M0
0000
,
0000
0000
3010
0000
0001
0000
0010
0000
1000
0000
0100
0000
0010
0100
1000
0001
,
0100
0000
0000
0000
0010
0000
0000
0000
0100
0000
0000
0000
0001
0000
0000
0000
1000
0000
0000
0000
0001
0000
0000
0000
0010
0000
0000
0000
200M
0M00
00M0
0000
,
0000
0000
0000
0000
3010
0000
0000
0000
0001
0000
0000
0000
02M0
M000
000M
0000
0000
0000
0000
0000
1300
0000
0000
0000
0100
0000
0010
0000
0100
0000
0001
0000
,
1000
0000
0000
0000
0100
0000
0000
0000
0010
0000
0000
0000
0001
0000
0000
0000
1000
0000
0000
0000
0010
0000
0000
0000
1000
0000
0000
0000
02M0
000M
M000
0000
,
0000
0000
0000
0000
0301
0000
0000
0000
0100
0000
0000
0000
20M0
000M
0M00
0000
0000
0000
0000
0000
3001
0000
0000
0000
0010
0000
0100
0000
1000
0000
0001
0000
,
0100
0000
0010
0000
1000
0000
0001
0000
2001
0000
0000
000M
0000
0000
3001
0100
,
0001
0000
0000
2MM1
0000
0000
3100
0000
0010
0000
M21M
0000
0000
0000
1300
0001
,
1000
0000
0000
0000
0000
0000
0000
0000
0000
1010
0000
0000
0000
0000
0000
0000
0000
0000
1100
0000
0000
0000
0000
0000
0010
0000
0000
0000
0001
0000
0000
0000
0000
0000
0000
0000
1001
0000
0000
0000
0000
0000
0000
0000
0001
0000
0000
0000
,
M100
0001
0000
1001
0000
0001
M010
0001
0000
1001
0000
0001
,
M100
0000
0000
0000
0001
0000
0000
0000
0000
0000
0000
0000
1001
0000
0000
0000
0000
0000
0000
0000
1000
0000
0000
0000
0002
0000
0000
0000
0000
0000
0000
0000
0000
M000
0000
0000
0000
0000
0000
0000
0000
0000
1003
0000
0000
0100
0000
0000
,
1000
0000
0000
1MM2
0000
0000
0103
0000
0010
0000
M21M
0000
0000
0000
0301
1000
,
0001
0000
0000
0000
0000
0000
0000
0000
0000
0011
0000
0000
0000
0000
0000
0000
0000
0000
0101
0000
0000
0000
0000
0000
0010
0000
0000
0000
1000
0000
0000
0000
0000
0000
0000
0000
M11M
0000
0000
0000
0000
0000
0000
0000
0001
0000
0000
0000
,
0010
0001
0000
M11M
0000
1000
0010
1000
0010
0100
0001
0100
,
0001
0000
0010
0000
0001
0000
02M0
0000
0000
0000
0300
0000
2001
0000
0000
0000
0000
0000
3010
0000
0000
1000
0000
0000
,
0100
0000
0010
0001
0010
0000
0001
0000
0100
0000
0010
0000
1020
0000
0000
0000
,
0031
0000
0010
0100
0010
0000
1000
0000
1002
0000
0000
0000
0103
0000
0010
0000
,
1000
0000
0100
0000
0001
0000
0100
0010
0100
0000
1000
0000
1000
0000
0010
0100
,
0010
0000
0100
0001
1000
0000
0100
1000
0002
0000
0000
0000
0013
0000
0001
0000
,
0100
0000
0010
1000
0010
0000
1000
0000
0100
0000
0010
0000
0001
0000
0001
0000
,
0100
0000
0010
0100
0001
0000
1000
0000
2001
0000
0000
0000
3001
0000
0100
0000
,
1000
0000
0100
0000
0001
0000
0010
0100
0010
0000
0000
1MM1
0000
0000
1000
0001
,
1000
0000
0000
0000
0100
0000
0000
0000
0010
0000
0000
0000
0001
0000
0000
0000
0100
0000
0000
0000
0010
0000
0000
0000
1000
0000
0000
0100
0000
0000
0000
0000
0000
0010
0000
0000
0000
0000
0000
0100
0000
0000
0000
0000
0000
1000
0000
0000
,
0000
0000
0000
0000
0001
0000
0000
0000
0100
0000
0000
0000
0010
0000
0000
0000
0200
0300
0000
0000
0001
0000
0000
0000
0010
0000
0000
0000
0100
0000
0000
0000
1000
0000
0000
0000
0010
0000
0000
0000
0000
0000
0000
0000
0100
0000
0000
0000
0000
0000
0000
0000
0010
0000
0000
0000
1000
0000
0000
0000
0001
0000
0000
0000
,
0020
0030
0000
0000
0100
0000
0000
0000
0000
0000
0000
0000
0010
0000
0000
0000
0000
0000
0000
0000
0001
0000
0000
0000
0100
0000
0000
0000
1000
0000
0000
0000
0100
0000
0000
0000
0001
0000
0000
0000
0000
0000
0000
0000
0010
0000
0000
0000
0000
0000
0000
0000
0100
0000
0000
0000
1000
0000
0000
0000
0010
0000
0000
0000
,
0002
0003
0000
0000
0010
0000
0000
0000
1000
0000
0000
0000
0100
0000
0000
0000
0002
0003
0000
0000
0100
0000
0000
0000
1000
0000
0000
0000
0010
0000
0000
0000
0200
0300
0000
0000
0001
0000
0000
0000
0000
0000
0000
0000
1000
0000
0000
0000
0000
0000
0000
0000
0001
0000
0000
0000
1000
0000
0000
0000
0100
0000
0000
0000
,
0020
0030
0000
0000
0001
0000
0000
0000
0000
0000
0000
0000
0001
0000
0000
0000
0200
0300
0000
0000
0010
0000
0000
0000
0100
0000
0000
0000
1000
0000
0000
0000
0000
0000
0000
0000
0000
0000
0000
0000
0000
0000
0000
0000
0000
0000
0000
0000
0000
0000
0000
0000
0000
0000
0000
0000
0000
0000
0000
0000
0000
0000
0000
0000
;

//---------------dance-single - ----------------
#NOTES:
     dance-single:
     :
     Medium:
     8:
     0.601378,0.815859,0.247626,0.546485,0.243357,493.000000,464.000000,29.000000,64.000000,8.000000,0.000000,0.601378,0.815859,0.247626,0.546485,0.243357,493.000000,464.000000,29.000000,64.000000,8.000000,0.000000:
0000
0000
0000
0000
,
0000
0000
0000
0000
,
0000
0000
0000
0000
,
0000
0000
0000
0000
,
1000
0001
0000
1000
0000
0001
0000
1000
,
0000
0001
1000
0100
0000
1000
0001
0100
,
0000
0001
0000
1000
0000
0001
0010
0001
,
1000
0010
0000
0100
0000
0010
1000
0001
,
0010
0000
0010
0000
0010
0001
0100
0000
,
0010
0000
0010
0000
0010
1000
0100
0000
,
1000
0000
1000
0000
0001
0100
1000
0000
,
0100
0000
0100
0000
1000
0100
0001
0000
,
0020
0000
0230
0000
0300
0010
0002
0000
,
0003
1000
0020
0000
0130
0010
2000
0001
,
3001
0000
0110
0000
1000
0100
0010
0001
,
2000
0000
0000
3200
0000
0000
0320
0000
0032
0000
0000
0000
0203
0000
0000
0000
,
0310
0000
1000
0200
0000
0310
0001
0200
0000
0310
1000
0000
0001
0010
0100
0000
,
0010
0000
0001
0000
0100
0010
1000
0001
0010
0000
0100
0000
0010
0001
1000
0010
,
0100
0000
0010
2000
0000
3100
0010
0002
0000
0103
0010
2000
0000
3001
0010
0000
,
1000
0000
0010
0000
0001
0100
0010
2000
0000
3010
1000
0001
0010
0000
0100
0000
,
1002
0000
0103
0000
0001
0100
1000
0100
,
1000
0100
0002
0000
0013
0100
1000
0000
,
1002
0000
0103
0000
0001
0100
0010
1000
,
0001
0010
0020
0000
0130
1000
0010
0000
,
1002
0000
0013
0000
0001
0010
1000
0010
,
1000
0010
0002
0000
0103
0010
1000
0000
,
1002
0103
2001
3100
,
1000
0010
0100
0001
0010
0100
1000
0000
,
2001
0000
3010
0000
1000
0010
0100
0010
,
0100
0010
0002
0000
0013
0100
0010
0000
,
2001
0000
3100
0000
1000
0100
0010
0001
,
1000
0010
0020
0000
0130
0001
0010
0000
,
2001
0000
3100
0000
1000
0100
0010
0100
,
0010
0100
0002
0000
0103
0010
0100
0000
,
1000
0010
1000
0010
0100
0001
0100
0001
,
1000
0100
0010
0001
1000
0100
0010
0001
,
2000
0000
3010
0100
0010
0100
0002
0000
,
0013
0100
0010
0100
0010
0100
1000
0100
,
0002
0000
0103
0010
0100
1000
0001
0100
,
0010
0100
1000
0100
0010
0100
0001
1000
,
0200
0000
0000
0300
0000
0000
0000
0000
0010
0000
0000
0000
0001
0000
0200
0000
,
0000
0310
1000
0200
0000
0310
0001
0000
,
1000
0010
0100
0000
0010
0000
1000
0000
,
0100
0010
0001
1000
0010
0000
0100
0000
,
0010
1000
0001
0010
0100
0000
0010
0002
,
0000
0103
0010
2000
0000
3100
0010
0002
,
0000
1003
0010
0000
0001
0000
0010
0000
,
1000
0100
0010
0001
0100
0000
0100
0000
,
1000
0100
0010
0100
0001
0010
0001
0020
,
0000
0031
1000
0002
0000
0103
0001
0100
,
0010
1000
0001
0010
0100
1000
0100
2000
,
0000
3001
1000
0001
0100
0010
0100
1000
,
0100
0010
0100
0001
1000
0010
1000
0020
,
0000
1030
0001
2000
0000
3100
0010
0100
,
1000
0001
0010
0001
1000
0010
0100
0002
,
0000
1003
0100
0020
0000
0031
1000
0010
,
0100
0000
0010
0000
1002
0000
0000
1003
,
0100
0000
0000
0110
0000
0000
1100
0000
0000
0000
1001
0000
0000
0000
0001
0000
,
0100
0000
0000
0110
0000
0000
0100
0000
0001
0000
0000
0000
101M
0000
0000
0000
,
0001
110M
0001
101M
,
0001
0000
011M
0000
2001
0000
0000
3001
,
0100
0000
0000
0110
0000
0000
0101
0000
0000
0000
1001
0000
0000
0000
1000
0000
,
0100
0000
0000
0110
0000
0000
0100
0000
1000
0000
0000
0000
M11M
0000
0000
0000
,
0001
M11M
2000
3020
,
0230
0000
0302
0003
2001
0000
3100
0000
,
1000
0100
0010
0100
0010
0100
0002
0000
,
0103
0010
0100
0000
2001
0000
3010
0000
,
1000
0010
0100
0001
0010
0100
0200
0000
,
1300
0010
0100
0000
1002
0000
0013
0000
,
0001
0010
0100
0010
0100
0010
2000
0000
,
3010
0100
0010
0000
1002
0000
0103
0000
,
0001
0000
0100
0000
0010
0000
1000
0000
0002
0000
0000
0203
0000
0000
0320
0000
,
2030
0000
0000
0000
3200
0000
0000
0000
0310
0001
0000
1000
0000
0001
0000
0100
,
0000
0001
0010
0001
0000
0001
0100
0001
0000
1000
0000
0010
0000
1000
0100
1000
,
0000
0010
0000
1000
0000
0001
1000
0100
0010
0001
0000
0100
0000
0010
0000
0100
,
0000
1000
0100
1000
0000
0100
0010
0100
0000
0001
0000
0010
0000
0100
0010
0100
,
0000
0010
0000
1000
0010
0100
0010
0001
0000
0000
0000
0000
0000
0000
0000
0000
;

//---------------dance-single - ----------------
#NOTES:
     dance-single:
     :
     Easy:
     6:
     0.415963,0.522577,0.324476,0.546485,0.038425,341.000000,303.000000,38.000000,64.000000,4.000000,0.000000,0.415963,0.522577,0.324476,0.546485,0.038425,341.000000,303.000000,38.000000,64.000000,4.000000,0.000000:
0000
0000
0000
0000
,
0000
0000
0000
0000
,
0000
0000
0000
0000
,
0000
0000
0000
0000
,
0002
0000
0000
0000
,
0203
0000
0000
0000
,
0320
0000
0000
0000
,
2030
0000
0000
0000
,
3001
0000
0001
0000
0001
0010
0001
0000
,
1000
0000
1000
0000
1000
0010
1000
0000
,
0001
0000
0001
0000
0001
0100
0001
0000
,
1000
0000
1000
0000
1000
0100
1000
0000
,
0020
0000
0130
0000
0000
0001
2000
0000
,
3000
1000
0002
0000
0003
0001
2000
0000
,
3100
0000
1001
0000
1000
0001
1000
0000
,
0220
0000
0000
0330
,
0001
0000
0000
0200
0000
0300
0000
0020
0000
0030
1000
0000
0001
0000
1000
0000
,
0100
0010
0100
0001
0100
0010
0100
1000
,
0010
0000
0000
2000
0000
3000
0000
0002
0000
0003
0000
2000
0000
3000
0100
0000
,
0010
0001
0100
1000
0100
0001
0010
0001
,
1002
0000
0100
0000
0103
0000
0001
0100
,
0001
0000
1000
0100
1000
0000
0010
0000
,
2001
0100
3100
0010
,
0001
0100
0010
0000
1000
0010
0100
0000
,
1002
0000
0010
0000
0013
0000
0001
0100
,
0001
0000
1000
0100
1000
0000
0001
0000
,
0012
1003
2010
3001
,
2100
3001
0102
1003
,
2001
0000
0100
0000
3100
0000
1000
0001
,
0100
0000
0001
1000
0100
0000
1000
0000
,
1002
0100
0103
0001
,
0010
0100
1000
0000
0010
0100
0001
0000
,
2001
0000
0100
0000
3100
0000
0010
0001
,
1000
0000
0010
1000
0001
0000
0010
0000
,
0100
0100
0010
0010
,
0001
0100
0010
1000
,
2001
3100
0100
1002
,
0103
0100
0100
1001
,
MMMM
1100
0011
0101
,
1010
1100
0011
0101
,
0220
0000
0000
0330
0000
0000
0000
0000
1000
0000
0000
0000
0000
0000
0200
0000
,
0000
0300
0000
0020
0000
0030
0001
0000
,
1000
0001
0100
0010
,
0100
1000
0100
0010
,
0100
0000
0001
0000
0010
0000
0000
0002
,
0000
0003
0000
2000
0000
3000
0000
0002
,
0000
0003
0100
0000
0010
0000
1000
0000
,
0100
0010
0001
0001
,
1000
0000
1000
0000
0001
0000
1000
0020
,
0000
1030
0001
2000
0000
3001
0010
0000
,
0100
0000
0010
0000
0001
0000
1000
0020
,
0000
0130
0001
0000
1000
0000
0001
0010
,
0001
0010
0001
0000
1000
0000
0001
0020
,
0000
0031
1000
0002
0000
1003
0010
0000
,
0100
0000
0010
0000
1000
0000
0100
0020
,
0000
0031
1000
0002
0000
0000
0103
0000
,
0010
1000
2002
3003
,
0100
0000
0000
0100
0000
0000
0100
0000
0000
0000
1001
0000
0000
0000
0000
0000
,
0010
0000
0000
0010
0000
0000
0010
0000
0010
0000
0000
0000
1001
0000
0000
0000
,
0100
1001
1000
1100
,
0001
0101
2002
3003
,
1000
0000
0000
1000
0000
0000
1000
0000
0000
0000
0110
0000
0000
0000
0000
0000
,
0001
0000
0000
0001
0000
0000
0001
0000
0001
0000
0000
0000
0110
0000
0000
0000
,
1000
0110
0002
0023
,
0230
0000
2300
3000
1002
0000
0100
0000
,
0103
0000
0001
1000
0100
0000
1000
0001
,
0100
0001
2001
0100
,
3100
0000
1000
0000
0010
0100
0001
0000
,
0010
0100
1000
0000
1002
0000
0100
0000
,
0103
0000
0010
1000
0001
0000
0010
0001
,
1000
0010
2001
3100
,
1000
0001
1000
0000
0220
0000
0000
0000
,
0000
0330
2000
0000
,
3002
0010
2003
0000
,
3020
0000
0230
0000
,
0302
0010
2003
0000
,
3200
0002
0303
0000
;

//---------------dance-single - ----------------
#NOTES:
     dance-single:
     :
     Beginner:
     4:
     0.280562,0.391932,0.213471,0.520869,0.000000,230.000000,205.000000,25.000000,61.000000,0.000000,0.000000,0.280562,0.391932,0.213471,0.520869,0.000000,230.000000,205.000000,25.000000,61.000000,0.000000,0.000000:
0000
0000
0000
0000
,
0000
0000
0000
0000
,
0000
0000
0000
0000
,
0000
0000
0000
0000
,
2000
0000
0000
0000
,
3200
0000
0000
0000
,
0320
0000
0000
0000
,
0032
0000
0000
0000
,
1003
0000
1000
0000
,
0010
0000
0010
0000
,
0100
0000
0100
0000
,
0001
0000
0001
0000
,
0020
0002
0033
0202
,
0303
2020
3030
2200
,
3300
0001
0100
0010
,
0220
0000
0000
0330
,
1000
0100
0010
0001
,
0100
1000
0100
0001
,
0010
0100
1000
0010
,
0001
0000
0010
0000
1000
0100
0010
0100
,
2002
3003
0001
0100
,
0001
0100
0010
0100
,
2002
3003
1000
0100
,
0010
0010
0100
1000
,
2002
3003
1000
0010
,
1000
0010
0100
0010
,
2002
3003
0200
0300
,
0020
0030
0200
0300
,
2002
3003
0001
0010
,
0001
1000
0010
1000
,
2002
3003
0001
0010
,
0100
0100
0010
0001
,
2002
3003
1000
0010
,
1000
0001
0010
0001
,
1000
0000
0001
0000
,
1000
0010
0100
0001
,
0000
0010
0010
0000
,
0010
0010
0010
0000
,
0110
0001
1000
0001
,
1000
0001
1000
0001
,
0200
0000
0000
0300
0000
0000
0000
0000
0001
0000
0000
0000
0000
0000
0000
0000
,
0010
0001
0000
0001
,
0100
0000
0001
0000
,
1000
0100
0000
0010
,
0001
0000
1000
0000
,
0010
1000
0000
1000
,
0100
0000
1000
0000
,
0001
0100
0010
0000
,
0010
1000
0001
0020
,
0030
0002
0003
0010
,
0001
1000
0010
0200
,
0300
0020
0030
0100
,
0010
1000
0001
0020
,
0030
0200
0300
0010
,
0100
1000
0001
0200
,
0300
0020
0030
0100
,
0001
1000
2001
0000
,
0100
3100
0000
1000
,
0001
0000
0101
0000
,
1100
0000
0101
0000
,
1100
0000
1002
0000
,
0100
0103
0000
0001
,
1000
0000
0011
0000
,
1010
0000
1000
0001
,
1000
0000
2002
3003
,
1000
0100
1000
0100
,
0010
0100
2002
3003
,
0001
0100
0010
0010
,
0100
0001
2002
3003
,
0001
0010
0001
0010
,
0100
0010
2002
3003
,
0001
1000
0220
0000
,
0000
0330
2000
0000
,
3020
0100
0230
0000
,
0302
0000
0023
0000
,
0230
1000
2300
0000
,
3020
0200
0330
0000
;
