#TITLE:Love Back On;
#SUBTITLE:;
#ARTIST:Summer Was Fun feat. Emelie Cyréus;
#TITLETRANSLIT:;
#SUBTITLETRANSLIT:;
#ARTISTTRANSLIT:;
#GENRE:;
#CREDIT:;
#BANNER:lovebackon_bn.png;
#BACKGROUND:lovebackon_bg.png;
#LYRICSPATH:;
#CDTITLE:cdtitle.png;
#MUSIC:lovebackon.ogg;
#OFFSET:0.000000;
#SAMPLESTART:47.323944;
#SAMPLELENGTH:13.521130;
#SELECTABLE:YES;
#BPMS:0.000000=142.000000
;
#STOPS:
;
#BGCHANGES:;
#KEYSOUNDS:;
#ATTACKS:;

//---------------dance-single - ----------------
#NOTES:
     dance-single:
     :
     Hard:
     7:
     0.409719,0.494155,0.028187,0.295964,0.052851,407.000000,403.000000,4.000000,42.000000,0.000000,0.000000,0.409719,0.494155,0.028187,0.295964,0.052851,407.000000,403.000000,4.000000,42.000000,0.000000,0.000000:
// measure 0
0000
0000
0000
0000
,  // measure 1
0000
0000
0000
0000
,  // measure 2
0000
0000
0000
0000
,  // measure 3
0000
0000
0000
0000
,  // measure 4
0010
0000
0000
0000
0100
1000
0100
0000
,  // measure 5
0000
0000
0000
0010
0001
0010
0100
0000
,  // measure 6
0000
0000
0000
1000
0001
0010
0001
0000
,  // measure 7
0000
0000
0000
0000
0001
0000
0001
1000
,  // measure 8
0010
0000
0000
0010
0100
0001
0100
0100
,  // measure 9
0000
0000
0000
0010
1000
0001
0100
0000
,  // measure 10
0001
0000
0000
1000
0010
0100
0010
0010
,  // measure 11
0000
0000
0000
0000
0000
0000
0000
0000
1000
0000
0100
1000
0000
0100
1000
0000
,  // measure 12
0001
0000
0000
0001
0000
0000
0001
0100
,  // measure 13
0010
0000
0000
0010
0000
0000
1000
0000
0100
0000
0000
0100
0000
0000
0010
0000
,  // measure 14
0001
0000
0000
1000
0000
0000
1000
0010
,  // measure 15
0100
0000
0010
0100
0001
0010
0100
0000
,  // measure 16
0100
0000
0000
0100
0000
0000
0010
0001
,  // measure 17
0100
0000
0000
0100
0000
0000
0001
0000
1000
0000
0000
0010
0000
0000
0100
0000
,  // measure 18
0010
0000
0000
0010
1000
0000
1000
0100
,  // measure 19
0010
0000
0100
0010
,  // measure 20
0002
0000
0000
0000
0000
0000
1003
0100
,  // measure 21
0001
0100
1000
0100
0010
0000
0001
0000
,  // measure 22
2000
0000
0000
0000
0000
0000
3001
0100
,  // measure 23
1000
0100
0001
0100
0010
0000
1000
0000
,  // measure 24
0002
0000
0000
0000
0000
1003
0100
0010
,  // measure 25
0001
0010
0100
1000
0100
0000
0010
0000
,  // measure 26
0001
0100
0010
1000
0010
0000
0100
0000
,  // measure 27
0020
0000
0000
0030
,  // measure 28
0100
0000
0200
0000
0001
0010
0301
0001
,  // measure 29
0020
0000
0000
0000
0100
0001
0130
0000
,  // measure 30
0100
1000
1000
0010
0100
0100
0001
0010
,  // measure 31
0001
0001
0100
0010
1000
1000
0001
0001
,  // measure 32
1000
0000
2000
0000
0010
0001
3010
0010
,  // measure 33
0200
0000
0000
0000
0010
0001
0310
0000
,  // measure 34
0100
0010
0010
1000
0100
0100
0010
0001
,  // measure 35
1000
0000
0100
0000
0001
0000
0100
0000
0010
0000
0000
0000
0001
0000
1000
0001
,  // measure 36
2000
0000
0000
0000
0010
0100
3010
1000
,  // measure 37
0002
0000
0000
0000
0010
0100
0013
0000
,  // measure 38
0001
0100
0100
1000
0010
0010
0001
1000
,  // measure 39
0010
0010
0001
0100
0100
0010
0100
1000
,  // measure 40
0002
0000
0000
0000
0100
0010
0103
0001
,  // measure 41
1000
0000
0000
1000
0100
0000
0000
0100
0010
0000
0000
0010
0001
0000
1000
0000
,  // measure 42
0001
0100
0100
1000
0010
0010
0001
1000
,  // measure 43
0001
0100
1000
0100
0010
0000
0100
0000
,  // measure 44
0210
0000
0010
0010
,  // measure 45
0310
1000
0100
0001
0010
0000
1000
0000
,  // measure 46
0002
0000
1000
1000
,  // measure 47
0103
1000
0010
0001
0100
0000
0010
0000
,  // measure 48
2000
0001
0001
0001
,  // measure 49
3001
0100
0010
0001
1000
0000
0010
0000
,  // measure 50
0002
1000
1000
1000
,  // measure 51
1003
0010
0100
1000
0010
0000
0001
0000
,  // measure 52
2000
0000
0100
0100
3100
0000
0010
0000
,  // measure 53
0002
0103
2000
3100
,  // measure 54
0002
0000
0100
0100
0103
0000
0010
0000
,  // measure 55
2000
3100
0002
0103
,  // measure 56
2000
0000
0100
0010
3100
0000
1000
0000
,  // measure 57
2010
3010
0102
0103
,  // measure 58
0002
0000
0100
0010
0103
0000
0001
0000
,  // measure 59
0012
0000
0000
0000
0013
0000
1000
0000
0010
0000
0000
0000
0001
1000
0001
0000
,  // measure 60
0010
0000
0020
0000
0001
0100
0031
0001
,  // measure 61
0200
0000
0000
0000
0010
0001
0310
0000
,  // measure 62
0010
1000
1000
0100
0010
0010
0001
0100
,  // measure 63
0001
0001
0010
0100
1000
1000
0001
0001
,  // measure 64
1000
0000
2000
0000
0100
0001
3100
0100
,  // measure 65
0020
0000
0000
0000
0100
0001
0130
0000
,  // measure 66
0010
0100
0100
1000
0010
0010
0100
0001
,  // measure 67
1000
0000
0010
0000
0001
0000
0010
0000
0100
0000
0000
0000
0001
0000
1000
0001
,  // measure 68
2000
0000
0000
0000
0100
0010
3100
1000
,  // measure 69
0002
0000
0000
0000
0100
0010
0103
0000
,  // measure 70
0001
0010
0010
1000
0100
0100
0001
1000
,  // measure 71
0100
0100
0001
0010
0010
0100
0010
1000
,  // measure 72
0002
0000
0000
0000
0010
0100
0013
0001
,  // measure 73
1000
0000
0000
1000
0010
0000
0000
0010
0100
0000
0000
0100
0001
0000
1000
0000
,  // measure 74
0001
0010
0010
1000
0100
0100
0001
1000
,  // measure 75
0001
0010
1000
0010
0100
0000
0010
0000
,  // measure 76
0200
0000
0000
0000
0000
0000
0000
0320
,  // measure 77
0000
0000
0000
0000
,  // measure 78
0032
0000
0000
0000
0000
0000
0203
2300
,  // measure 79
0000
0000
0000
0000
,  // measure 80
3020
0000
0000
0000
,  // measure 81
0032
0000
0000
0000
,  // measure 82
0203
2300
0000
0000
3000
0000
0000
0000
;
