#VERSION:0.83;
#TITLE:Lividi;
#SUBTITLE:;
#ARTIST:Feryquitous;
#TITLETRANSLIT:;
#SUBTITLETRANSLIT:;
#ARTISTTRANSLIT:;
#GENRE:Drum & Bass;
#ORIGIN:;
#CREDIT:;
#BANNER:[VIP Room Round 2] - Lividi.png;
#BACKGROUND:[VIP Room Round 2] - Lividi-bg.png;
#PREVIEWVID:;
#JACKET:[VIP Room Round 2] - Lividi-jacket.png;
#CDIMAGE:;
#DISCIMAGE:;
#LYRICSPATH:[VIP Room Round 2] - Lividi.lrc;
#CDTITLE:;
#MUSIC:[VIP Room Round 2] - Lividi.ogg;
#OFFSET:0.019000;
#SAMPLESTART:76.001999;
#SAMPLELENGTH:15.000000;
#SELECTABLE:YES;
#DISPLAYBPM:96.000000:191.000000;
#BPMS:0.000=191.000,
51.000=382.000,
52.000=191.000,
212.000=382.000,
213.000=191.000,
276.000=95.500,
279.000=191.000,
337.000=382.000,
338.000=191.000,
364.500=95.500,
368.500=191.000;
#STOPS:51.875=0.157,
212.875=0.157,
337.750=0.157;
#DELAYS:;
#WARPS:;
#TIMESIGNATURES:0.000=4=4;
#TICKCOUNTS:0.000=4;
#COMBOS:0.000=1;
#SPEEDS:0.000=1.000=0.000=0;
#SCROLLS:0.000=1.000;
#FAKES:;
#LABELS:0.000=Song Start;
#BGCHANGES:0.000=[VIP Room Round 2] - Lividi.avi=1.000=0=0=0=StretchNoLoop==CrossFade_Fastest==,
99999=-nosongbg-=1.000=0=0=0 // don't automatically add -songbackground-
;
#KEYSOUNDS:;
#ATTACKS:
;

//---------------dance-single - ----------------
#NOTEDATA:;
#CHARTNAME:;
#STEPSTYPE:dance-single;
#DESCRIPTION:;
#CHARTSTYLE:;
#DIFFICULTY:Challenge;
#METER:12;
#RADARVALUES:0.956012,1.045741,0.140278,0.676635,0.664257,811.000000,794.000000,17.000000,82.000000,0.000000,0.000000,0.000000,0.000000,0.000000,0.956012,1.045741,0.140278,0.676635,0.664257,811.000000,794.000000,17.000000,82.000000,0.000000,0.000000,0.000000,0.000000,0.000000;
#CREDIT:;
#DISPLAYBPM:96.000000:191.000000;
#NOTES:
// measure 0
0000
0000
0000
0000
,  // measure 1
0000
0000
0000
0000
,  // measure 2
0000
0000
0000
0000
,  // measure 3
0000
0000
0000
0000
,  // measure 4
1000
0000
0001
0100
0001
0000
0010
0000
0100
0000
1000
0000
0010
0000
2010
0000
,  // measure 5
0000
0000
3001
0000
1000
0000
0001
0000
0100
0000
0010
1000
0010
0000
0200
0000
,  // measure 6
0000
0000
0301
0000
0010
0000
0100
1000
0100
0000
0010
0000
0001
0000
2001
0000
,  // measure 7
0000
0000
3100
0000
0010
0000
0100
0000
1000
0000
0001
0010
0001
0000
0200
0000
,  // measure 8
0000
0000
0310
0000
1000
0000
0001
0100
0001
0000
0100
0010
0100
0000
0102
0000
,  // measure 9
0000
0000
1003
0000
0010
0000
1000
0000
0001
0000
0010
0001
0010
0000
0200
0000
,  // measure 10
0000
0000
1300
0000
0010
0000
0100
0001
0100
0000
0010
0000
1000
0000
1002
0000
,  // measure 11
0000
0000
0103
0000
0010
0000
0100
0000
0001
0000
1000
0010
1000
0000
2002
0000
,  // measure 12
0000
0000
0000
0000
0000
3003
1001
0000
,  // measure 13
0002
0010
2000
0003
0100
0001
0020
3000
,  // measure 14
1030
0000
0010
0000
1000
0000
0200
0000
0000
0000
0310
0000
0001
0000
0200
0001
,  // measure 15
0000
0000
0302
1000
0000
0000
1003
0000
0100
0000
0010
0000
0002
0000
0000
0000
,  // measure 16
1003
0000
0010
0000
0100
0000
0002
0000
0000
0000
1003
0010
1000
0000
0001
0000
,  // measure 17
2000
0010
0002
3000
0100
1000
0020
0003
,  // measure 18
0031
0010
0001
0200
0000
0310
1000
0001
,  // measure 19
0100
0000
0020
1000
0000
0000
2030
0001
0000
0000
3002
0010
0000
0000
0013
0000
,  // measure 20
0100
0000
1000
0000
0001
0000
0200
0010
0000
0000
0310
1000
0010
0000
0100
0000
,  // measure 21
0002
0010
2000
0003
0100
0001
0020
3000
,  // measure 22
0130
0000
0010
1000
0010
0000
2000
0000
0000
0000
3010
0000
0100
0000
0002
1000
,  // measure 23
0000
0000
2003
0010
0000
0000
3010
0000
0100
0000
0001
0000
2000
0000
0000
0000
,  // measure 24
3001
0000
0100
0010
0100
0000
0002
0000
0000
0000
1003
0010
1000
0000
0001
0000
,  // measure 25
2000
0010
0002
3000
0100
1000
0020
0003
,  // measure 26
0130
0000
0010
0001
0010
0000
0002
0000
0000
0000
0013
0000
0100
0000
1000
0000
,  // measure 27
0001
0000
0100
0000
0010
0000
1000
0100
1000
0000
0010
0000
0100
0000
0001
0000
,  // measure 28
1000
0000
0010
0100
0010
0000
2020
0000
0030
0000
0002
0000
3000
0000
1003
0000
,  // measure 29
1000
0010
0001
1000
0010
0001
1000
0100
,  // measure 30
0001
0000
0100
0000
1000
0000
0010
0000
0200
0001
0000
0000
0301
0000
1000
0000
,  // measure 31
0001
0010
1000
0001
0010
1000
0001
0100
,  // measure 32
1000
0000
0100
0000
0001
0000
0010
0000
0200
1000
0000
0000
1300
0000
0001
0000
,  // measure 33
1000
0100
0001
1000
0010
0001
1000
0100
,  // measure 34
0001
0000
0100
0000
1000
0000
0001
0000
0020
0100
0000
0000
0130
0000
1000
0000
,  // measure 35
0001
0100
1000
0001
0010
1000
0001
0100
,  // measure 36
1000
0100
0001
1000
0002
0023
2030
3200
,  // measure 37
0301
0010
0100
0001
0010
1000
0001
0010
,  // measure 38
0100
0000
1000
0000
0001
0000
0100
0000
0010
2000
0010
0000
0002
0000
3000
0000
,  // measure 39
1003
0010
0100
1000
0010
0001
1000
0010
,  // measure 40
0100
0000
0001
0000
1000
0000
0100
0000
0020
0001
0000
0000
0031
0000
1000
0000
,  // measure 41
0001
0100
0010
0001
0100
1000
0001
0100
,  // measure 42
0010
1000
0001
0010
0200
2300
3002
0023
,  // measure 43
0130
1000
0010
0001
1000
0100
0001
0010
,  // measure 44
0100
0000
1000
0000
0001
0000
0100
0000
0010
1000
0010
0000
1000
0000
1002
0000
,  // measure 45
0000
0000
0103
0000
0010
0000
1000
0000
0001
0000
0010
0000
0001
0100
0001
0000
,  // measure 46
0010
0000
0100
0000
2000
0010
0000
3020
0100
0000
0230
0001
0000
0301
0100
0001
,  // measure 47
0100
0000
0010
0000
1000
0000
0001
0000
0100
0000
0010
0000
1000
0100
1000
0000
,  // measure 48
0001
0000
0100
0000
0010
1000
0010
0000
0100
0000
0001
0000
1000
0010
1000
0010
,  // measure 49
1000
0000
0100
0000
0010
0000
0001
0000
1000
0000
0010
0000
1000
0100
1000
0000
,  // measure 50
0010
0000
0100
0000
0002
0010
0000
0023
0100
0000
0230
1000
0000
1300
0100
1000
,  // measure 51
0100
0000
0010
0000
0001
0000
1000
0000
0100
0000
0010
0000
0001
0100
0001
0000
,  // measure 52
1000
0000
0000
0000
0000
0000
1100
0000
0000
0000
0000
0000
0000
0000
0000
0011
0000
0000
0000
0000
0000
0000
0000
0000
1001
0000
0000
0000
0000
0000
1000
0000
0000
0000
0000
0000
0001
0000
0000
0000
0100
0000
0000
0000
0010
0000
0000
0000
,  // measure 53
2000
0000
0000
0000
3001
0000
1000
0000
0010
0000
0100
0000
0001
0010
0001
0000
,  // measure 54
1000
0000
0010
0000
0200
0001
0000
0302
1000
0000
2003
0010
3000
0010
1000
0010
,  // measure 55
1000
0100
1000
0000
0001
0000
0100
0000
0010
0000
1000
0000
0001
0010
0001
0000
,  // measure 56
1000
0000
0001
0000
0100
0000
0010
1000
0010
1000
0010
0000
0100
0001
0100
0001
,  // measure 57
0100
0000
0010
0000
1000
0000
0001
0000
0010
0000
0100
0000
1000
0010
1000
0000
,  // measure 58
0001
0000
0010
0000
0200
1000
0000
2300
0001
0000
3002
0010
0003
0010
0001
0010
,  // measure 59
0001
0100
0001
0000
1000
0000
0100
0000
0010
0000
0001
0000
1000
0010
1000
0000
,  // measure 60
0010
0000
0100
0000
0001
0100
0001
0000
0022
0000
0033
0000
2200
0000
3300
0000
,  // measure 61
1000
0000
0001
0100
0001
0000
1000
0010
1000
0010
0100
0010
0100
0000
0001
0000
,  // measure 62
1000
0000
0001
0010
0001
0000
0100
0000
0010
1000
0010
1000
0010
0000
0100
0000
,  // measure 63
0001
0000
1000
0100
1000
0000
0010
0000
0100
0000
0001
0010
0001
0000
1000
0000
,  // measure 64
0010
0000
0100
0001
0100
0001
0010
0001
0010
0100
0010
0000
0100
0000
1000
0000
,  // measure 65
0001
0000
1000
0100
1000
0000
0001
0010
0001
0010
0100
0010
0100
0000
1000
0000
,  // measure 66
0001
0000
1000
0010
1000
0000
0100
0000
0010
0001
0010
0001
0010
0000
0100
0000
,  // measure 67
1000
0000
0001
0100
0001
0000
0010
0000
0100
0000
1000
0010
1000
0000
0001
0000
,  // measure 68
0010
0000
0100
1000
0100
0000
1000
0010
1000
0000
0010
0000
0100
0000
0002
0000
,  // measure 69
2000
0000
0000
0000
,  // measure 70
3003
0000
0001
0100
0010
1000
0001
0000
1000
0000
0001
0000
0100
0000
0010
1000
,  // measure 71
0010
0000
0100
0000
0001
0000
1000
0010
1000
0010
0100
0010
0100
0001
1000
0000
,  // measure 72
0100
0000
0010
0000
0001
0000
0100
0010
0100
0000
0001
1000
0001
1000
0100
0010
,  // measure 73
0100
0000
0010
0000
0001
0000
1000
0010
0100
0000
0001
0000
1000
0100
1000
0100
,  // measure 74
1000
0000
0001
0000
0100
0000
0010
1000
0010
0000
0100
0001
0100
0000
0001
0010
,  // measure 75
0001
0000
1000
0100
1000
0000
0001
0010
0001
0010
0100
1000
0100
1000
0001
0010
,  // measure 76
0001
0000
2002
0000
3003
0000
1000
0010
0100
0000
0010
0000
1000
0100
0010
0000
,  // measure 77
0001
0000
0100
0000
1000
0000
0010
0000
0001
0000
1000
0010
1000
0010
0100
0001
,  // measure 78
0100
0000
0001
0000
1000
0000
0001
0010
0100
0000
0010
0000
0001
0100
0010
0000
,  // measure 79
1000
0000
0100
0000
0001
0000
0010
0000
1000
0000
0001
0010
0001
0010
0100
1000
,  // measure 80
0100
0000
1000
0000
0001
0000
0100
0010
1000
0000
0001
0000
0010
0100
1000
0000
,  // measure 81
0001
0000
0100
0000
1000
0000
0001
0000
0010
0000
1000
0000
0100
0010
0100
0010
,  // measure 82
0001
1000
0001
0000
1000
0000
0100
0010
0001
0000
1000
0000
0010
0100
0001
0000
,  // measure 83
1000
0000
0100
0000
0010
0000
0011
0000
0000
1001
0000
0000
1010
0000
0010
0000
,  // measure 84
0100
0000
0000
0000
0001
0000
0000
0000
1000
0000
0000
0000
0020
0000
0000
0000
0000
0000
0000
0000
0000
0000
0000
0000
0130
0000
0000
0001
0000
0000
0100
0000
0000
0010
0000
0000
0100
0000
0000
0000
0000
0000
0001
0000
0000
0000
0000
0000
,  // measure 85
1000
0000
0100
0000
0001
0000
0010
0000
1000
0000
0001
0010
0100
0000
1000
0000
,  // measure 86
0010
0100
0001
0000
1000
0000
0100
0000
0001
0000
0100
0000
1000
0010
0100
0010
,  // measure 87
0100
0000
0001
0000
1000
0000
0100
0000
0010
0001
0010
0001
1000
0010
1000
0010
,  // measure 88
0100
0000
0002
0000
1003
0000
0001
0010
0100
0000
1000
0000
0001
0000
0100
0010
,  // measure 89
0100
0000
0001
0100
0001
0000
1000
0000
0100
0010
0001
0000
0100
0010
1000
0000
,  // measure 90
0001
0000
0100
0000
0010
0000
1000
0000
0001
0100
0001
0100
0010
1000
0010
1000
,  // measure 91
0002
2000
0000
0000
0000
0000
0000
0000
,  // measure 92
0000
0000
3003
0000
1000
0000
0010
0000
0100
0000
0001
0000
1000
0010
0100
0001
,  // measure 93
1000
0020
0200
0000
0000
0000
0000
0000
0030
0000
0000
0000
0000
0000
0300
0000
;

//---------------dance-single - ----------------
#NOTEDATA:;
#CHARTNAME:;
#STEPSTYPE:dance-single;
#DESCRIPTION:;
#CHARTSTYLE:;
#DIFFICULTY:Hard;
#METER:10;
#RADARVALUES:0.833416,0.890816,0.305311,0.602370,0.284682,707.000000,670.000000,37.000000,73.000000,0.000000,0.000000,0.000000,0.000000,0.000000,0.833416,0.890816,0.305311,0.602370,0.284682,707.000000,670.000000,37.000000,73.000000,0.000000,0.000000,0.000000,0.000000,0.000000;
#CREDIT:;
#DISPLAYBPM:96.000000:191.000000;
#NOTES:
0000
0000
0000
0000
,
0000
0000
0000
0000
,
0000
0000
0000
0000
,
0000
0000
0000
0000
,
1000
0010
0100
0001
1000
0100
0010
0012
,
0000
1003
0100
0001
0100
1000
0010
0200
,
0000
0000
0301
0000
1000
0000
0001
0010
0001
0000
0100
0000
0010
0000
2010
0000
,
0000
3001
0100
1000
0100
0001
0010
0200
,
0000
0000
1300
0000
0001
0000
1000
0010
1000
0000
0100
0000
0010
0000
0012
0000
,
0000
1003
0010
0001
0100
1000
0010
0200
,
0000
0000
0301
0000
1000
0000
0001
0100
0001
0000
1000
0000
0010
0000
2010
0000
,
0000
3001
0100
1000
0100
0001
1000
2002
,
0000
0000
0000
0000
0000
3003
1001
0000
,
0002
0000
0100
0203
0000
0010
0320
0000
,
1000
2030
0000
0001
3001
1000
0010
0200
,
0000
0302
0000
1003
0100
0010
0002
0000
,
0103
0000
0001
0000
1000
0000
0020
0000
0000
0000
1030
0010
1000
0000
0001
0000
,
2000
0000
0100
3200
0000
0010
0320
0000
,
0001
0032
0000
1000
1003
0001
0010
0100
,
1000
0002
0000
0203
0000
0320
0000
1030
,
0001
0000
0010
0000
0100
0000
2000
0000
0000
0000
3010
1000
0010
0000
0100
0000
,
0002
0000
0010
0023
0000
1000
2030
0000
,
0100
3200
0000
0001
0301
0010
0100
2000
,
0000
3002
0000
0103
0010
1000
0002
0000
,
0103
0000
1000
0000
0100
0000
0020
0000
0000
0000
1030
0010
1000
0000
0100
0000
,
2000
0000
0010
3020
0000
0001
0032
0000
,
0100
0203
0000
1000
1300
0010
0100
0001
,
1000
0200
0000
0320
0000
0031
1000
0010
,
0100
0000
0001
1000
0001
0000
2001
0000
0000
0000
3002
0000
0000
0000
1003
0000
,
2001
0000
3010
1020
0000
0130
0210
0000
,
0301
0000
0100
0000
0010
0000
1000
0000
0001
0100
0000
0000
0001
0000
1000
0000
,
1002
0000
0013
0021
0000
0130
0210
0000
,
1300
0000
0100
0000
0010
0000
0001
0000
1000
0100
0000
0000
1000
0000
0001
0000
,
0201
0000
0310
0120
0000
1030
2010
0000
,
3100
0000
0010
0000
0001
0000
1000
0000
0010
0100
0000
0000
0001
0000
1000
0000
,
1200
0000
0310
0120
0000
0031
0012
0000
,
0103
0010
1000
0010
1000
0100
0001
0010
,
1000
0100
0001
0100
1000
0001
0010
1000
,
0010
0000
0001
0000
0100
0000
0010
0000
1000
0001
1000
0000
1001
0000
0000
0000
,
0001
0100
1000
0100
0001
1000
0010
0001
,
0010
0000
1000
0000
0100
0000
0010
0000
0001
0100
0000
0000
0010
0000
1000
0000
,
0001
0010
0100
0001
1000
0010
0100
1000
,
0001
0100
1000
0001
0010
1000
0100
0010
,
0002
0100
0000
0203
0010
0000
0320
1000
,
0000
2030
0001
0000
3001
0100
0001
2001
,
0000
3001
0100
1000
0100
0010
1000
0001
,
0010
0000
0100
0000
1000
0010
0000
1000
0010
0000
0100
0010
0000
0100
0010
0100
,
0010
1000
0001
0100
1000
0100
0001
0010
,
0100
0000
1000
0000
0001
0000
0100
0000
0010
0000
1000
0000
0001
1000
0002
0000
,
0000
1003
0100
0001
0100
0010
0001
1000
,
0010
0000
0100
0000
0001
0010
0000
0001
0010
0000
0100
0010
0000
0100
0010
0100
,
0010
0001
1000
0100
0001
0100
1000
0010
,
0000
0000
0000
0000
0000
0000
1010
0000
0000
0000
0000
0000
0000
0000
0000
0101
0000
0000
0000
0000
0000
0000
0000
0000
0001
0000
0000
0000
0000
0000
1000
0000
0000
0000
0000
0000
0010
0000
0000
0000
0100
0000
0000
0000
0010
0000
0000
0000
,
0200
0000
0301
1000
0100
0001
0100
1000
,
0001
0000
0100
0000
0010
1000
0000
0010
1000
0000
0010
0100
0000
0010
0100
0010
,
0100
0001
1000
0100
0001
0100
1000
0010
,
0100
0000
0001
0000
1000
0000
0010
0100
0010
0000
0100
0000
0001
0100
0001
0000
,
0100
0010
1000
0001
0100
1000
0100
0001
,
1000
0000
0100
0000
0010
0001
0000
0010
0001
0000
0010
0100
0000
0010
0100
0010
,
0100
1000
0001
0100
1000
0100
0001
0010
,
0100
1000
0001
1000
1010
0000
0101
0000
,
0001
0000
1000
0000
0010
0000
0100
0000
0001
0010
0001
0010
0001
0000
1000
0000
,
0100
0001
0100
1000
0010
0100
0001
0010
,
1000
0010
0001
0100
0010
1000
0001
1000
,
0100
0000
0010
0000
0001
0100
0001
0100
0001
0100
0001
0000
1000
0000
1020
0000
,
0000
0130
0001
1000
0010
0001
0100
1000
,
0010
0100
0001
1000
0100
0001
0100
1000
,
0001
0010
0100
1000
0010
0001
0010
1000
,
0001
0000
0100
0010
0100
0000
0001
0000
0010
0000
0100
0000
1000
0000
0002
0000
,
2000
0000
0000
0000
,
3003
0000
0001
1000
0001
1000
0001
0000
1000
0000
0100
0000
0010
0000
0001
0000
,
1000
0000
0001
0000
0100
0000
0010
0000
1000
0100
1000
0100
1000
0100
1000
0000
,
0001
0021
0000
0130
1000
0001
0010
1000
,
0100
0001
0010
0100
1000
0001
0100
1000
,
0100
0001
1000
0010
0100
0001
0010
1000
,
0010
0000
0001
0000
1000
0000
0100
0000
0010
0000
0001
0100
0001
0100
0001
0100
,
0001
2001
0000
3010
0001
0100
1000
0010
,
0001
0000
1000
0000
0100
0000
0001
0000
1000
0000
0001
0000
0100
0010
0100
0000
,
0001
2001
0000
3100
0001
1000
0010
0001
,
1000
0000
0010
0000
0100
0000
0001
0000
1000
0000
0001
0000
0100
0010
0100
0010
,
0100
0102
0000
0013
1000
0100
0001
0010
,
1000
0000
0001
0000
0100
0000
1000
0000
0001
0000
1000
0000
0100
0010
0100
0000
,
1000
1002
0000
0103
0001
1000
0010
1000
,
0001
0000
0011
0000
0000
0000
1100
0000
0000
0110
0000
0000
0011
0000
0001
0000
,
1000
0000
0000
0000
0010
0000
0000
0000
0100
0000
0000
0000
0020
0000
0000
0000
0000
0000
0000
0000
0000
0000
0000
0000
1030
0000
0000
0100
0000
0000
1000
0000
0000
0000
0000
0000
0100
0000
0000
0000
0000
0000
0001
0000
0000
0000
0000
0000
,
0100
1000
0001
0100
0010
1000
0100
0001
,
1000
0000
0010
0000
0001
0000
0100
0000
0010
0000
1000
0000
0001
0010
0001
0000
,
0100
0000
0010
0000
1000
0000
0100
0000
0010
0000
0001
0100
0000
0010
0100
0010
,
0100
0010
1000
0100
0001
1000
0010
0001
,
1000
0000
0010
0100
0010
0000
1000
0000
0001
0100
0001
0000
1000
0000
0100
0000
,
0010
0000
0001
0000
1000
0000
0001
0010
0001
0000
1000
0000
0010
0000
0100
0000
,
0001
2002
0000
0000
0000
0000
0000
0000
,
0000
0000
3003
0000
1000
0000
0010
0000
0100
0000
0001
0000
1000
0010
0000
0100
,
0001
2002
0000
0000
0003
0000
0000
3000
;

//---------------dance-single - ----------------
#NOTEDATA:;
#CHARTNAME:;
#STEPSTYPE:dance-single;
#DESCRIPTION:;
#CHARTSTYLE:;
#DIFFICULTY:Medium;
#METER:8;
#RADARVALUES:0.592939,0.658429,0.140278,0.800409,0.041258,503.000000,486.000000,17.000000,97.000000,0.000000,0.000000,0.000000,0.000000,0.000000,0.592939,0.658429,0.140278,0.800409,0.041258,503.000000,486.000000,17.000000,97.000000,0.000000,0.000000,0.000000,0.000000,0.000000;
#CREDIT:;
#DISPLAYBPM:96.000000:191.000000;
#NOTES:
0000
0000
0000
0000
,
0000
0000
0000
0000
,
0000
0000
0000
0000
,
0000
0000
0000
0000
,
1000
0001
1000
0000
0001
0010
0100
1000
,
0000
0001
0100
0000
0010
1000
0001
0010
,
0000
0100
1000
0010
0001
0010
1000
0001
,
0000
1000
0100
0000
0010
0001
1000
0010
,
0000
0100
0001
0010
1000
0010
0001
0100
,
0000
0010
1000
0000
0001
0010
0100
1000
,
0000
0001
0100
1000
0100
0001
0010
0100
,
0000
1000
0010
0000
0100
0001
2000
0002
,
0000
0000
0000
3003
,
2000
0000
3100
0020
0000
0031
0200
0000
,
0310
2000
0000
3001
1000
0100
0010
0001
,
0000
1001
0000
1000
0010
0100
0001
0000
,
1000
0100
0010
0002
0000
1000
1003
0000
,
0002
0000
0103
0020
0000
1030
0200
0000
,
0310
0002
0000
1003
0001
0100
0010
1000
,
0001
0010
0000
0110
0000
1100
0000
1000
,
0001
0100
0010
2000
0000
0001
3001
1000
,
0002
0000
0103
0020
0000
1030
0002
0000
,
0013
0200
0000
1300
0001
0100
0010
1000
,
0000
1001
0000
0001
0010
0100
0020
0000
,
0031
0100
0010
2000
0000
0001
3001
0000
,
2000
0000
3100
0020
0000
0031
2000
0000
,
3010
0200
0000
0301
1000
0100
0010
0001
,
1000
0010
0000
0110
0000
0100
0001
2000
,
0000
3010
0100
0002
0000
1000
0000
1003
,
1002
0000
0000
0020
0003
0000
0200
0030
,
0000
2000
0300
0000
3001
0000
1001
0000
,
2001
0000
0000
0020
3000
0000
0200
0030
,
0000
0002
0300
0000
1003
0000
1001
0000
,
1200
0000
0000
0020
0300
0000
0002
0030
,
0000
2000
0003
0000
3010
0000
0110
0000
,
0201
0000
0000
0020
0300
0000
2000
0030
,
0000
0002
3000
0003
0001
0010
0100
1000
,
1020
0000
0000
0200
0030
0000
0002
0300
,
0000
0020
0003
0000
0130
0000
1100
0000
,
0021
0000
0000
0200
0030
0000
2000
0300
,
0000
0020
3000
0000
0130
0000
0101
0000
,
2010
0000
0000
0002
3000
0000
0020
0003
,
0000
0200
0030
0000
1300
0010
0100
0001
,
2000
0000
0000
0200
3000
0000
0020
0300
,
0000
0002
0030
0000
1003
0001
0100
0002
,
0000
1003
0100
0001
0000
0100
1000
0010
,
0000
0000
1000
0000
0100
0000
0000
0010
0000
0000
0001
0000
0000
1000
0000
0000
,
0010
1000
0100
0001
0000
0100
1000
0010
,
0000
0100
0001
0010
0100
0010
0001
1000
,
0000
0001
0100
1000
0000
0100
0001
0010
,
0000
0000
0001
0000
0100
0000
0000
0010
0000
0000
1000
0000
0000
0001
0000
0000
,
0010
0001
0100
1000
0000
0100
0001
0010
,
0000
0000
0100
0000
0000
1000
0000
0000
0001
0000
0100
0000
0020
0000
0000
0000
,
1030
0000
1000
0100
0000
0010
0001
0100
,
0000
0000
0010
0000
1000
0000
0000
0100
0000
0000
0010
0000
0000
0001
0000
0000
,
1000
0010
0100
0001
0000
1000
0010
0001
,
0000
0010
1000
0100
0010
0001
0100
0010
,
0000
1000
0001
0100
0000
0010
1000
0100
,
0000
0000
0010
0000
0001
0000
0000
0100
0000
0000
0010
0000
0000
1000
0000
0000
,
0001
0010
0100
1000
0000
0001
0010
1000
,
0000
0010
0001
0100
0020
0000
2030
0000
,
3001
0020
0000
2030
0000
3002
0000
0203
,
0000
1300
0010
0100
0001
0010
0200
0000
,
2300
0000
3010
0002
0000
0023
0000
2030
,
0000
3001
0010
0200
0000
1300
0001
0200
,
0000
0310
2000
0000
3010
0100
0002
0000
,
1003
0100
0001
0200
0000
1300
0010
0100
,
0001
2000
0000
3200
0000
0310
0001
1000
,
0010
0001
0010
1000
0001
1000
0000
0002
,
2000
0000
0000
0000
,
3003
0020
0000
0030
1000
0002
0000
2003
,
0000
3020
0000
1030
0010
0200
0000
0301
,
1000
0200
0000
0310
0002
0000
0013
0100
,
2000
0000
3001
0100
1000
0200
0000
0301
,
0010
0100
1000
0001
0100
0020
0000
2030
,
0000
3001
0200
0000
0310
1000
0100
0001
,
0100
2000
0000
3001
0100
0000
0010
1000
,
0100
0001
0000
0100
1000
0001
0100
0010
,
1000
0001
0000
1000
0100
0000
0010
0001
,
0100
1000
0000
0100
0001
1000
0100
0010
,
0001
1000
0000
0001
0100
0000
0010
1000
,
0100
0001
0000
1000
0010
0001
0100
0010
,
1000
0001
0000
1000
0100
0000
0010
0001
,
0100
0000
1000
0000
0000
0000
0100
0000
0000
0001
0000
0000
1000
0000
0010
0000
,
0200
0000
0302
0000
0013
0001
1000
0100
,
0000
1000
0010
0001
0000
1000
0100
0001
,
1000
0010
0000
0100
0001
1000
0001
0100
,
0000
0001
0010
1000
0000
0001
0100
1000
,
0001
0100
0010
1000
0100
0001
0000
0100
,
1000
0001
0100
1000
0100
0001
1000
0010
,
0100
0001
0010
1000
0010
0001
0100
0010
,
2000
0002
0000
0000
0000
0000
0000
0000
,
0000
3003
0001
0010
0100
1000
0010
0100
,
0002
2000
0000
0000
0003
0000
0000
3000
;

//---------------dance-single - ----------------
#NOTEDATA:;
#CHARTNAME:;
#STEPSTYPE:dance-single;
#DESCRIPTION:;
#CHARTSTYLE:;
#DIFFICULTY:Easy;
#METER:5;
#RADARVALUES:0.364251,0.387311,0.049510,0.668383,0.000000,309.000000,303.000000,6.000000,81.000000,0.000000,0.000000,0.000000,0.000000,0.000000,0.364251,0.387311,0.049510,0.668383,0.000000,309.000000,303.000000,6.000000,81.000000,0.000000,0.000000,0.000000,0.000000,0.000000;
#CREDIT:;
#DISPLAYBPM:96.000000:191.000000;
#NOTES:
0000
0000
0000
0000
,
0000
0000
0000
0000
,
0000
0000
0000
0000
,
0000
0000
0000
0000
,
0000
0000
0000
0000
0000
0000
0000
1001
,
0000
1000
0010
0001
,
0010
0000
1000
0000
0100
0000
0000
1000
,
0000
0001
0010
1000
,
0010
0000
0001
0000
0100
0000
0000
0001
,
0000
1000
0100
0001
,
0010
0000
1000
0000
0010
0000
0000
1000
,
0000
0000
0001
0000
0100
0000
0000
0220
,
0000
0000
0000
0330
,
0020
0000
0000
2030
0000
0000
3002
0000
,
0000
0203
0000
0000
0310
0000
1000
0000
,
0000
0001
0000
0100
0000
0010
0000
0000
,
1000
0100
0001
0100
,
0020
0000
0000
0032
0000
0000
2003
0000
,
0000
3200
0000
0000
0310
0000
0001
0000
,
1000
0000
0000
0100
0000
0010
0000
0000
,
0001
0100
1000
0100
,
0002
0000
0000
2003
0000
0000
3200
0000
,
0000
0320
0000
0000
0031
0000
1000
0010
,
0000
0100
0000
0001
0000
1000
0000
0000
,
0001
0000
0100
0010
0000
0100
0000
0010
,
2000
0000
0000
3002
0000
0000
0203
0000
,
0000
0320
0000
0000
1030
0000
0001
0000
,
0010
0100
0000
1000
0000
0001
0000
0100
,
0000
0010
0000
2002
0000
0000
3003
0000
,
2000
0000
0000
3020
0000
0000
0230
0000
,
0000
0302
0000
0000
2003
0000
0000
0000
,
3002
0000
0000
0203
0000
0000
0320
0000
,
0000
2030
0000
0000
3002
0000
0000
0000
,
0023
0000
0000
2030
0000
0000
3002
0000
,
0000
0203
0000
0000
2300
0000
0000
0000
,
3020
0000
0000
0032
0000
0000
2003
0000
,
0000
3200
0000
0000
0301
0000
1000
0000
,
0002
0000
0000
2003
0000
0000
3200
0000
,
0000
0302
0000
0000
0203
0000
1300
0000
,
2000
0000
0000
3002
0000
0000
0203
0000
,
0000
2300
0000
0000
3200
0000
0301
0000
,
0002
0000
0000
0203
0000
0000
0320
0000
,
0000
2030
0000
0000
3001
0000
1000
0000
,
2000
0000
0000
3020
0000
0000
0230
0000
,
0000
0302
0000
0000
1003
0000
0001
2000
,
0000
3010
0100
0001
,
1000
0000
0200
0000
0000
0320
0000
0000
,
0031
0100
1000
0100
,
0001
0010
0100
1000
,
0001
0010
0100
1000
,
0001
0000
0200
0000
0000
0320
0000
0000
,
1030
0100
0001
0100
,
0000
1000
0000
0010
0100
0000
0002
0000
,
1003
1000
0100
0010
,
0001
0000
2000
0000
0000
3020
0000
0000
,
0031
0010
1000
0100
,
0001
0100
0010
0001
,
1000
0001
0100
0010
,
1000
0000
0002
0000
0000
0023
0000
0000
,
1030
0010
0001
0100
,
1000
0100
0002
1003
,
1000
0010
0000
0100
0000
0001
0000
0010
,
0000
1000
0000
0010
0000
0001
0100
0000
,
0010
0000
1000
0010
0000
0100
0000
0001
,
0000
1000
0000
0100
0000
0010
0000
0002
,
0000
0100
0100
2003
,
0010
0010
0001
3001
,
1000
0100
0010
0001
,
0100
0010
1000
0001
,
2002
0000
0000
3003
,
0000
0002
0000
0003
0000
0010
0000
0100
,
0000
1000
0000
0001
0000
0100
0000
0010
,
0000
2000
0000
0000
0100
0000
0100
0000
,
3002
0010
0010
1000
,
1003
0001
0100
0010
,
1000
0000
2002
0000
0000
0000
0000
3003
,
0000
1001
0000
0000
0001
0000
0100
0000
,
1000
0100
0001
0010
,
0000
0100
0000
0000
1000
0000
0010
0000
,
0001
0010
1000
0100
,
0010
0100
0000
0000
1000
0000
0001
0000
,
0100
1000
0010
0001
,
0000
0100
0000
0000
0001
0000
1000
0000
,
0100
0010
0000
0100
0000
1000
0000
0001
,
0000
1000
0001
0000
1000
0000
0100
0000
,
0001
1000
0010
0001
,
1000
0100
0001
0100
,
1000
0010
0100
0100
,
0001
1000
0001
0100
,
1000
0001
0010
1000
,
0001
0100
1000
0100
,
0002
2000
0000
0000
0000
0000
0000
0000
,
3003
1000
0010
0100
,
0002
2000
0000
0000
0003
0000
0000
3000
;

//---------------dance-single - ----------------
#NOTEDATA:;
#CHARTNAME:;
#STEPSTYPE:dance-single;
#DESCRIPTION:;
#CHARTSTYLE:;
#DIFFICULTY:Beginner;
#METER:2;
#RADARVALUES:0.137920,0.230221,0.049510,0.090768,0.000000,117.000000,111.000000,6.000000,11.000000,0.000000,0.000000,0.000000,0.000000,0.000000,0.137920,0.230221,0.049510,0.090768,0.000000,117.000000,111.000000,6.000000,11.000000,0.000000,0.000000,0.000000,0.000000,0.000000;
#CREDIT:;
#DISPLAYBPM:96.000000:191.000000;
#NOTES:
0000
0000
0000
0000
,
0000
0000
0000
0000
,
0000
0000
0000
0000
,
0000
0000
0000
0000
,
0000
0000
0000
0000
,
0000
1000
0000
0000
,
0000
1000
0000
0000
,
0000
0010
0000
0000
,
0000
0010
0000
0000
,
0000
0001
0000
0000
,
0000
0001
0000
0000
,
0000
0100
0000
0000
,
0000
0000
0000
0000
,
0000
0000
0000
0000
,
1000
0000
0000
0000
,
0010
0000
0000
0000
,
0010
0000
0000
0000
,
0001
0000
0000
0000
,
0001
0000
0000
0000
,
0010
0000
0000
0000
,
0010
0000
0000
0000
,
1000
0000
0000
0000
,
1000
0000
0000
0000
,
0100
0000
0000
0000
,
0100
0000
0000
0000
,
0001
0000
0000
0000
,
0001
0000
0000
0000
,
0100
0000
0000
0000
,
0100
0000
0000
0000
,
2000
0000
0000
0000
,
0000
0000
3000
0000
,
0020
0000
0000
0000
,
0000
0000
0030
0000
,
0200
0000
0000
0000
,
0000
0000
0300
0000
,
0002
0000
0000
0000
,
0000
0000
0003
0000
,
2000
0000
0000
0000
,
0000
0000
3000
0000
,
0200
0000
0000
0000
,
0000
0000
0300
0000
,
0020
0000
0000
0000
,
0000
0000
0030
0000
,
0002
0000
0000
0000
,
0000
0000
0003
0000
,
0000
1000
0000
1000
,
0000
0010
0010
0010
,
0000
0010
0000
0100
,
0000
0100
0000
0001
,
0000
0001
0000
0001
,
0000
0010
0010
0010
,
0000
0010
0000
0100
,
0000
0000
0010
0000
,
0000
0000
0000
0001
,
0000
0010
0010
0010
,
0000
0010
0000
0100
,
0000
0100
0000
1000
,
0000
1000
0000
1000
,
0000
0010
0010
0010
,
0000
0010
0000
0100
,
0000
0001
0001
0000
,
1000
0000
1000
0000
,
0100
0100
0100
0000
,
0001
0000
0001
0000
,
0010
0000
0010
0000
,
2000
0000
0000
0000
,
0000
0000
3000
0000
,
0001
0000
0001
0000
,
0001
0000
1000
0000
,
1001
0000
0000
0000
,
0000
0000
0000
1000
,
0000
0010
0000
0010
,
0000
0002
0000
0000
,
0000
0000
0000
0003
,
0000
1000
0000
1000
,
0000
1000
0000
0001
,
0000
1001
0000
0000
,
0000
1000
0000
0000
,
0000
1001
0000
0000
,
0001
0000
0000
0000
,
0000
0110
0000
0000
,
0000
0100
0000
0000
,
0000
0110
0000
0000
,
0000
0010
0000
0000
,
0000
0000
0001
0000
,
0001
0000
0100
0000
,
0100
0000
1000
0000
,
1000
0000
0010
0000
,
0010
0000
0001
0000
,
0001
0000
0100
0000
,
0100
0000
0010
0000
,
0020
0000
0000
0000
,
0030
1000
0000
0000
,
1001
0000
0000
0000
;
