#TITLE:Earth & Sky;
#SUBTITLE:;
#ARTIST:Virtual Riot;
#TITLETRANSLIT:;
#SUBTITLETRANSLIT:;
#ARTISTTRANSLIT:;
#GENRE:;
#CREDIT:;
#BANNER:Earth & Sky.png;
#BACKGROUND:Earth & Sky-bg.png;
#LYRICSPATH:;
#CDTITLE:;
#MUSIC:Earth & Sky.ogg;
#OFFSET:-7.452998;
#SAMPLESTART:67.448997;
#SAMPLELENGTH:14.400002;
#SELECTABLE:YES;
#BPMS:0.000000=100.000000
;
#STOPS:
;
#BGCHANGES:;
#KEYSOUNDS:;
#ATTACKS:;

//---------------dance-single - ----------------
#NOTES:
     dance-single:
     :
     Hard:
     8:
     0.405149,0.523961,0.158020,0.232871,0.332674,341.000000,322.000000,19.000000,28.000000,0.000000,0.000000,0.405149,0.523961,0.158020,0.232871,0.332674,341.000000,322.000000,19.000000,28.000000,0.000000,0.000000:
// measure 0
0000
0000
0000
0000
,  // measure 1
0010
0000
0100
0000
,  // measure 2
0001
0000
0000
0000
,  // measure 3
1000
0000
0100
0000
,  // measure 4
1000
0000
0000
1001
,  // measure 5
0001
0100
0010
0000
0100
0001
1000
0000
,  // measure 6
0100
0000
0000
1000
0000
0000
0001
0000
1000
0000
0000
0010
0000
0000
0000
0000
0000
0000
0000
0000
0000
0000
0000
0000
,  // measure 7
0010
1000
0100
0000
0010
0001
0100
0000
,  // measure 8
0010
1000
0010
0100
0010
0001
0010
0100
,  // measure 9
1002
0000
0000
0000
0000
0000
0020
0000
0000
0033
0000
0000
2100
0000
0000
0000
0000
0000
3100
0000
0000
0010
0000
0001
,  // measure 10
2000
0000
0000
0000
0000
0000
3002
0000
0000
0103
0000
0010
1000
0000
0000
0100
0000
0000
0010
0001
0100
0010
1000
0001
,  // measure 11
2000
0000
3010
0100
0201
0000
0310
0100
,  // measure 12
2001
0000
0000
0000
0000
0000
3200
0000
0000
0000
0000
0000
1300
0000
0100
0010
0000
0000
0010
0000
0010
0001
0000
0000
,  // measure 13
1020
0000
0000
0000
0000
0000
0130
0000
0010
1000
0000
0001
2000
0000
0000
0000
0000
0000
3100
0000
0100
1000
0000
0010
,  // measure 14
0200
0000
0000
0000
0000
0000
0320
0000
0030
1000
0000
0001
0200
0000
0000
0310
0100
0010
1000
0001
1000
0200
0000
0000
,  // measure 15
0320
0000
0000
0000
0000
0000
0130
0000
0010
0001
0000
0001
2000
0000
0000
0000
0000
0000
3001
0000
0001
1000
0000
1000
,  // measure 16
0100
0000
0000
1000
0000
0000
0020
0000
0000
0000
0000
0000
0130
0000
0100
0000
0000
0100
0010
0000
0010
1000
0000
4000
,  // measure 17
0004
0000
0000
0000
,  // measure 18
0000
0000
0000
0000
,  // measure 19
0000
0000
0000
0000
,  // measure 20
0000
0000
0000
0000
0000
0000
0000
3003
,  // measure 21
1001
1000
0001
0000
1001
0001
1000
0000
,  // measure 22
1001
1000
0001
0000
1001
0001
1000
0000
,  // measure 23
1001
1000
1001
0001
1001
1000
1001
0001
,  // measure 24
0020
0000
0000
0030
,  // measure 25
1001
0000
0000
1000
0000
0000
0100
0000
0000
1000
0000
0001
0100
0000
0000
0001
0000
0000
0010
0000
0000
0100
0000
0010
,  // measure 26
0001
0000
0000
0100
0000
0000
0010
0000
0000
1000
0000
0100
1000
0000
0000
0001
0000
0000
0100
0000
0010
1000
0000
1000
,  // measure 27
0001
0000
0000
0010
0000
0000
1000
0000
0000
0010
0000
0100
1000
0000
0000
0010
0000
0000
0100
0000
0000
0001
0000
0000
,  // measure 28
0010
0000
0001
1000
0000
0000
0010
0000
0000
1000
0000
1000
0010
0000
0010
0100
0000
0000
0100
0000
0100
0010
0000
0000
,  // measure 29
1001
0000
0000
0001
0000
0000
0010
0000
0000
0100
0000
0010
0001
0000
0000
1000
0000
0000
0010
0000
0000
0100
0000
0001
,  // measure 30
1000
0000
0000
0100
0000
0000
1000
0000
0000
0001
0000
0100
0010
0000
0000
1000
0000
0000
0001
0000
1000
0001
0000
0001
,  // measure 31
0010
0000
0000
0001
0000
0000
0100
0000
0000
1000
0000
0100
0010
0000
0000
1000
0000
0000
0001
0000
0000
0010
0000
0000
,  // measure 32
0002
0000
0000
0000
0000
0000
1003
0000
0001
0100
0000
0100
0020
0000
0000
0000
0000
0000
0230
0000
0000
0000
0000
0000
,  // measure 33
0302
0000
0000
0000
0000
0000
1003
0000
0000
1000
0000
0001
1000
0000
0000
1000
0000
1000
0001
0000
0000
0100
0000
0000
,  // measure 34
0001
0000
0000
0010
0000
0000
0100
0000
0000
0010
0000
0100
0010
0100
0010
0100
0000
0010
0100
0010
0001
1000
0000
0000
,  // measure 35
1010
0000
0000
1000
0000
0000
0100
0000
0000
0010
0000
0100
1000
0000
0000
0010
0000
0100
0001
0000
0001
1000
0000
0000
,  // measure 36
0001
0000
1000
0010
0000
0000
0100
0000
0000
0010
0000
1000
0010
0000
0010
0100
0000
0000
0100
0000
0100
0001
0000
0000
,  // measure 37
1002
0000
0000
0000
0000
0000
0013
0000
0000
0100
0000
1000
0010
0000
0000
0100
0000
0010
1000
0000
0000
0001
0000
0000
,  // measure 38
1000
0000
0000
0100
0000
0000
1000
0000
0000
0001
0000
0100
0001
0010
0001
0010
0100
1000
0001
0000
0000
1000
0000
0000
,  // measure 39
0020
0000
0000
0000
0000
0000
0130
0000
0000
0010
0000
1000
0010
0000
0010
0000
0010
0000
0100
0000
0010
0000
0010
0000
,  // measure 40
2000
0000
0000
0000
0000
0000
3100
0000
0010
0001
0000
0001
0200
0000
0000
0000
0000
0000
0320
0000
0000
0000
0000
0000
,  // measure 41
1030
0100
1000
0000
0100
0010
0100
0000
,  // measure 42
0010
0000
0000
0001
0000
0000
0100
0000
1000
0000
0000
0100
0000
0000
0000
0000
0000
0000
0000
0000
0000
0000
0000
0000
,  // measure 43
0010
1000
0010
0000
0100
0010
0100
0000
,  // measure 44
0010
0000
1000
0010
0000
0000
0010
0000
0010
0100
0000
0000
0100
0000
0100
0001
0000
0000
0001
0000
0001
1000
0000
0000
,  // measure 45
0110
0000
0000
0000
;

//---------------dance-single - ----------------
#NOTES:
     dance-single:
     :
     Medium:
     5:
     0.243565,0.280693,0.124753,0.257822,0.000000,205.000000,190.000000,15.000000,31.000000,0.000000,0.000000,0.243565,0.280693,0.124753,0.257822,0.000000,205.000000,190.000000,15.000000,31.000000,0.000000,0.000000:
0000
0000
0000
0000
,
1000
0000
0010
0000
,
0100
0000
0000
0000
,
0001
0000
0100
0000
,
0010
0000
0000
1001
,
1000
0010
1000
0000
0001
0000
0010
0000
,
0100
0010
0001
1000
0001
0000
0000
0000
,
0100
0001
0100
0000
0010
0000
1000
0000
,
0001
0010
0001
1000
0001
0100
0001
1000
,
0200
0320
0230
2300
,
3002
0000
0103
0000
0010
1000
0001
0010
,
0200
0320
0230
2300
,
3020
0000
0230
0000
0310
1000
0100
0010
,
0002
0000
0013
0001
0200
0000
0310
1000
,
0002
0000
1003
0010
0200
0301
0010
0001
,
2000
0000
3001
1000
0020
0000
1030
0001
,
0200
0310
2000
0000
3001
0010
0100
1000
,
2002
0000
0000
0000
,
0000
0000
0000
0000
0000
0000
0000
3003
,
0220
0330
0000
0000
0000
0000
0000
0000
,
0000
0000
0000
0000
,
1001
0000
0110
0000
,
1001
0000
0110
0000
,
1001
0110
1001
0110
,
0020
0000
0000
0030
,
1000
0000
0001
0000
0010
0010
0001
0000
,
0100
0000
0010
0000
1000
1000
0001
0000
,
0100
0000
0001
0000
0010
0010
0100
0000
,
0010
0000
0001
0000
1000
0100
0001
0100
,
1000
0000
0010
0000
0100
0100
0001
0000
,
0010
0000
0001
0000
1000
1000
0100
0000
,
1000
0000
0001
0000
0100
0100
0010
0100
,
0002
0000
0103
0010
2000
0000
3002
0000
,
0013
1100
0100
0100
,
1000
0000
0001
0000
0100
0001
0010
0001
,
1000
1001
0001
1000
,
0010
1000
0010
0100
0001
0010
0100
1000
,
0001
0101
0100
0001
,
0010
0000
0001
0000
1000
0001
1000
0001
,
1000
0010
2000
3200
,
0310
0000
0100
0010
0002
0000
2003
0000
,
3010
1000
0100
1000
,
0001
1000
0001
0000
,
0100
0010
1000
0010
,
0100
0010
1000
0001
1000
0100
0010
0001
,
1001
0000
0000
0000
;

//---------------dance-single - ----------------
#NOTES:
     dance-single:
     :
     Easy:
     2:
     0.156832,0.187129,0.149703,0.158020,0.000000,132.000000,114.000000,18.000000,19.000000,0.000000,0.000000,0.156832,0.187129,0.149703,0.158020,0.000000,132.000000,114.000000,18.000000,19.000000,0.000000,0.000000:
0000
0000
0000
0000
,
1000
0000
0010
0000
,
0100
0000
0000
0000
,
0001
0000
0010
0000
,
0100
0000
0000
0010
,
1001
0000
1000
0000
,
0010
0100
0010
0000
,
0100
0000
0001
0000
,
0010
0000
0001
0000
,
0101
0000
0011
0000
,
0101
0000
0000
0000
,
1010
0000
1100
0000
,
1010
0000
1000
0001
,
0011
0000
1100
0000
,
1001
0000
1000
0001
,
0101
0000
1010
0000
,
1001
0000
0000
0000
,
0220
0000
0000
0000
,
0000
0000
0000
0000
,
0300
0000
0000
0000
,
0000
0000
0000
0000
,
1030
0000
0001
0000
,
1000
0000
0001
0000
,
0100
0010
0100
0010
,
2000
0000
0000
3000
,
0001
1000
0020
1030
,
0010
0100
0002
1003
,
0100
1000
0020
0130
,
0010
1000
0001
1000
,
1001
0001
0020
0031
,
0100
0010
2000
3100
,
1000
0001
0200
0301
,
0020
0031
0200
0310
,
1020
0130
0010
0010
,
2000
3001
0010
0010
,
0200
1300
0100
0100
,
1000
0001
0010
0001
,
1002
0013
0001
1000
,
0200
1300
0010
0100
,
0002
0013
0100
0100
,
0020
0030
0002
0003
,
1000
0000
0001
0000
,
0100
0000
0000
0000
,
0010
0000
1000
0000
,
0100
0010
0001
1000
,
0110
0000
0000
0000
;

//---------------dance-single - ----------------
#NOTES:
     dance-single:
     :
     Beginner:
     1:
     0.098614,0.130990,0.033267,0.000000,0.000000,83.000000,79.000000,4.000000,0.000000,0.000000,0.000000,0.098614,0.130990,0.033267,0.000000,0.000000,83.000000,79.000000,4.000000,0.000000,0.000000,0.000000:
0000
0000
0000
0000
,
1000
0000
0001
0000
,
1000
0000
0000
0000
,
0010
0000
0100
0000
,
0010
0000
0000
0000
,
1000
0000
1000
0000
,
1000
0000
0000
0000
,
0001
0000
0001
0000
,
0001
0000
0000
0000
,
0110
0000
0010
0000
,
0010
0000
0000
0000
,
0100
0000
0100
0000
,
0001
0000
1000
1000
,
0001
0000
1000
0000
,
0010
0000
0000
0000
,
0100
0000
0010
0000
,
1000
0000
0000
0000
,
1001
0000
0000
0000
,
0000
0000
0000
0000
,
0010
0000
0000
0000
,
0000
0000
0000
0000
,
0100
0000
0100
0000
,
0100
0000
0100
0000
,
0100
0100
0100
0100
,
0010
0000
0000
0000
,
1001
0000
1000
0000
,
0001
0000
1000
0000
,
0010
0000
0100
0000
,
0001
0000
1000
1000
,
0001
0000
1000
0000
,
0010
0000
0100
0000
,
0010
0000
1000
0000
,
0001
0000
0010
0000
,
1001
0001
0000
0001
,
0000
1000
0000
1000
,
0000
0010
0000
0010
,
0100
0000
0010
0010
,
0000
1000
0000
1000
,
0000
0001
0000
0001
,
0000
1000
0001
0000
,
0100
0000
0010
0000
,
1000
0000
0001
0000
,
0100
0000
0000
0000
,
0001
0000
1000
0000
,
0010
0000
0000
0000
,
0100
0000
0000
0000
;
