#TITLE:Don't Say Anything;
#SUBTITLE:(feat. 킴미경);
#ARTIST:nao.paradigm;
#TITLETRANSLIT:;
#SUBTITLETRANSLIT:(feat. Kim Mi-Kyung);
#ARTISTTRANSLIT:;
#GENRE:Hop Pop;
#CREDIT:;
#BANNER:[VIP Room Round 2] - Don't Say Anything.png;
#BACKGROUND:[VIP Room Round 2] - Don't Say Anything-bg.png;
#LYRICSPATH:;
#CDTITLE:CDTitle.png;
#MUSIC:Don't Say Anything.ogg;
#OFFSET:-1.072000;
#SAMPLESTART:89.617996;
#SAMPLELENGTH:14.582000;
#SELECTABLE:YES;
#BPMS:0.000000=130.000000
;
#STOPS:29.750000=0.231000,
35.250000=0.231000,
44.750000=0.231000,
50.250000=0.231000,
59.750000=0.231000,
65.250000=0.231000,
80.750000=0.231000,
90.250000=0.231000,
125.750000=0.462000,
126.750000=0.231000,
132.250000=0.462000,
151.250000=0.231000,
177.000000=0.577000,
177.250000=0.808000
;
#BGCHANGES:;
#KEYSOUNDS:;
#ATTACKS:;

//---------------dance-single - ----------------
#NOTES:
     dance-single:
     :
     Hard:
     8:
     0.478960,0.520510,0.176018,0.117345,0.377181,400.000000,379.000000,21.000000,14.000000,0.000000,0.000000,0.478960,0.520510,0.176018,0.117345,0.377181,400.000000,379.000000,21.000000,14.000000,0.000000,0.000000:
0000
0000
0000
0000
,
0000
0000
0000
0000
,
0000
0000
0000
0000
,
0000
0000
0000
0000
,
1000
0000
0000
0100
0000
0000
0010
0000
0011
0000
0000
0000
0000
0000
0001
0000
,
0000
0000
0100
0010
0100
0000
0010
0000
1000
0000
0100
0000
1000
0000
0010
0000
,
0100
0000
0000
0001
0000
0000
1000
0000
1001
0000
0000
1001
0000
0000
0001
0000
,
0100
0000
0100
0000
0100
0000
0100
0010
1000
0000
0100
0000
0010
0000
0001
0000
,
0000
0000
0100
0000
0000
0000
0000
0000
0000
0000
0010
1000
0010
2000
3100
0000
,
0010
0000
0001
0000
0100
0000
0001
0000
0010
0000
0100
1000
0000
0000
0000
0000
,
0001
0000
0100
0000
0010
0000
1000
0010
0000
1000
0010
0000
0100
0000
0100
0000
,
0100
0000
0100
0010
1000
0100
1000
0000
0010
0000
1000
0000
0000
0000
0001
0000
,
0000
0000
0000
0000
0000
0000
0001
0010
0001
0010
1000
0000
0010
0000
0001
0000
,
1000
0000
0100
0000
0001
0000
0100
1000
0010
0000
0010
0100
0000
0000
0001
0000
,
1000
0000
0001
0000
0100
0000
0010
0000
1000
0000
0000
0000
0100
0000
0000
0010
,
0001
0001
1001
0000
0000
1100
0000
0000
,
0000
0000
0100
0010
0100
0010
0001
0000
0010
0000
1000
0000
0010
0000
0001
0000
,
0100
1000
0100
0000
0010
1000
0010
0100
,
0001
0000
0010
0000
0002
0000
0000
1003
0000
0000
0100
0000
2000
0000
0000
3001
,
0000
0100
0110
0000
1010
0000
0000
0000
,
0100
1000
0100
1000
0100
0000
0010
0000
0001
0000
1000
0000
0001
0000
0010
0000
,
0100
1000
0000
0000
0000
0000
0001
0000
0100
0010
0000
1000
0000
0100
0000
1000
,
0000
0000
0001
0000
0001
0000
0001
0000
0001
1000
0000
0000
1000
0100
0010
0001
,
1000
0000
0010
0000
0100
0000
0001
0000
1000
0000
0100
1000
0100
1000
0000
0001
,
0000
1000
0000
0001
0100
0000
0001
0000
0010
0000
0100
0000
1000
0000
1000
0000
,
0100
0010
0100
0000
1000
0000
0001
0000
0100
0000
0010
0000
1002
0000
0000
1003
,
0000
0010
0000
0100
0001
0000
1000
0000
0010
0000
0100
0000
0201
0000
0000
0000
,
0310
0000
0000
0010
0000
0000
0010
0000
1000
0000
0010
0000
0100
0000
0001
1000
,
0000
0100
0000
0010
0001
0000
1000
0100
0000
1000
0000
0001
0000
1000
0000
0000
,
0010
0000
0010
0000
1000
0001
1000
0001
0100
0000
0100
0010
0000
0000
0100
0001
,
0100
0000
0010
1000
0010
0000
1000
0100
1000
0000
0001
0000
0010
0001
0000
0000
,
1000
0100
0000
1000
0001
0000
0000
0000
0100
0000
0000
0000
0010
1000
0010
0000
,
0100
0000
0001
0010
0001
0000
0010
0000
0100
0000
1000
0000
0001
0000
1001
0000
,
0000
0000
0001
0000
0100
0010
0100
0000
0001
0000
0100
0000
0010
0000
1000
0010
,
1000
0010
0100
0000
0100
0000
0000
0000
0010
0000
1000
0000
0100
0010
0000
0001
,
0000
0100
0010
0000
1000
0000
0000
0000
0100
0000
1000
0000
0010
0100
0000
0001
,
0010
0000
0001
0000
1000
0000
0010
0000
0000
0000
1001
0000
1000
0010
1000
0000
,
0010
0000
1000
0000
0100
0000
0010
0000
0010
0000
0010
0000
0010
0001
1000
0100
,
1000
0000
0001
0000
0020
0000
0000
1030
0000
0000
0001
0000
0200
0000
0000
1300
,
0000
0000
0001
0000
0020
0000
0000
1030
0000
0000
0001
0000
0100
0000
1000
0000
,
0100
0000
0010
0000
0001
0000
0000
0100
0000
0000
0010
0000
0120
0000
0000
0000
,
0000
0000
0130
0000
0000
0000
0001
1000
0001
0000
0100
0000
0010
0000
0000
0010
,
0000
0000
0010
0000
1000
0000
0000
0100
0000
0000
0001
0000
1000
0000
0000
0010
,
0000
0000
0001
0000
1000
0000
0100
0010
0100
0000
0010
0000
0001
0000
1000
0000
,
0100
0000
0010
0000
0110
0011
2100
0000
0000
0000
3001
0000
0100
0000
0010
1000
,
0000
0010
1000
0000
0100
0000
0010
0000
0001
0000
0000
0000
0101
0000
0001
0000
,
0010
0000
0100
1000
0000
0000
0000
0000
0010
0000
1000
0000
0100
0000
0010
0001
,
0000
0010
0001
0000
1000
0000
0100
0000
1000
0000
0000
0000
1010
0000
0010
0000
,
0100
0000
0001
1000
0000
0000
0100
0000
1000
0000
0002
0000
0000
0000
0023
0000
,
0000
0000
0130
0000
1000
0000
0001
0000
0100
0000
0000
0010
0000
0000
1000
0000
,
1001
0000
0000
0000
0000
0000
0001
0000
0000
0000
1000
0010
1000
0000
0001
0000
,
1001
0000
0001
0000
0010
0000
0100
0000
0010
0000
0000
0001
0000
0000
1000
0000
,
1001
0000
0000
0000
0000
0000
1000
0000
0000
0000
0001
0100
0001
0000
0100
0000
,
0010
0010
0010
0010
2002
0000
0000
0000
,
3003
0000
0000
0000
;

//---------------dance-single - ----------------
#NOTES:
     dance-single:
     :
     Medium:
     5:
     0.302942,0.339463,0.100582,0.092200,0.054482,253.000000,241.000000,12.000000,11.000000,0.000000,0.000000,0.302942,0.339463,0.100582,0.092200,0.054482,253.000000,241.000000,12.000000,11.000000,0.000000,0.000000:
0000
0000
0000
0000
,
0000
0000
0000
0000
,
0000
0000
0000
0000
,
0000
0000
0000
0000
,
1000
1000
0001
0001
,
0000
0100
0010
0100
0000
0010
0100
0010
,
0000
0010
0100
0000
0001
0000
1000
0000
,
2002
0000
0000
0000
0000
0000
0000
3003
0000
0000
0000
0000
0000
0000
0001
0000
,
0000
0001
0000
0000
0000
0000
0000
0100
,
0010
0100
0010
1000
0001
0000
1000
0000
,
0100
0010
0001
1000
,
1000
0000
0000
1001
0000
0000
0000
0000
0000
0000
0001
0000
0000
0000
0100
0000
,
0000
0000
0000
0000
0000
0000
0010
0000
0000
1000
0010
0000
1000
0000
0010
0000
,
1000
0010
1000
0000
0001
0000
1000
0000
,
0100
0000
0000
0000
0010
0000
0000
0000
0001
0000
0000
0000
0001
0000
0000
0001
,
0200
0000
0301
0000
0000
0001
0000
0000
,
0000
0000
0100
0000
0000
0010
1000
0000
0010
0000
1000
0000
0010
0000
0100
0000
,
0001
0100
0001
0000
1000
0000
0100
0000
,
0010
0000
0000
0000
0001
0000
0000
0001
0000
0000
0000
0000
1000
0000
0000
1000
,
0000
0010
0010
0000
,
0100
0000
0000
0100
0001
0000
0100
0000
0001
0000
1000
0000
0100
0000
1000
0000
,
0100
0010
0000
0010
0000
0001
0000
0001
,
0000
0000
1000
0000
1000
0000
2000
0000
0000
0002
0000
0000
3003
0000
0000
0000
,
1000
0000
1000
0000
0001
0100
0001
0000
,
1000
0000
0010
0000
0100
0001
1000
0000
,
0100
1000
0100
1000
0100
0000
0010
0000
,
0001
0100
0001
0100
0001
0000
0010
0000
,
0100
1000
0010
0100
,
0001
1000
0100
0100
,
0010
0001
0010
0001
0010
0001
0010
0000
,
0100
1000
0100
1000
0100
1000
0100
0000
,
1000
0001
1000
0000
0001
0000
0000
0100
,
0000
0010
0000
1000
0000
0001
0100
0001
,
0000
1000
0000
0010
0000
0010
0000
0100
,
0010
0100
0010
1000
0000
0001
0000
0100
,
0010
1000
0000
0001
0000
1000
0000
0010
,
0100
0001
0000
0010
0000
1001
0000
0010
,
0001
0000
0100
0000
0000
0000
0010
0000
0100
0000
0010
0000
0000
1000
0000
0000
,
0000
0100
1000
0000
0001
0000
1000
0000
,
0001
0000
0010
0000
0100
0000
1000
0100
,
0010
0001
1000
0000
0100
0000
1000
0000
,
0001
0000
0000
0000
0100
0000
0000
0000
0010
0000
0000
0000
1000
0000
0000
1000
,
0000
1000
0001
0000
0100
0000
0010
0000
,
1000
0000
0001
0000
0010
0000
0100
0010
,
0001
0000
1000
0000
0100
1000
1002
0000
0000
0000
0000
0000
1003
0000
0000
0010
,
0000
0010
0200
0000
0310
0000
1001
0000
,
0001
0100
0010
0000
1000
0100
0010
0001
,
0100
0010
1000
1001
,
0001
0010
0100
0000
1000
0020
0000
0230
,
0000
0301
1000
0000
0100
0000
0010
0000
,
0011
0001
0100
0010
,
1010
1000
0100
0001
,
0101
0001
0100
1000
,
1100
0000
0000
0110
0000
0000
0000
0000
2002
0000
0000
0000
0000
0000
0000
0000
,
3003
0000
0000
0000
;

//---------------dance-single - ----------------
#NOTES:
     dance-single:
     :
     Easy:
     3:
     0.150873,0.203678,0.050291,0.226309,0.000000,126.000000,120.000000,6.000000,27.000000,0.000000,0.000000,0.150873,0.203678,0.050291,0.226309,0.000000,126.000000,120.000000,6.000000,27.000000,0.000000,0.000000:
0000
0000
0000
0000
,
0000
0000
0000
0000
,
0000
0000
0000
0000
,
0000
0000
0000
0000
,
1000
0000
0001
0000
,
0100
0010
0100
0000
,
0010
1000
0001
0000
,
2002
0000
0000
0000
0000
0000
0000
3003
0000
0000
0000
0000
0000
0000
0001
0000
,
0000
0001
0000
0000
0000
0000
0000
0000
,
1000
0100
0010
0001
,
0000
1000
0000
0010
,
0010
0000
0000
0000
0000
0100
0000
0100
,
0000
0000
0000
0001
,
0100
0010
1000
0000
,
0001
0000
1000
0000
,
0000
0000
0001
0000
0000
0001
0000
0000
,
0000
0000
0100
0100
,
0100
0010
0000
1000
,
0000
0001
0000
0001
,
0000
1000
1000
0000
,
0000
0000
0000
0001
0000
0001
0000
0001
,
0000
0001
0000
0000
0000
0100
0000
0000
,
0000
0220
0000
0000
0000
0000
0330
0000
,
1000
0000
1000
0000
0000
0000
0000
0001
,
0000
0000
0000
0000
0000
0200
0000
0000
,
0310
0000
0000
0000
0000
0020
0000
0000
,
1030
0000
0000
0000
0000
0200
0000
0000
,
0310
0000
0010
0000
0000
0002
0000
0000
,
0013
0000
0000
0000
0000
2000
0000
0000
,
3100
0100
0000
0000
,
1000
0000
0000
0000
0000
0020
0000
0000
,
0130
0000
0100
0000
0000
0000
0000
0001
,
0000
0000
2000
0000
0000
3010
0000
0010
,
0000
0000
0000
0100
0000
0100
0000
0000
,
0002
0000
0000
1003
0000
1000
0000
0000
,
0200
0000
0000
0310
0000
0000
0000
0000
,
0002
0000
0000
0013
0000
1001
0000
0000
,
0002
0000
0000
0000
0000
0000
0200
0000
0000
0000
0000
0000
0000
0303
0000
0000
,
0000
2000
0000
3001
,
0000
0200
0000
0310
,
1000
0200
0000
1300
,
0000
0001
0010
0100
,
1000
0002
0000
0103
,
0000
0020
0000
1030
,
0100
0000
0010
0020
0000
0000
0000
0000
,
0000
0030
0001
0001
,
0000
2000
0000
0000
3001
0000
0000
0000
,
0000
0200
0000
0000
0310
0000
0010
0000
,
0000
0000
0000
1000
0000
0001
0000
0200
,
0000
0310
0010
0000
,
0110
0000
0010
1000
,
0100
0010
0001
0000
,
1001
0000
0001
0100
,
0010
0010
0220
0000
,
0330
0000
0000
0000
;

//---------------dance-single - ----------------
#NOTES:
     dance-single:
     :
     Challenge:
     10:
     0.774719,0.746819,0.477763,0.259836,0.955526,647.000000,590.000000,57.000000,31.000000,4.000000,0.000000,0.774719,0.746819,0.477763,0.259836,0.955526,647.000000,590.000000,57.000000,31.000000,4.000000,0.000000:
// measure 0
0000
0000
0000
0000
,  // measure 1
0000
0000
0000
0000
,  // measure 2
0000
0000
0000
0000
,  // measure 3
0000
0000
0000
0000
,  // measure 4
0100
0000
0001
1000
0100
0000
0010
0000
0110
0000
0100
0000
0100
0000
0100
0000
,  // measure 5
0100
0000
0010
0001
0100
0000
0010
0000
0110
0000
0010
0000
0010
0000
0010
0000
,  // measure 6
0100
0000
0001
1000
0100
0000
0010
0000
1001
0000
0001
1001
0000
1000
0001
0100
,  // measure 7
0110
0000
0000
0000
0000
0000
0010
0000
0000
0000
0000
0000
0010
0000
0000
0000
0000
0000
0010
0000
0000
1000
0000
0000
0001
0000
0010
0000
0001
0000
0010
0000
0000
0001
0000
0000
0100
0000
0000
0010
0000
0000
0110
0000
0000
0000
0000
0000
,  // measure 8
0000
0000
1010
0000
0010
1000
0100
1000
0100
0010
0001
0100
0001
2000
3100
1000
,  // measure 9
0100
1000
0100
1000
0000
0000
2100
0000
3100
0010
0001
0100
0001
0000
1000
0000
,  // measure 10
0100
1000
0010
0100
0001
0010
1000
0001
0100
1000
0001
0100
0010
0000
0010
0000
,  // measure 11
0010
0000
0010
1000
0100
1000
0010
0001
0010
0100
0110
0000
0000
0000
0101
0000
,  // measure 12
0100
0001
0010
0001
0010
0100
1000
0010
0100
0002
1003
0000
1000
0000
1000
0000
,  // measure 13
1000
0000
1001
0000
0001
0100
0001
0100
0010
0000
1000
0100
0000
0010
0000
0001
,  // measure 14
0100
0000
0001
0010
0000
0100
0000
1000
0010
0100
0001
1000
0200
0000
0000
1300
,  // measure 15
1100
0000
1100
0000
0011
0000
0001
0100
0001
0100
0101
0000
0001
0100
0010
1000
,  // measure 16
0010
1000
0010
0100
0001
2000
3001
0010
0001
0010
0001
0010
0100
0000
0110
0000
,  // measure 17
0100
1000
0010
0100
0120
0000
1030
0000
0001
0010
0100
1000
0001
1000
0100
0010
,  // measure 18
0001
0100
0010
1000
0001
0000
1000
1100
0000
1000
0010
1000
0001
0000
1000
1100
,  // measure 19
0000
1000
0010
1000
0001
0000
0100
0010
0110
0000
0200
0000
0320
0000
0032
0000
,  // measure 20
1003
0100
0001
2000
3100
1000
0100
1000
0100
2000
0000
0000
3010
0000
0100
0001
,  // measure 21
0010
0100
1000
0000
0010
0000
1000
0100
0010
0001
0100
0010
1000
0001
0010
0100
,  // measure 22
1000
0000
0000
0100
0000
0000
0010
0000
0000
0000
0000
0000
0010
0000
0000
0000
0000
0000
0010
0000
0000
0000
0000
0000
0010
0000
0000
0001
0000
0000
0001
0000
1000
0000
0001
0000
1000
0000
0000
0100
0000
0000
0010
0000
0000
0001
0000
0000
,  // measure 23
1000
0000
0000
0000
0001
0000
0000
0000
1001
0000
0000
0000
0001
0000
0100
0000
0001
0000
1000
0100
1000
0000
0001
0000
0010
0000
0001
0000
0200
0000
0320
0000
,  // measure 24
0000
1030
0000
0100
0010
0001
0010
0100
1000
0000
1000
0000
0001
0010
0001
0010
,  // measure 25
0001
1000
0100
1000
0001
0010
0001
0100
0010
1000
0100
0000
2100
0000
3100
0010
,  // measure 26
0000
0010
0000
0001
0010
0100
1000
0001
0100
0010
1000
0000
2000
3002
1003
0000
,  // measure 27
2000
3001
2000
3001
0200
0320
0230
0301
0100
0001
0010
0100
0010
0001
1000
0100
,  // measure 28
0010
0000
0100
0000
1000
0001
0100
0101
0000
0010
0000
1001
1000
0001
1000
0100
,  // measure 29
1000
0010
0100
0010
0100
1000
0100
0001
1000
0100
0010
1000
0000
1000
0010
0001
,  // measure 30
0100
0000
0100
0010
1000
0000
1000
0010
0001
0010
0100
0001
1000
0001
0000
0000
,  // measure 31
0100
0001
0000
0100
0001
0100
0010
2000
3100
0010
0100
0020
0031
0010
0001
0010
,  // measure 32
0100
01MM
1000
0100
1000
0100
0001
1000
0001
0000
1000
0000
1000
0000
0001
0010
,  // measure 33
0100
2000
3100
0010
0001
1000
0001
0100
1000
0100
01MM
1000
0010
0000
0010
1000
,  // measure 34
0100
0001
1000
0010
0001
0000
0100
0000
0110
0000
0010
0000
1000
1001
0000
0001
,  // measure 35
0000
1000
1100
0000
0100
0000
0010
0000
0011
0000
0001
0000
0100
0110
0000
0010
,  // measure 36
1000
0001
1001
0000
0100
0000
0010
0000
0000
0000
1001
0000
1000
0001
0100
0010
,  // measure 37
0100
0000
0000
0001
0000
0000
0020
0000
0000
0032
0000
0000
2003
0000
0000
3100
0000
0000
0010
0000
0000
0000
0000
0000
0010
0000
0000
0000
0000
0000
0010
0000
0000
0000
0000
0000
0010
0000
0000
0001
0000
0000
0001
0000
1000
0000
0001
0000
,  // measure 38
1000
0000
1001
0000
0001
0000
0000
0100
0000
0000
0010
0000
0110
0000
0010
0100
,  // measure 39
0001
0010
0100
1000
0010
0100
0001
0010
0100
1000
0010
0100
0001
0010
1000
0001
,  // measure 40
0100
1000
0001
0010
1000
0000
0000
1000
0000
0000
1000
0000
0011
0000
0000
0001
,  // measure 41
0000
0000
1000
0100
0000
0000
1000
0010
1000
0100
0010
0001
1000
0100
0001
1000
,  // measure 42
0010
0001
1000
0100
0001
0000
0100
0000
1000
0000
0010
0000
1010
0000
0010
0000
,  // measure 43
0100
0000
0001
0000
0010
0000
0001
0100
0001
0000
1000
0000
1100
0000
0100
0000
,  // measure 44
0010
0000
0001
0010
0011
0110
2200
0000
3300
0000
1001
0000
0100
1000
0100
0110
,  // measure 45
0000
0000
0000
0010
0000
0000
0110
0000
0000
0000
0000
0000
0001
0000
1000
0000
0001
0000
1000
0000
0000
0001
0000
0000
0100
0000
0000
0000
0000
0000
0010
0000
0000
0000
0000
0000
0110
0000
0000
0000
0000
0000
0010
0000
0000
1000
0000
0000
,  // measure 46
0100
1000
0010
0000
0110
0000
0100
0001
0010
0000
0001
0000
0011
0000
0001
0100
,  // measure 47
0001
0100
0010
0000
1010
0000
0010
0100
0001
0000
1000
0000
1001
0000
0001
1000
,  // measure 48
0010
1000
0001
0000
1001
0000
0001
1000
0010
0100
0101
0000
0001
1000
0010
0100
,  // measure 49
0001
0100
0110
0000
0010
0000
1001
0000
0001
0000
1000
0100
0010
0000
0100
0000
,  // measure 50
0110
0000
0100
0000
0100
0000
0100
0000
0100
0000
1000
0001
0100
0000
0010
0000
,  // measure 51
0110
0000
0010
0000
0010
0000
0010
0000
1000
0000
0001
0100
0010
0000
1000
0000
,  // measure 52
1001
0000
0001
0000
0001
0000
0001
0000
0100
0000
0010
1000
0010
0000
0010
0000
,  // measure 53
1010
0000
1000
1001
0000
1000
0100
1000
2002
0000
0000
0000
0000
0000
0000
0000
,  // measure 54
3003
0000
0000
0000
;

//---------------dance-single - ----------------
#NOTES:
     dance-single:
     :
     Beginner:
     1:
     0.110161,0.179371,0.075436,0.142491,0.000000,92.000000,83.000000,9.000000,17.000000,0.000000,0.000000,0.110161,0.179371,0.075436,0.142491,0.000000,92.000000,83.000000,9.000000,17.000000,0.000000,0.000000:
0000
0000
0000
0000
,
0000
0000
0000
0000
,
0000
0000
0000
0000
,
0000
0000
0000
0000
,
1000
0000
0000
0000
,
0001
0000
0000
0000
,
0100
0000
0010
0000
,
0110
0000
0000
0000
0000
0000
0000
0010
,
0000
0010
0000
0000
0000
0000
0000
0000
,
1000
1000
1000
1000
,
0000
0001
0000
0100
,
0000
0000
0000
0000
0000
0010
0000
0010
,
0000
0000
0000
0100
,
0100
0100
0100
0000
,
0001
0000
1000
2000
,
0000
0000
3000
0000
0000
0001
0000
0000
,
0000
0000
0100
0100
,
0100
0100
0000
0000
,
0000
1000
0000
1000
,
0000
0001
0001
0000
,
0000
0000
0000
0010
0000
0010
0000
0010
,
0000
0010
0000
0000
0000
0010
0000
0000
,
0000
0000
2002
0000
0000
0000
0000
0000
0000
3003
0000
0000
0000
0000
0000
0000
,
0001
0000
0000
0000
,
0100
0000
0000
0000
,
0010
0000
0000
0000
,
1000
0000
0000
0000
,
0100
0100
0000
0100
,
0000
0010
0000
0010
,
0000
0001
0000
1000
,
0000
0001
0000
1000
,
1000
1000
0000
0000
,
0000
0000
0000
0000
0000
0100
0000
0100
,
0000
0000
0000
0000
,
0000
0000
0000
0000
0000
0001
0000
0000
,
0000
1000
0000
0000
0000
0001
0000
0000
,
0000
1000
0000
0000
0000
1001
0000
0000
,
0000
0000
1001
0000
0000
0000
2002
0000
0000
0000
0000
0000
0000
3003
0000
0000
,
0000
0100
0000
0010
,
0000
0100
0000
0010
,
0000
2000
0000
3000
,
0000
0002
0000
0003
,
0000
1000
0000
0001
,
0000
1000
0000
0001
,
0000
2002
3003
0000
,
0000
0000
0220
0000
,
0330
0000
0100
0000
,
0001
0000
2002
0000
,
3003
0000
1000
0000
,
0100
0000
0020
0000
,
0030
0000
0002
0000
,
0003
0000
2000
0000
,
3000
0000
0002
0000
,
0003
0000
1001
0000
;
