#TITLE:Vantablack;
#SUBTITLE:;
#ARTIST:siqlo;
#TITLETRANSLIT:;
#SUBTITLETRANSLIT:;
#ARTISTTRANSLIT:;
#GENRE:;
#CREDIT:;
#BANNER:bn.png;
#BACKGROUND:bg.png;
#LYRICSPATH:;
#CDTITLE:;
#MUSIC:Vantablack.ogg;
#OFFSET:-0.104;
#SAMPLESTART:41.379;
#SAMPLELENGTH:12.000;
#SELECTABLE:YES;
#BPMS:0.000=144.990,96.000=72.495,100.000=144.990,124.000=72.495,128.000=144.990,160.000=72.495,176.000=144.990;
#STOPS:204.000=0.207
,204.500=0.207
,205.000=0.207
,205.500=0.207
;
#BGCHANGES:;
#KEYSOUNDS:;

//---------------dance-single - warpdr!ve----------------
#NOTES:
     dance-single:
     warpdr!ve:
     Challenge:
     10:
     0.763,1.000,0.167,0.229,1.000:
0000
0000
0000
0000
,
0000
0000
0000
0000
,
0000
0000
0000
0000
,
0000
0000
0000
0000
,
0000
0000
0000
0000
,
0000
0000
0000
0000
,
0000
0000
0000
0000
,
1001
0000
0000
0002
,
1003
0010
1000
0010
1000
0010
1000
0010
1000
0010
1000
0010
0100
0000
0000
0000
,
0001
0010
0001
0010
0001
0010
0001
0010
0100
0000
1000
0000
0001
0000
0000
0000
,
1000
0010
0100
0010
1000
0001
0100
0001
1000
0100
0010
0001
0010
0100
1000
0001
,
1000
0010
0100
0010
1000
0001
0100
0001
1000
0001
0010
0100
1000
0100
0010
0001
,
4000
3040
0430
0304
,
1003
0100
0010
0001
,
1000
2000
3010
0020
0130
0200
0301
0002
,
1003
2000
3010
0020
0130
0200
0300
0002
,
1003
0100
0010
0100
1000
0001
0010
0100
1000
0001
0100
0010
0100
0001
1000
0001
,
1000
0100
0010
0001
1000
0001
0010
0001
1000
0000
0000
0000
0010
0000
0000
0000
,
1010
0000
1000
0000
0001
0100
0000
0001
0000
0001
0000
1000
0100
0000
0020
0000
,
0030
0000
0100
0010
0001
1000
0000
1000
0000
0001
0000
1000
0020
0000
2030
0000
,
3001
0000
0100
0000
0010
0000
0000
0100
0000
0100
0000
0001
1000
0000
0100
0000
,
0010
0001
1000
0000
0001
0010
0000
2000
0000
0000
3010
0000
0001
1000
0001
0100
,
0000
00M0
00M0
00M0
0001
1000
0000
0010
0000
0010
0000
1000
0001
0000
0020
0000
,
0030
0000
0001
0010
0100
1000
0000
1000
0001
0100
0010
0100
0001
1000
0010
1000
,
0M01
0010
1000
0010
0001
0100
1000
0100
0101
0000
0101
0000
0001
1000
0100
0000
,
11M0
0000
1000
0000
0100
0010
0000
0001
0000
0001
0000
1000
0010
0000
0200
0000
,
0310
1000
0010
0100
0001
1000
0000
1000
0100
0010
0001
1000
0002
0000
2003
0000
,
3001
0000
0010
0000
0100
0000
0000
0010
0000
0010
0000
0001
1000
0000
0010
0000
,
0100
0001
1000
0000
0001
0100
0000
2000
0000
0000
3100
0000
0001
1000
0100
0010
,
0000
000M
000M
000M
0100
1000
0000
0001
0000
0001
0000
1000
0001
0000
0200
0000
,
0301
1000
0010
0100
0010
1000
0000
1000
0100
0010
0001
1000
0100
0010
0100
1000
,
00M1
0000
0001
0000
0001
0100
0000
0100
0000
0100
0000
0100
0010
0000
1000
0000
1001
0000
0000
0000
1001
0000
0000
0000
1001
0000
0000
0000
1001
0000
1001
0000
,
0M01
0010
0001
1000
0001
0000
0000
0000
1000
0000
0010
0000
0001
0000
0010
0000
,
0100
0001
0000
1000
0010
0000
0100
0001
1000
0000
0010
0000
1000
0000
0001
0000
,
0000
1000
0100
0001
0100
0010
0001
1000
,
0001
0100
0010
0100
0010
1000
0010
0100
0001
1000
0001
0100
0001
0000
0100
0000
,
00M0
00M0
00M1
1000
0001
0000
0000
0000
0010
0000
0100
0000
1000
0000
0000
0000
,
0001
0100
0010
0100
0000
0001
1000
0100
0010
0100
1000
0000
0001
0000
0000
0000
,
0000
0000
1000
0010
0100
0000
0000
0000
0001
1000
0100
0010
0001
1000
0100
0010
,
0001
0100
1000
0100
0001
1000
0100
0000
,
10M0
0000
0001
0000
0010
0100
0000
0100
0010
0001
1000
0000
0001
0000
0100
0010
1000
0000
0001
0000
0100
0010
0000
0010
1000
0001
0100
0000
0001
0000
1000
0001
,
0010
0000
0100
0000
1000
0100
0000
0100
1000
0001
0010
0000
0001
0000
1000
0010
0100
0000
0001
0000
0100
0010
0000
0010
1000
0001
0100
0000
0001
0000
1000
0100
,
0010
0100
1000
0001
0100
0010
0100
0001
,
1000
0000
0100
0000
0010
0000
0001
0000
1000
0000
0100
0000
0010
0000
0001
0000
1000
0010
0100
0001
0100
0010
1000
0001
2000
0000
0000
0000
3002
0000
0000
0000
,
10M3
0000
0100
0000
0010
0100
0000
0100
1000
0001
1000
0000
0001
0000
0100
0010
,
1000
0000
0001
0000
0100
0010
0000
0010
0100
0001
0100
0000
0010
0000
1000
0001
,
0010
0000
0100
0000
0010
0001
0000
0001
0010
0100
1000
0000
0001
0000
1000
0010
,
0100
0000
0001
0000
0100
0010
0000
0010
1000
0001
0010
0100
1000
0001
0010
0100
,
1000
0000
0001
0000
0010
0100
0000
0100
0010
0001
1000
0000
1001
0000
0000
0000
,
0001
0000
0100
0000
0010
1000
0000
1000
0001
0100
0001
0000
2002
0000
0000
3003
,
0000
0000
1100
1100
0000
0000
0011
0000
,
1M01
0000
10M1
0000
1M01
0000
10M1
0000
1000
0000
0010
0000
0100
0001
0100
0000
,
0001
0000
1000
0100
0000
0100
1000
0000
0001
0100
0010
0100
0001
1000
0000
1000
,
0100
0010
0001
1000
0100
0000
1000
0000
0001
0000
0100
0000
0010
0100
0010
0000
,
1000
0000
0001
0010
0000
0010
0001
0000
1000
0010
1000
0010
1000
0010
0000
0002
,
0000
0000
0013
0000
1000
0001
0010
0001
1000
0000
0010
0000
0100
0001
0100
0000
,
0001
0000
1000
0100
0000
0100
0010
0000
0001
1000
0010
0100
0001
1000
0000
1000
,
0100
0010
0100
1000
0100
0000
1000
0000
0001
0000
1000
0000
0010
0100
0010
0000
,
1000
0000
0001
0010
0000
0010
0001
0000
1000
0100
1000
0100
1000
0100
0000
0002
,
0000
0000
0103
0000
1000
0001
1000
0010
0200
0000
0000
0000
0000
0000
0000
0000
,
0000
0000
0000
0000
,
0300
0000
0000
0000
;
