#VERSION:0.83;
#TITLE:Sweet;
#SUBTITLE:;
#ARTIST:Unlike Pluto feat. Mister Blonde;
#TITLETRANSLIT:;
#SUBTITLETRANSLIT:;
#ARTISTTRANSLIT:;
#GENRE:;
#ORIGIN:;
#CREDIT:;
#BANNER:sweet_bn.png;
#BACKGROUND:sweet_bg.png;
#PREVIEWVID:;
#JACKET:sweet_jacket.png;
#CDIMAGE:;
#DISCIMAGE:;
#LYRICSPATH:;
#CDTITLE:cdtitle.png;
#MUSIC:sweet.ogg;
#OFFSET:0.000000;
#SAMPLESTART:35.181816;
#SAMPLELENGTH:19.329548;
#SELECTABLE:YES;
#BPMS:0.000=110.000;
#STOPS:100.000=1.636;
#DELAYS:;
#WARPS:;
#TIMESIGNATURES:0.000=4=4;
#TICKCOUNTS:0.000=4;
#COMBOS:0.000=1;
#SPEEDS:0.000=1.000=0.000=0;
#SCROLLS:0.000=1.000;
#FAKES:;
#LABELS:0.000=Song Start;
#BGCHANGES:;
#KEYSOUNDS:;
#ATTACKS:
;

//---------------dance-single - ----------------
#NOTEDATA:;
#CHARTNAME:;
#STEPSTYPE:dance-single;
#DESCRIPTION:;
#CHARTSTYLE:;
#DIFFICULTY:Hard;
#METER:8;
#RADARVALUES:0.467306,0.493833,0.227631,0.016862,0.413108,388.000000,361.000000,27.000000,2.000000,0.000000,0.000000,0.000000,0.000000,0.000000,0.467306,0.493833,0.227631,0.016862,0.413108,388.000000,361.000000,27.000000,2.000000,0.000000,0.000000,0.000000,0.000000,0.000000;
#CREDIT:;
#NOTES:
0000
0000
0000
0000
,
1000
0000
0000
1000
0100
0000
0000
0000
0100
0000
1000
0000
0010
0000
0000
0000
,
0100
0000
0000
0100
0010
0000
0000
0000
0010
0000
0100
0000
0001
0000
0010
0000
,
0001
0000
0000
0001
1000
0000
0000
0000
1000
0000
0000
0000
0010
0000
0000
0010
,
0100
0000
0100
0000
0010
0100
0001
0010
,
0100
0000
0000
0100
0010
0000
0000
0000
0001
0000
0100
0000
0010
0000
0000
0010
,
0100
0000
0000
0010
0100
0000
0000
0000
0010
0000
1000
0000
0100
0000
0010
0000
,
0100
0000
1000
0000
1000
0000
0000
0000
1000
0000
0000
0000
0010
0000
0000
0010
,
0100
0000
0000
0000
0100
0000
0001
0000
0001
0000
0000
0001
0000
0000
0001
0000
,
1000
0000
0000
0000
1000
0000
0100
0000
0001
0000
0000
0001
0000
0000
0100
0000
,
0010
0000
0000
0000
0110
0000
0010
0000
0001
0000
0000
0001
0000
0000
0001
0000
,
0100
0000
0000
0001
0000
0000
0100
0000
1000
0000
0000
0100
0000
0000
0100
0000
,
0010
0000
0000
0000
0110
0000
0010
0000
1000
0000
0000
1000
0100
0000
0010
0000
,
0001
0000
0000
0010
0000
0000
0001
0000
0010
0000
0000
1000
0000
0000
0010
0000
,
0100
0000
0110
0100
1000
0001
1000
0010
,
1000
0000
0000
0100
0000
0000
0010
0000
0001
0000
0000
0100
0000
0000
0010
0000
,
0110
0000
0000
0010
,
0101
0000
0000
0001
0100
0010
0000
0000
0101
0000
0000
0001
0100
0010
0000
0000
,
0010
0000
1000
0000
0100
0000
1000
0000
0010
0000
0000
0010
0000
0100
0000
0000
,
1010
0000
0000
1000
0010
0100
0000
0000
1010
0000
0000
1000
0010
0100
0000
0000
,
0010
0000
1000
0000
0100
0000
0010
0000
0001
0010
0001
0000
0010
0001
0010
0000
,
0011
0000
0000
0001
0010
0100
0000
0000
0011
0000
0000
0001
0010
0100
0000
0000
,
0100
0000
1000
0000
0010
0000
0100
0000
0010
0000
0000
1000
0000
0100
0000
0000
,
1100
0000
0000
1000
0100
0010
0000
0000
1100
0000
0000
1000
0100
0010
0000
0000
,
0200
0000
0000
0000
1000
0000
0000
0000
0310
0100
1000
0000
0010
0100
0001
0000
,
0101
0000
0001
0000
1000
0000
0000
1000
0001
0000
0000
0000
0001
0000
0010
0000
,
0100
0000
0000
0100
0001
0000
0000
0001
0100
0000
0000
0000
1000
0000
0100
0000
,
0010
0000
0001
0000
0100
0000
0000
0001
0100
0000
0000
0000
0100
0000
0010
0000
,
0001
0000
0000
0001
0010
0000
0000
0000
0100
0000
0000
0000
0100
0010
1000
0000
,
0001
0000
0010
0000
0100
0000
0000
0110
0000
0000
0000
0000
0100
0000
1000
0010
,
0000
0100
0010
0000
0100
0000
0000
0010
1000
0000
0000
0000
1000
0100
0000
0100
,
1000
0000
0001
0000
0001
0000
0000
0100
0001
0000
0000
0001
0100
0000
0010
0000
,
0100
0000
0001
0000
1000
0000
0000
0000
1100
0000
1000
0000
0001
0000
0000
0001
,
0100
0000
0100
0000
0001
0000
0000
0000
0001
0000
0100
0000
1000
0000
0000
1000
,
0000
0000
0100
0000
0010
0000
0000
0000
0110
0000
0010
0000
1000
0000
0000
1000
,
0000
0000
1000
0000
0100
0000
0000
0000
1000
0000
0100
0000
0001
0000
0000
0100
,
0000
0000
0100
0000
0010
0000
0000
0000
0110
0000
0010
0000
0001
0000
0000
0001
,
0100
0000
0010
0000
1000
0000
0000
0010
0000
0000
1000
0000
0010
0000
0000
0001
,
0000
0010
0100
0000
0110
0100
0001
1000
,
0001
0000
0010
0000
0001
0000
0000
0100
0000
0000
0010
0000
1000
0000
0000
0100
,
0000
0010
0110
0000
0000
0000
0000
0000
,
0010
0000
0000
0000
1100
0000
0000
1000
0100
0010
0000
0000
1100
0000
0000
1000
,
0100
0010
0000
0000
0010
0000
0001
0000
0100
0000
0001
0000
0010
0000
0000
0010
,
0000
0100
0000
0000
0011
0000
0000
0001
0010
0100
0000
0000
0011
0000
0000
0001
,
0010
0100
0000
0000
0010
0000
0001
0000
0100
0000
0010
0000
1000
0010
1000
0000
,
0010
1000
0010
0000
1010
0000
0000
1000
0010
0100
0000
0000
1010
0000
0000
1000
,
0010
0100
0000
0000
0100
0000
0001
0000
0010
0000
0100
0000
0010
0000
0000
0001
,
0000
0100
0000
0000
0101
0000
0000
0001
0100
0010
0000
0000
0101
0000
0000
0001
,
0100
0010
0000
0000
0200
0000
0000
0000
0001
0000
0000
0000
0310
0100
0001
0000
,
0010
0100
1000
0000
0100
0000
0000
0100
1000
0100
0000
0000
1000
0000
0001
0000
,
0001
0000
0000
0000
0100
0000
0000
0001
0100
0001
0000
0000
0001
0000
0010
0000
,
0010
0000
0000
0000
0100
0000
0000
0100
0010
0100
0000
0000
1000
0000
0100
0000
,
0100
0000
0000
0000
0010
0000
0000
0010
0001
0010
0000
0000
0001
0000
0100
0000
,
1000
0100
0000
0000
0010
0000
0000
0000
0000
0000
0000
0000
0000
0000
0000
0000
;

//---------------dance-single - ----------------
#NOTEDATA:;
#CHARTNAME:;
#STEPSTYPE:dance-single;
#DESCRIPTION:;
#CHARTSTYLE:;
#DIFFICULTY:Easy;
#METER:3;
#RADARVALUES:0.245697,0.269363,0.143323,0.033723,0.050585,204.000000,187.000000,17.000000,4.000000,0.000000,0.000000,0.000000,0.000000,0.000000,0.245697,0.269363,0.143323,0.033723,0.050585,204.000000,187.000000,17.000000,4.000000,0.000000,0.000000,0.000000,0.000000,0.000000;
#CREDIT:;
#NOTES:
0000
0000
0000
0000
,
1000
1000
0000
1000
,
0001
0001
0000
0001
,
0010
0010
0000
0010
,
0100
0100
0000
0100
,
0010
0001
0000
0001
,
1000
0010
0000
0010
,
1000
0100
0000
0100
,
0010
0001
0001
0001
,
0100
0000
0000
0000
0010
0000
0000
0000
0100
0000
0000
0100
0000
0000
0000
0000
,
0001
0000
0000
0000
1000
0000
0000
0000
0001
0000
0000
0001
0000
0000
0000
0000
,
1000
0000
0000
0000
0100
0000
0000
0000
1000
0000
0000
1000
0000
0000
0000
0000
,
0001
0000
0000
0000
0100
0000
0000
0000
0010
0000
0000
0010
0000
0000
0000
0000
,
0100
0000
0000
0000
0001
0000
0000
0000
1000
0000
0000
1000
0000
0000
0000
0000
,
0001
0000
0000
0000
0010
0000
0000
0000
0001
0000
0000
0001
0000
0000
0000
0000
,
1000
0100
0001
0010
,
1000
0000
0000
0000
,
1100
1000
0100
0010
,
0110
0010
0001
1000
,
1001
0001
0100
0010
,
1010
1000
1000
1000
,
1100
0100
1000
0001
,
0101
0100
0010
0100
,
0110
0100
0001
1000
,
0200
0300
0020
0030
,
1001
0001
0001
0000
,
0001
0100
0010
0000
,
0010
1000
0010
0000
,
0100
0001
0010
0000
,
0100
0100
0110
0000
,
0010
0010
0110
0000
,
0001
1000
0010
0100
,
0010
0100
0100
0001
,
1000
0000
0000
0000
0100
0000
0000
0000
0010
0000
0000
0000
0100
0000
0000
0100
,
0000
0000
0000
0000
1000
0000
0000
0000
0001
0000
0000
0000
1000
0000
0000
1000
,
0000
0000
0000
0000
0001
0000
0000
0000
0100
0000
0000
0000
0001
0000
0000
0001
,
0000
0000
0000
0000
1000
0000
0000
0000
0100
0000
0000
0000
0010
0000
0000
0010
,
0000
0000
0000
0000
0100
0000
0000
0000
1000
0000
0000
0000
0001
0000
0000
0001
,
0000
0000
0000
0000
1000
0000
0000
0000
0010
0000
0000
0000
1000
0000
0000
1000
,
0000
0001
0100
1000
,
0010
0001
0000
0000
,
0000
0101
0001
0100
,
0010
0110
0010
1000
,
0001
1001
1000
0100
,
0010
0011
0001
0001
,
0001
0101
0100
0001
,
1000
1100
0100
0010
,
0100
0110
0100
1000
,
0001
0200
0300
0020
,
0030
0100
0100
0010
,
1000
0100
0100
0010
,
0001
1000
1000
0010
,
0100
0001
0001
0010
,
0100
0010
0000
0000
;

//---------------dance-single - ----------------
#NOTEDATA:;
#CHARTNAME:;
#STEPSTYPE:dance-single;
#DESCRIPTION:;
#CHARTSTYLE:;
#DIFFICULTY:Medium;
#METER:6;
#RADARVALUES:0.351684,0.336704,0.008431,0.050585,0.307723,292.000000,291.000000,1.000000,6.000000,0.000000,0.000000,0.000000,0.000000,0.000000,0.351684,0.336704,0.008431,0.050585,0.307723,292.000000,291.000000,1.000000,6.000000,0.000000,0.000000,0.000000,0.000000,0.000000;
#CREDIT:;
#NOTES:
// measure 0
0000
0000
0000
0000
,  // measure 1
1000
0000
0000
0001
0000
0000
0000
0000
0000
0000
0001
0000
1000
0000
0000
0000
,  // measure 2
0010
0000
0000
0000
0000
0100
0010
1000
,  // measure 3
0010
0000
0000
0000
0000
0000
0000
0000
0000
0000
0000
0000
0100
0000
0000
0100
,  // measure 4
0001
0000
0000
0000
0000
1000
0100
0010
,  // measure 5
0100
0000
0000
0000
0000
0000
0000
0000
0000
0000
0010
0000
0001
0000
0000
0001
,  // measure 6
0010
0000
0000
0000
0000
0010
0100
1000
,  // measure 7
0100
0000
0010
0000
0000
0000
0000
0000
0000
0000
0000
0000
0010
0000
0000
0010
,  // measure 8
0001
0000
0000
0000
0000
0000
0001
0000
0100
0000
0000
0001
0100
0000
0000
0000
,  // measure 9
0100
0000
0000
0000
0010
0000
0100
0000
0001
0000
0000
0100
0000
0000
0000
0000
,  // measure 10
0001
0000
0000
0000
1000
0000
0001
0000
1000
0000
0000
1000
0000
0000
0100
0000
,  // measure 11
1000
0000
0000
0100
0000
0000
0010
0000
0100
0000
0000
0010
0000
0000
0000
0000
,  // measure 12
0001
0000
0000
0000
1000
0000
0001
0000
1000
0000
0000
1000
0000
0000
0010
0000
,  // measure 13
0100
0000
0000
0000
0001
0000
0100
0000
0010
0000
0000
1000
0000
0000
0000
0000
,  // measure 14
0001
0000
0010
0100
0010
0100
1000
0010
,  // measure 15
0100
0000
0000
0100
0000
0000
0010
0000
0100
0000
0000
0100
0000
0000
0010
0000
,  // measure 16
0000
0000
0010
0000
1000
0000
0001
0000
0010
0000
0000
0010
0000
0100
0000
0000
,  // measure 17
1000
0000
0000
0010
0000
0100
0000
0000
0001
0000
0000
1000
0000
0001
0000
0000
,  // measure 18
0100
0000
0010
0000
0100
0000
0001
0000
0010
0000
0000
0100
0000
1000
0000
0000
,  // measure 19
0001
0000
0000
1000
0000
0001
0000
0000
0100
0000
0000
0010
0000
1000
0000
0000
,  // measure 20
0010
0000
0100
0000
0001
0000
0010
0000
0100
0000
0000
0000
0100
0010
0000
0000
,  // measure 21
0100
0000
0000
0100
0000
1000
0000
0000
0010
0000
0000
0100
0000
0001
0000
0000
,  // measure 22
0100
0000
0010
0000
1000
0000
0010
0000
0100
0000
0000
0001
0000
0010
0000
0000
,  // measure 23
0100
0000
0000
0010
0000
0001
0000
0000
0100
0000
0000
0010
0000
0100
0000
0000
,  // measure 24
0200
0000
0020
0330
,  // measure 25
0110
0010
0100
0000
0100
0000
0100
0001
,  // measure 26
0010
0000
0000
0001
0010
0000
0000
0000
0010
0000
0000
0000
0010
0000
0100
0000
,  // measure 27
0010
0001
0100
0000
0010
0000
0000
0010
,  // measure 28
0100
0000
0000
0100
0001
0000
0000
0000
1000
0000
0000
0000
1000
0000
0100
0000
,  // measure 29
1000
0000
0001
0000
0010
0000
0000
0100
0000
0000
0000
0000
1000
0000
0010
0000
,  // measure 30
0100
0010
0100
0000
0001
0000
0010
0001
,  // measure 31
1000
0010
1000
0001
0010
0100
0010
0001
,  // measure 32
0100
0010
0100
0000
0100
0000
0001
0000
,  // measure 33
1000
0000
0000
0000
0100
0000
0000
0000
0010
0000
0100
0000
1000
0000
0000
0100
,  // measure 34
0000
0000
0000
0000
1000
0000
0000
0000
0001
0000
1000
0000
0001
0000
0000
0001
,  // measure 35
0000
0000
0100
0000
0001
0000
0000
0000
0100
0000
0010
0000
0100
0000
0000
0010
,  // measure 36
0000
0000
0000
0000
1000
0000
0000
0000
0001
0000
1000
0000
0001
0000
0000
0001
,  // measure 37
0000
0000
0010
0000
0100
0000
0000
0000
1000
0000
0100
0000
0010
0000
0000
0001
,  // measure 38
0000
0000
1000
0000
0010
0100
0010
0100
,  // measure 39
0001
0000
0010
0000
0100
0000
0000
0100
0000
0000
0010
0000
0100
0000
0000
0100
,  // measure 40
0000
0000
0010
0000
0000
0000
0010
0000
0001
0000
1000
0000
0010
0000
0000
0010
,  // measure 41
0000
0100
0000
0000
0001
0000
0000
0010
0000
0100
0000
0000
1000
0000
0000
0001
,  // measure 42
0000
1000
0000
0000
0100
0000
0010
0000
0100
0000
1000
0000
0010
0000
0000
0100
,  // measure 43
0000
0001
0000
0000
1000
0000
0000
0001
0000
1000
0000
0000
0100
0000
0000
0010
,  // measure 44
0000
0001
0000
0000
0010
0000
0100
0000
1000
0000
0010
0000
0100
0000
0000
0000
,  // measure 45
0100
0010
0000
0000
0100
0000
0000
0100
0000
0001
0000
0000
0010
0000
0000
0100
,  // measure 46
0000
1000
0000
0000
0100
0000
0010
0000
0001
0000
0010
0000
0100
0000
0000
1000
,  // measure 47
0000
0010
0000
0000
0100
0000
0000
0010
0000
1000
0000
0000
0100
0000
0000
0010
,  // measure 48
0000
0100
0000
0000
0200
0000
0000
0000
0000
0000
0000
0000
0020
0000
0000
0000
,  // measure 49
0330
0000
0000
0000
0100
0000
0000
0010
0100
0000
0000
0000
1000
0000
0100
0000
,  // measure 50
1000
0000
0000
0000
0010
0000
0000
0100
0010
0000
0000
0000
0100
0000
0001
0000
,  // measure 51
0100
0000
0000
0000
0001
0000
0000
0010
0001
0000
0000
0000
0010
0000
0100
0000
,  // measure 52
0010
0000
0000
0000
0001
0000
0000
1000
0010
0000
0000
0000
0020
0000
0000
0000
,  // measure 53
0230
0310
0000
0000
;
