#VERSION:0.83;
#TITLE:SUSHI食べたい feat.ソイソース;
#SUBTITLE:;
#ARTIST:ORANGE RANGE;
#TITLETRANSLIT:SUSHI TABETAI feat. SOY SAUCE;
#SUBTITLETRANSLIT:;
#ARTISTTRANSLIT:;
#GENRE:Sushi Electropop;
#ORIGIN:;
#CREDIT:;
#BANNER:[VIP Room Round 1] - SUSHI TABETAI feat. SOY SAUCE.png;
#BACKGROUND:[VIP Room Round 1] - SUSHI TABETAI feat. SOY SAUCE-bg.png;
#PREVIEWVID:;
#JACKET:[VIP Room Round 1] - SUSHI TABETAI feat. SOY SAUCE-jacket.png;
#CDIMAGE:;
#DISCIMAGE:;
#LYRICSPATH:;
#CDTITLE:;
#MUSIC:[VIP Room Round 1] - SUSHI TABETAI feat. SOY SAUCE.ogg;
#OFFSET:-0.387000;
#SAMPLESTART:89.235893;
#SAMPLELENGTH:15.000000;
#SELECTABLE:YES;
#DISPLAYBPM:135.000000;
#BPMS:0.000=135.000,
108.000=270.000,
115.000=135.000;
#STOPS:66.500=0.444,
69.500=0.444,
72.500=0.444,
74.750=0.444,
108.000=0.167,
108.750=0.167,
109.500=0.222,
110.500=0.111,
111.000=0.222,
112.000=0.167,
112.750=0.167,
113.500=0.333;
#DELAYS:;
#WARPS:;
#TIMESIGNATURES:0.000=4=4;
#TICKCOUNTS:0.000=4;
#COMBOS:0.000=1;
#SPEEDS:0.000=1.000=0.000=0;
#SCROLLS:0.000=1.000;
#FAKES:;
#LABELS:0.000=Song Start;
#BGCHANGES:0.000=[VIP Room Round 1] - SUSHI TABETAI feat. SOY SAUCE.avi=1.000=0=0=0=StretchNoLoop==CrossFade_Fastest==,
99999=-nosongbg-=1.000=0=0=0 // don't automatically add -songbackground-
;
#KEYSOUNDS:;
#ATTACKS:
;

//---------------dance-single - ----------------
#NOTEDATA:;
#CHARTNAME:;
#STEPSTYPE:dance-single;
#DESCRIPTION:;
#CHARTSTYLE:;
#DIFFICULTY:Challenge;
#METER:9;
#RADARVALUES:0.601403,0.600959,0.138866,0.021926,0.412942,576.000000,557.000000,19.000000,3.000000,0.000000,0.000000,0.000000,0.000000,0.000000,0.601403,0.600959,0.138866,0.021926,0.412942,576.000000,557.000000,19.000000,3.000000,0.000000,0.000000,0.000000,0.000000,0.000000;
#CREDIT:;
#DISPLAYBPM:135.000000;
#NOTES:
// measure 0
0000
0000
0000
0000
,  // measure 1
0000
0000
0000
0000
,  // measure 2
0000
0000
0000
0000
,  // measure 3
0000
0000
0000
0000
,  // measure 4
1000
0000
0010
0000
0100
0000
0001
0100
0000
0000
0001
0000
1000
0000
0000
0000
,  // measure 5
0100
1000
0100
1000
0000
0000
0001
0100
0001
0100
0001
0000
0000
0000
0000
0000
,  // measure 6
1000
0000
0100
0000
0010
0000
0001
0010
0000
0000
0001
0000
1000
0000
0000
0000
,  // measure 7
0010
1000
0010
1000
0000
0000
0001
0010
0001
0010
0001
0000
0000
0000
0000
0000
,  // measure 8
1000
0000
0100
0000
0001
0000
0100
0000
1000
0010
0000
0100
0000
0000
0000
0000
,  // measure 9
0001
0000
0010
0000
1000
0000
0010
0000
0001
0100
0000
0010
0000
0000
0000
0000
,  // measure 10
1000
0000
0010
0000
0100
0000
0001
0000
0010
0001
0000
1000
0000
0000
0000
0000
,  // measure 11
0001
0000
0100
0000
0010
0000
1000
0010
0000
0000
0100
0010
0100
0000
0000
0000
,  // measure 12
0001
0000
0010
0000
1000
0000
0010
0000
0100
1000
0000
0001
0000
0000
0000
0000
,  // measure 13
0001
0000
0100
0000
1000
0000
0100
0000
0010
1000
0000
0001
0000
0000
1000
0000
,  // measure 14
0100
0010
0100
0001
0100
1000
0010
0100
,  // measure 15
0010
0001
0010
1000
0001
0000
1001
0000
,  // measure 16
1000
0000
0001
0100
0001
0000
1000
0010
0000
0000
1000
0000
0001
0000
1000
0100
,  // measure 17
1000
0000
0001
0010
0000
0000
0001
0000
1000
0000
0100
0010
0100
0000
1000
0001
,  // measure 18
0000
0000
0100
0000
0001
0000
1000
0000
0100
0010
0000
0100
1000
0000
0000
0000
,  // measure 19
0001
0000
1000
0000
0010
0000
0100
0010
0000
0000
0100
0001
0000
0000
0000
0000
,  // measure 20
1000
0000
0001
0000
0100
0000
0010
0000
1000
0010
0000
0100
0000
0000
0001
0000
,  // measure 21
1000
0000
0001
0000
0010
0000
0100
0010
0000
0000
0100
1000
0000
0000
0000
0000
,  // measure 22
0001
0000
1000
0000
0100
0010
0000
0100
0000
1000
0000
0010
0000
0000
0100
0000
,  // measure 23
0001
0000
1000
0000
0100
1000
0000
0001
0000
0000
1000
0010
0000
0000
0000
0000
,  // measure 24
0100
0000
0001
0000
0010
0000
1000
0000
0010
0100
0000
0010
0000
0000
0001
0000
,  // measure 25
1000
0000
0001
0000
0100
0001
0000
1000
0000
0000
0001
0010
0000
0000
0000
0000
,  // measure 26
0100
0000
1000
0000
0010
0000
0001
0000
0010
0100
0000
0010
0000
0000
1000
0000
,  // measure 27
1001
0000
0000
0110
0000
0000
1001
0000
0000
0000
1000
0000
1010
0000
0000
0000
,  // measure 28
1001
0000
0000
0110
0000
0000
1001
0000
0000
0000
0000
0000
0011
0000
0000
0000
,  // measure 29
0001
0100
0010
0100
1000
0100
0010
0100
,  // measure 30
0001
0010
1000
0010
0100
0010
0001
1000
,  // measure 31
0010
0001
0010
1000
0001
0100
1000
0100
,  // measure 32
0001
0010
0100
1000
0100
0010
0002
0000
,  // measure 33
1003
0100
0010
0100
0001
0100
0010
0100
,  // measure 34
1000
0010
0001
0010
0100
0010
2000
0000
,  // measure 35
3001
0000
0000
0101
0000
0000
0010
0000
1000
0000
0001
0000
0010
0000
0100
0000
,  // measure 36
1000
0000
0000
1010
0000
0000
0100
0000
0001
0000
1000
0001
0000
0000
0100
0000
,  // measure 37
0010
0000
1000
0100
1000
0000
0010
0000
0100
0000
0001
0000
1001
0000
0000
0000
,  // measure 38
1000
0000
0100
0010
0100
0000
1000
0000
0001
0000
0100
0000
0110
0000
0000
0000
,  // measure 39
0010
1000
0000
0010
0100
0000
0001
0000
1000
0000
0100
0000
0110
0000
0000
0000
,  // measure 40
0010
0000
0001
0100
0001
0000
1000
0000
0100
0000
0010
0000
0011
0000
0000
0000
,  // measure 41
0001
0100
0001
0100
0001
0000
1000
0000
0010
0000
0100
0000
0110
0000
0000
0000
,  // measure 42
0010
1000
0010
1000
0010
0000
1000
0000
0001
0010
0001
0000
1000
0000
0000
0000
,  // measure 43
0001
0000
0010
0001
0000
0010
0100
0000
0010
0000
0001
0000
1001
0000
0000
0000
,  // measure 44
1000
0000
0010
1000
0000
0010
0100
0000
0010
0000
1000
0000
1001
0000
0000
0000
,  // measure 45
0001
0000
0100
0000
0010
0000
1000
0010
0000
0000
1000
0000
0010
0000
0001
0000
,  // measure 46
0010
0000
0100
0000
0001
1000
0000
0001
0000
0000
1000
0000
0100
0000
0001
0000
,  // measure 47
1000
0000
0010
0000
0001
0000
0100
0001
0000
0000
0100
0000
0010
0000
1000
0000
,  // measure 48
0001
0000
0100
0000
0010
1000
0000
0010
0000
0000
1000
0000
0001
0000
0100
0000
,  // measure 49
0010
1000
0010
0100
0010
1000
0001
0010
,  // measure 50
0100
1000
0100
0010
0100
1000
0010
0100
,  // measure 51
0001
0010
0001
0100
0001
1000
0100
0010
,  // measure 52
0001
0100
1000
0010
1000
0100
0001
0100
,  // measure 53
0010
1000
0001
1000
0100
1000
0010
0100
,  // measure 54
0001
0010
0001
1000
0001
0100
0010
1000
,  // measure 55
0001
0100
1000
0001
1000
0100
0001
0010
,  // measure 56
0100
1000
0010
0001
0010
1000
0001
0100
,  // measure 57
0001
0000
0000
0010
0001
0000
0100
0000
0010
0000
0000
1000
0010
0000
0100
0000
,  // measure 58
0001
0000
0000
1000
0001
0000
0010
0000
0100
0000
0000
1000
0100
0000
0010
0000
,  // measure 59
0001
0000
0000
0001
0100
0000
0000
0100
0010
0000
0000
0010
1000
0000
0001
0000
,  // measure 60
0100
0000
0000
0010
0100
0000
0001
0000
1000
0000
0100
0000
0010
0000
0001
0000
,  // measure 61
1000
0000
0000
0010
1000
0000
0100
0000
0010
0000
0000
0001
0010
0000
0100
0000
,  // measure 62
1000
0000
0000
0001
1000
0000
0010
0000
0100
0000
0000
0001
0100
0000
0010
0000
,  // measure 63
1000
0000
0000
1000
0100
0000
0000
0100
0010
0000
0000
0010
0001
0000
1000
0100
,  // measure 64
1000
0000
0000
0010
0100
0000
0001
0000
1000
0000
0100
0000
0010
0000
0001
0000
,  // measure 65
1000
0000
0100
0000
0001
0000
0100
0000
1000
0010
0000
0010
0100
0000
0001
0000
,  // measure 66
1000
0000
0010
0000
0001
0000
0010
0000
1000
0100
0000
0100
0010
0000
0001
0000
,  // measure 67
0100
0000
1000
0000
0100
0000
0001
0000
0010
0100
0000
0100
1000
0000
0010
0000
,  // measure 68
0001
0000
0010
0000
1000
0000
0100
0000
0010
0001
0000
0001
1000
0000
0010
0000
,  // measure 69
0001
0000
0100
0000
1000
0000
0010
0000
0100
0001
0000
0001
0010
0000
0010
0100
,  // measure 70
0010
0000
0001
0000
0100
0000
1000
0000
0100
0001
0000
0001
1000
0000
1000
0010
,  // measure 71
1000
0000
0100
0000
0001
0000
0100
0000
1000
0001
0000
0001
0100
0000
0100
0010
,  // measure 72
0100
0000
0001
0000
1000
0000
0100
0000
0010
0001
0000
0001
1000
0000
0200
0000
,  // measure 73
0000
0000
0000
0300
,  // measure 74
0010
0000
0001
0000
0100
0010
0100
0010
0000
0000
1000
0000
1001
0000
0000
0000
;

//---------------dance-single - ----------------
#NOTEDATA:;
#CHARTNAME:;
#STEPSTYPE:dance-single;
#DESCRIPTION:;
#CHARTSTYLE:;
#DIFFICULTY:Hard;
#METER:8;
#RADARVALUES:0.472978,0.491694,0.102322,0.219261,0.200990,453.000000,439.000000,14.000000,30.000000,0.000000,0.000000,0.000000,0.000000,0.000000,0.472978,0.491694,0.102322,0.219261,0.200990,453.000000,439.000000,14.000000,30.000000,0.000000,0.000000,0.000000,0.000000,0.000000;
#CREDIT:;
#DISPLAYBPM:135.000000;
#NOTES:
// measure 0
0000
0000
0000
0000
,  // measure 1
0000
0000
0000
0000
,  // measure 2
0000
0000
0000
0000
,  // measure 3
0000
0000
0000
0000
,  // measure 4
1000
0000
0010
0000
0100
0000
0000
0001
0000
0000
0000
0000
0000
0000
0000
0000
,  // measure 5
0001
0001
0001
0000
1000
1000
1000
0000
,  // measure 6
0001
0000
0010
0000
0100
0000
0000
1000
0000
0000
0000
0000
0000
0000
0000
0000
,  // measure 7
1000
1000
0000
0001
0001
0001
0000
0000
,  // measure 8
1000
0000
0010
0000
0100
0000
0000
0000
0001
0000
0000
1000
0000
0000
0000
0000
,  // measure 9
0001
0000
0100
0000
0010
0000
0000
0000
1000
0000
0000
0001
0000
0000
0000
0000
,  // measure 10
1000
0000
0100
0000
0001
0000
0000
0000
0100
0000
0000
1000
0000
0000
0000
0000
,  // measure 11
0001
0000
0100
0000
1000
0000
0000
0100
0000
0000
0000
0000
0001
0000
0000
0000
,  // measure 12
1000
0000
0100
0000
0010
0000
0000
0000
0001
0100
0000
0001
0000
0000
0000
0000
,  // measure 13
1000
0000
0010
0000
0100
0000
0000
0000
0001
0010
0000
0001
0000
0000
1000
0000
,  // measure 14
0010
2000
0000
3200
0000
0320
0000
0032
,  // measure 15
0000
0103
0020
0000
1030
0000
1001
0000
,  // measure 16
0001
0000
0000
0010
0001
0000
2000
0000
0000
0000
3010
0000
1000
0000
0000
0010
,  // measure 17
1000
0000
0002
0000
0000
0000
0013
0000
0001
0000
0000
0100
0010
0000
2000
0000
,  // measure 18
0000
0000
3001
0000
1000
0000
0010
0000
0100
0000
0000
0001
1000
0000
0000
0000
,  // measure 19
1000
0000
0010
0000
0001
0000
0000
0010
0000
0000
0100
0010
0000
0000
0000
0000
,  // measure 20
1000
0000
0100
0000
0010
0000
0001
0000
1000
0000
0000
0010
0000
0000
0100
0000
,  // measure 21
0001
0000
0010
0000
1000
0000
0000
0010
0000
0000
0100
0010
0000
0000
0000
0000
,  // measure 22
0001
0000
0100
0000
0010
0000
0000
1000
0000
0001
0000
1000
0000
0000
0010
0000
,  // measure 23
1000
0000
0001
0000
0100
0000
0000
0010
0000
0000
1000
0010
0000
0000
0000
0000
,  // measure 24
1000
0000
0001
0000
0100
0000
0001
0000
1000
0000
0000
0100
0000
0000
0010
0000
,  // measure 25
0001
0000
1000
0000
0100
0000
0000
0010
0000
0000
0001
0010
0000
0000
0000
0000
,  // measure 26
0001
0000
1000
0000
0100
0000
1000
0000
0001
0000
0000
0100
0000
0000
0010
0000
,  // measure 27
1000
0000
0000
0001
0000
0000
1001
0000
0000
0000
1000
0000
0001
0000
0000
0000
,  // measure 28
0001
0000
0000
1000
0000
0000
1001
0000
0000
0000
0000
0000
1001
0000
0000
0000
,  // measure 29
0001
0010
1000
0010
0000
0001
0100
1000
,  // measure 30
0000
0100
0001
0010
0000
0001
0100
0010
,  // measure 31
1000
0010
0001
0010
0000
1000
0100
0001
,  // measure 32
0000
0100
1000
0010
0000
1000
0100
0010
,  // measure 33
0001
0100
0010
1000
0000
0001
0010
0100
,  // measure 34
0000
1000
0010
0100
0000
0001
0010
0100
,  // measure 35
1000
0000
0000
0010
0000
0000
0001
0000
0010
0000
1000
0000
0001
0000
0000
0000
,  // measure 36
1000
0000
0000
0100
0000
0000
0001
0000
0100
0000
1000
0000
0001
0000
0000
0000
,  // measure 37
1000
0100
0001
0100
1000
0010
0110
0000
,  // measure 38
0100
0001
1000
0100
1000
0001
1001
0000
,  // measure 39
1000
0100
0010
0001
1000
0010
1010
0000
,  // measure 40
1000
0100
0010
0100
1000
0001
0011
0000
,  // measure 41
0010
0001
0100
1000
0100
0010
1010
0000
,  // measure 42
1000
0100
0010
0100
1000
0001
0101
0000
,  // measure 43
0100
0000
0000
0010
0000
0000
1000
0000
0010
0000
0100
0000
0110
0000
0000
0000
,  // measure 44
0010
0000
0000
1000
0000
0000
0001
0000
0010
0000
0100
0000
1100
0000
0000
0000
,  // measure 45
1000
0000
0001
0000
0100
0000
0000
0010
0000
0000
1000
0000
1000
0000
1000
0000
,  // measure 46
0001
0000
0100
0000
0010
0000
0000
1000
0000
0000
0100
0000
0100
0000
0100
0000
,  // measure 47
1000
0000
0010
0000
0001
0000
0000
0010
0000
0000
0100
0000
0100
0000
0100
0000
,  // measure 48
0001
0000
1000
0000
0010
0000
0000
0100
0000
0000
0001
0000
1000
0000
0000
0000
,  // measure 49
0020
1000
0000
0100
0000
1030
0010
0100
,  // measure 50
0002
0010
0000
0100
0000
0013
0001
1000
,  // measure 51
0200
1000
0000
0010
0000
1300
0100
0010
,  // measure 52
0002
0100
0000
0010
0000
0103
0001
1000
,  // measure 53
0002
0010
0000
0100
0000
1003
0001
0100
,  // measure 54
0020
1000
0000
0100
0000
1030
0001
0010
,  // measure 55
0200
1000
0000
0010
0000
1300
0001
0100
,  // measure 56
0010
1000
0001
0100
0001
1000
0010
0000
,  // measure 57
2001
0000
3100
0010
0002
0000
0103
0010
,  // measure 58
2000
0000
3100
0001
0020
0000
1030
0100
,  // measure 59
0020
0001
0000
0100
0000
1000
0000
0100
,  // measure 60
0230
0000
1300
0001
0100
0010
2000
0000
,  // measure 61
3002
0000
0103
0010
2000
0000
3100
0010
,  // measure 62
0002
0000
0103
1000
0020
0000
0031
0100
,  // measure 63
0020
1000
0000
0100
0000
0001
0000
0100
,  // measure 64
0230
0000
0301
1000
0100
0010
0002
0000
,  // measure 65
1003
0000
0001
0000
0100
0000
0010
0000
1000
0001
0000
0010
0000
0000
0100
0000
,  // measure 66
0000
0000
1000
0000
0100
0000
0001
0000
0100
1000
0000
0001
0000
0000
0010
0000
,  // measure 67
0001
0000
1000
0000
0100
0000
0010
0000
0001
1000
0000
0010
0000
0000
0100
0000
,  // measure 68
0000
0000
0001
0000
0100
0000
1000
0000
0100
0001
0000
1000
0000
0000
0010
0000
,  // measure 69
0100
0000
0001
0000
1000
0000
0100
0000
0010
0001
0000
0010
0001
0000
1000
0000
,  // measure 70
0000
0000
0100
0000
1000
0000
0010
0000
1000
0100
0000
1000
0100
0000
0010
0000
,  // measure 71
0100
0000
1000
0000
0001
0000
0100
0000
0010
1000
0000
0010
1000
0000
0001
0000
,  // measure 72
0000
0000
0100
0000
0001
0000
0010
0000
0001
0100
0000
0001
0100
0000
0020
0000
,  // measure 73
0000
0000
0000
0030
,  // measure 74
1000
0000
0001
0000
0010
0000
0000
0100
0000
0000
1000
0000
1001
0000
0000
0000
;

//---------------dance-single - ----------------
#NOTEDATA:;
#CHARTNAME:;
#STEPSTYPE:dance-single;
#DESCRIPTION:;
#CHARTSTYLE:;
#DIFFICULTY:Medium;
#METER:5;
#RADARVALUES:0.317407,0.327796,0.102322,0.263114,0.091359,304.000000,290.000000,14.000000,36.000000,0.000000,0.000000,0.000000,0.000000,0.000000,0.317407,0.327796,0.102322,0.263114,0.091359,304.000000,290.000000,14.000000,36.000000,0.000000,0.000000,0.000000,0.000000,0.000000;
#CREDIT:;
#DISPLAYBPM:135.000000;
#NOTES:
// measure 0
0000
0000
0000
0000
,  // measure 1
0000
0000
0000
0000
,  // measure 2
0000
0000
0000
0000
,  // measure 3
0000
0000
0000
0000
,  // measure 4
1000
0000
0000
0000
1000
0000
0000
1000
0000
0000
0000
0000
0000
0000
0000
0000
,  // measure 5
0010
0000
0100
0000
,  // measure 6
0001
0000
0000
0000
0001
0000
0000
0001
0000
0000
0000
0000
0000
0000
0000
0000
,  // measure 7
0010
0000
0100
0000
,  // measure 8
1000
0000
0000
0000
0010
0000
0000
0000
0100
0000
0000
0001
0000
0000
0000
0000
,  // measure 9
1000
0000
0000
0000
0100
0000
0000
0000
0010
0000
0000
0001
0000
0000
0000
0000
,  // measure 10
0100
0000
0000
0000
0010
0000
0000
0000
1000
0000
0000
0001
0000
0000
0000
0000
,  // measure 11
0010
0000
0000
0000
0100
0000
0000
1000
0000
0000
0000
0000
1001
0000
0000
0000
,  // measure 12
0001
0000
0000
0000
0010
0000
0000
0000
0100
0000
0000
1000
0000
0000
0000
0000
,  // measure 13
0001
0000
0000
0000
0100
0000
0000
0000
0010
0000
0000
1000
0000
0000
0010
0000
,  // measure 14
0000
1000
0000
0100
0000
0010
0000
0001
,  // measure 15
0000
1000
0020
0000
0130
0000
1001
0000
,  // measure 16
1000
0000
0010
0100
0000
0001
1000
0000
,  // measure 17
0100
0010
0000
0001
1000
0000
0010
0100
,  // measure 18
0000
0000
0001
0000
0010
0000
0000
0000
0100
0000
0000
0010
0000
0000
0000
0000
,  // measure 19
0001
0000
0000
0000
1000
0000
0000
0010
0000
0000
0000
0000
1000
0000
0000
0000
,  // measure 20
0001
0000
0000
0000
0010
0000
0000
0000
0100
0000
0000
0010
0000
0000
0000
0000
,  // measure 21
0001
0000
0000
0000
0100
0000
0000
0010
0000
0000
0000
0000
1000
0000
0000
0000
,  // measure 22
0001
0000
0000
0000
0100
0000
0000
0010
0000
0000
0000
0010
0000
0000
0000
0000
,  // measure 23
1000
0000
0000
0000
0001
0000
0000
0010
0000
0000
0000
0000
0001
0000
0000
0000
,  // measure 24
1000
0000
0000
0000
0010
0000
0000
0000
0100
0000
0000
0010
0000
0000
0000
0000
,  // measure 25
1000
0000
0000
0000
0100
0000
0000
0010
0000
0000
0000
0000
0001
0000
0000
0000
,  // measure 26
1000
0000
0000
0000
0100
0000
0000
0000
0010
0000
0000
0001
0000
0000
0000
0000
,  // measure 27
1000
0000
0000
1000
0000
0000
1000
0000
0000
0000
1000
0000
0001
0000
0000
0000
,  // measure 28
0001
0000
0000
0001
0000
0000
0001
0000
0000
0000
0000
0000
0001
0000
0000
0000
,  // measure 29
1000
0010
0000
0100
0000
0001
0000
1000
,  // measure 30
0000
0100
0000
0010
0000
0001
1000
0000
,  // measure 31
0001
0010
0000
0100
0000
1000
0000
0001
,  // measure 32
0000
0100
0000
0010
0000
1000
0001
0000
,  // measure 33
1000
0001
0000
0100
0000
0010
0000
0100
,  // measure 34
0000
0001
0000
0010
0000
0100
1000
0000
,  // measure 35
0001
0000
1000
0010
0001
0000
0010
0000
,  // measure 36
1000
0000
0001
0010
1000
0000
0010
0000
,  // measure 37
0001
0000
1000
0000
0100
0010
0100
0000
,  // measure 38
1000
0000
0001
0000
0100
0100
0100
0000
,  // measure 39
0010
0000
1000
0000
0001
0010
0001
0000
,  // measure 40
1000
0000
0100
0000
0010
0010
0010
0000
,  // measure 41
0001
0000
0100
0000
0010
1000
0010
0000
,  // measure 42
1000
0000
0100
0000
1000
1000
1000
0000
,  // measure 43
0010
0000
0100
0000
0001
0010
0001
0000
,  // measure 44
0100
0000
0001
0000
0010
0010
0010
0000
,  // measure 45
0001
0000
0000
0000
1000
0000
0000
0010
0000
0000
0100
0000
0001
0000
0000
0000
,  // measure 46
1000
0000
0000
0000
0001
0000
0000
0010
0000
0000
0100
0000
1000
0000
0000
0000
,  // measure 47
0001
0000
0000
0000
0100
0000
0000
1000
0000
0000
0100
0000
0001
0000
0000
0000
,  // measure 48
1000
0000
0000
0000
0100
0000
0000
0010
0000
0000
0001
0000
1000
0000
0000
0000
,  // measure 49
0010
1000
0000
0010
0000
0100
0000
0001
,  // measure 50
0000
1000
0000
0100
0000
0010
0000
0001
,  // measure 51
0010
0001
0000
0010
0000
0100
0000
1000
,  // measure 52
0000
0001
0000
0100
0000
0010
0000
1000
,  // measure 53
0001
1000
0000
0100
0000
0001
0000
0010
,  // measure 54
0000
1000
0000
0001
0000
0100
0000
0001
,  // measure 55
1000
0001
0000
0100
0000
1000
0000
0010
,  // measure 56
0000
0001
0000
1000
0000
0100
1000
0000
,  // measure 57
2002
3003
2200
3300
,  // measure 58
0022
0033
0220
0330
,  // measure 59
2002
0000
0000
3003
,  // measure 60
2020
3030
0200
0301
,  // measure 61
2002
3003
0202
0303
,  // measure 62
2020
3030
0220
0330
,  // measure 63
2002
0000
0000
3003
,  // measure 64
0022
0033
0200
1300
,  // measure 65
2000
0010
3002
0010
,  // measure 66
1003
0000
0100
0000
0010
0001
0010
0000
,  // measure 67
0002
0100
2003
0100
,  // measure 68
3001
0000
0010
0000
0100
1000
0100
0000
,  // measure 69
2000
0010
3002
0100
,  // measure 70
1003
0000
0010
0000
0100
0001
0100
0000
,  // measure 71
0002
0100
2003
0010
,  // measure 72
3001
0000
0100
0000
0010
1000
0010
2000
,  // measure 73
0000
0000
0000
3000
,  // measure 74
0001
0000
0000
0000
1000
0000
0000
0001
0000
0000
0100
0000
0010
0000
0000
0000
;

//---------------dance-single - ----------------
#NOTEDATA:;
#CHARTNAME:;
#STEPSTYPE:dance-single;
#DESCRIPTION:;
#CHARTSTYLE:;
#DIFFICULTY:Easy;
#METER:3;
#RADARVALUES:0.231791,0.273163,0.029235,0.124248,0.000000,222.000000,218.000000,4.000000,17.000000,0.000000,0.000000,0.000000,0.000000,0.000000,0.231791,0.273163,0.029235,0.124248,0.000000,222.000000,218.000000,4.000000,17.000000,0.000000,0.000000,0.000000,0.000000,0.000000;
#CREDIT:;
#DISPLAYBPM:135.000000;
#NOTES:
// measure 0
0000
0000
0000
0000
,  // measure 1
0000
0000
0000
0000
,  // measure 2
0000
0000
0000
0000
,  // measure 3
0000
0000
0000
0000
,  // measure 4
1000
1000
1000
0000
,  // measure 5
0000
0000
0000
0000
,  // measure 6
0001
0001
0001
0000
,  // measure 7
0000
0000
0000
0000
,  // measure 8
1000
0010
0100
0000
,  // measure 9
0100
0010
1000
0000
,  // measure 10
0001
0010
0100
0000
,  // measure 11
0100
0010
0001
1000
,  // measure 12
0001
0010
0100
0000
,  // measure 13
1000
0010
0100
0000
,  // measure 14
0001
0100
0010
1000
,  // measure 15
0100
0010
0001
1001
,  // measure 16
1000
0000
0001
1000
,  // measure 17
0000
0001
1000
0000
,  // measure 18
0001
1000
0000
0000
,  // measure 19
0001
0100
1000
0000
,  // measure 20
0100
0001
0010
0000
,  // measure 21
0100
1000
0001
0000
,  // measure 22
0100
0001
1000
0001
,  // measure 23
1000
0100
0001
0000
,  // measure 24
0100
1000
0010
0000
,  // measure 25
0100
0001
1000
0000
,  // measure 26
0100
1000
0001
1000
,  // measure 27
2000
0000
0000
3000
,  // measure 28
0002
0000
0000
0003
,  // measure 29
0001
0010
1000
0000
,  // measure 30
1000
0100
0001
0000
,  // measure 31
1000
0010
0001
0000
,  // measure 32
0001
0100
1000
0000
,  // measure 33
1000
0010
0100
0000
,  // measure 34
0001
0010
0100
0000
,  // measure 35
1000
0010
0001
0000
,  // measure 36
1000
0100
0001
0000
,  // measure 37
1000
0100
0010
0010
,  // measure 38
0001
0100
0010
0010
,  // measure 39
1000
0100
0001
0001
,  // measure 40
0100
1000
0010
0010
,  // measure 41
1000
0010
0001
0010
,  // measure 42
1000
0001
0010
0100
,  // measure 43
1000
0001
0010
1000
,  // measure 44
0010
0001
0100
0010
,  // measure 45
1000
0100
0001
0000
,  // measure 46
0001
0100
1000
0000
,  // measure 47
0001
0010
0100
0000
,  // measure 48
0100
0010
0001
1000
,  // measure 49
0001
0100
0010
0100
,  // measure 50
0001
0010
0001
1000
,  // measure 51
0010
1000
0010
0100
,  // measure 52
0010
1000
0001
1000
,  // measure 53
0100
1000
0100
0010
,  // measure 54
0100
1000
0001
1000
,  // measure 55
0010
0100
0010
1000
,  // measure 56
0001
1000
0001
0010
,  // measure 57
0002
0003
0200
0300
,  // measure 58
0020
0030
2000
3000
,  // measure 59
2002
0000
0000
3003
,  // measure 60
0002
0003
0100
0010
,  // measure 61
2000
3000
0200
0300
,  // measure 62
0020
0030
0002
0003
,  // measure 63
2002
0000
0000
3003
,  // measure 64
2000
3000
0100
0010
,  // measure 65
0001
0100
1000
0100
,  // measure 66
0000
0001
0010
0100
,  // measure 67
1000
0010
0001
0010
,  // measure 68
0000
1000
0100
0010
,  // measure 69
0001
1000
0100
0010
,  // measure 70
0000
0100
1000
0001
,  // measure 71
1000
0001
0100
0010
,  // measure 72
0000
0100
0001
1000
,  // measure 73
2000
0000
0000
3000
,  // measure 74
0001
1000
0001
1001
;

//---------------dance-single - ----------------
#NOTEDATA:;
#CHARTNAME:;
#STEPSTYPE:dance-single;
#DESCRIPTION:;
#CHARTSTYLE:;
#DIFFICULTY:Beginner;
#METER:1;
#RADARVALUES:0.114851,0.163898,0.014617,0.029235,0.000000,110.000000,108.000000,2.000000,4.000000,0.000000,0.000000,0.000000,0.000000,0.000000,0.114851,0.163898,0.014617,0.029235,0.000000,110.000000,108.000000,2.000000,4.000000,0.000000,0.000000,0.000000,0.000000,0.000000;
#CREDIT:;
#DISPLAYBPM:135.000000;
#NOTES:
// measure 0
0000
0000
0000
0000
,  // measure 1
0000
0000
0000
0000
,  // measure 2
0000
0000
0000
0000
,  // measure 3
0000
0000
0000
0000
,  // measure 4
1000
0000
0000
0000
,  // measure 5
0000
0000
0000
0000
,  // measure 6
0001
0000
0000
0000
,  // measure 7
0000
0000
0000
0000
,  // measure 8
1000
0000
0010
0000
,  // measure 9
0001
0000
0000
0000
,  // measure 10
0001
0000
0010
0000
,  // measure 11
1000
0000
0000
0000
,  // measure 12
1000
0000
0100
0000
,  // measure 13
0001
0000
0000
0000
,  // measure 14
0001
0000
0100
0000
,  // measure 15
1000
0000
0000
0000
,  // measure 16
1000
0000
1000
0000
,  // measure 17
0000
1000
0000
0000
,  // measure 18
1000
0000
0000
0000
,  // measure 19
0000
0000
0000
0000
,  // measure 20
1000
0000
0010
0000
,  // measure 21
0001
0000
0000
0000
,  // measure 22
0001
0000
0010
0000
,  // measure 23
1000
0000
0000
0000
,  // measure 24
0001
0000
0010
0000
,  // measure 25
1000
0000
0000
0000
,  // measure 26
1000
0000
0010
0000
,  // measure 27
0001
0000
0000
0000
,  // measure 28
0000
0000
0000
0000
,  // measure 29
0000
0000
0000
0000
,  // measure 30
0001
0000
0100
0000
,  // measure 31
1000
0000
0000
0000
,  // measure 32
1000
0000
0100
0000
,  // measure 33
0001
0000
0000
0000
,  // measure 34
0001
0000
0010
0000
,  // measure 35
0001
0000
0001
0000
,  // measure 36
1000
0000
1000
0000
,  // measure 37
1000
0000
1000
0000
,  // measure 38
0010
0000
0010
0000
,  // measure 39
0100
0000
0100
0000
,  // measure 40
0001
0000
0001
0000
,  // measure 41
0010
0000
0010
0000
,  // measure 42
0100
0000
0100
0000
,  // measure 43
1000
0000
1000
0000
,  // measure 44
0001
0000
0001
0000
,  // measure 45
1000
0000
0000
0000
,  // measure 46
0010
0000
0000
0000
,  // measure 47
0001
0000
0000
0000
,  // measure 48
0010
0000
0000
0000
,  // measure 49
1000
0000
0100
0000
,  // measure 50
0010
0000
0100
0000
,  // measure 51
1000
0000
0010
0000
,  // measure 52
0100
0000
0001
0000
,  // measure 53
0001
0000
0010
0000
,  // measure 54
0100
0000
0010
0000
,  // measure 55
0001
0000
0100
0000
,  // measure 56
0010
0000
1000
0000
,  // measure 57
1000
0000
1000
0000
,  // measure 58
1000
0000
1000
0000
,  // measure 59
2002
0000
3003
0000
,  // measure 60
0001
0000
0001
0000
,  // measure 61
0001
0000
0001
0000
,  // measure 62
0001
0000
0001
0000
,  // measure 63
2002
0000
3003
0000
,  // measure 64
1000
0000
1000
0000
,  // measure 65
1000
0000
0010
0000
,  // measure 66
0100
0000
0000
0000
,  // measure 67
0100
0000
0010
0000
,  // measure 68
1000
0000
0000
0000
,  // measure 69
0001
0000
0010
0000
,  // measure 70
0100
0000
0000
0000
,  // measure 71
0100
0000
0010
0000
,  // measure 72
0001
0000
0000
0000
,  // measure 73
0001
0000
0000
0000
,  // measure 74
1000
0000
1000
1000
;
