#VERSION:0.83;
#TITLE:エル•タンゴ•エゴイスタ;
#SUBTITLE:;
#ARTIST:O.B.N.N;
#TITLETRANSLIT:El Tango Egoista;
#SUBTITLETRANSLIT:;
#ARTISTTRANSLIT:;
#GENRE:;
#ORIGIN:;
#CREDIT:;
#BANNER:[VIP Room Round 1] - El Tango Egoista.png;
#BACKGROUND:[VIP Room Round 1] - El Tango Egoista-bg.jpg;
#PREVIEWVID:;
#JACKET:[VIP Room Round 1] - El Tango Egoista-jacket.png;
#CDIMAGE:;
#DISCIMAGE:;
#LYRICSPATH:;
#CDTITLE:;
#MUSIC:[VIP Room Round 1] - El Tango Egoista.ogg;
#OFFSET:-0.811227;
#SAMPLESTART:57.989990;
#SAMPLELENGTH:12.885910;
#SELECTABLE:YES;
#BPMS:0.000=149.003,
174.000=74.501,
181.000=149.003;
#STOPS:;
#DELAYS:;
#WARPS:;
#TIMESIGNATURES:0.000=4=4;
#TICKCOUNTS:0.000=4;
#COMBOS:0.000=1;
#SPEEDS:0.000=1.000=0.000=0;
#SCROLLS:0.000=1.000;
#FAKES:;
#LABELS:0.000=Song Start;
#BGCHANGES:16.000=[VIP Room Round 1] - El Tango Egoista.avi=1.000=1=0=0=StretchNoLoop==CrossFade==,
99999=-nosongbg-=1.000=0=0=0 // don't automatically add -songbackground-
;
#KEYSOUNDS:;
#ATTACKS:
;

//---------------dance-single - ----------------
#NOTEDATA:;
#CHARTNAME:;
#STEPSTYPE:dance-single;
#DESCRIPTION:;
#CHARTSTYLE:;
#DIFFICULTY:Hard;
#METER:10;
#RADARVALUES:0.648644,1.100998,0.327038,0.441122,0.349855,597.000000,554.000000,43.000000,58.000000,0.000000,0.000000,0.000000,0.000000,0.000000,0.648644,1.100998,0.327038,0.441122,0.349855,597.000000,554.000000,43.000000,58.000000,0.000000,0.000000,0.000000,0.000000,0.000000;
#CREDIT:;
#NOTES:
0000
0000
0000
0000
,
0000
0000
0000
0000
,
0000
0000
0000
0000
,
0000
0000
0000
0000
,
0001
0000
0100
0000
0010
0000
1000
0000
0001
1000
0001
0000
0010
0000
0011
0000
,
0001
0000
1001
0000
0001
0000
0100
0000
0010
1000
0010
1000
0010
0000
0000
0000
,
1000
0000
0100
0000
0010
0000
0001
0000
1000
0001
1000
0000
0010
0000
1010
0000
,
1000
0000
0001
1000
0001
0000
0010
0000
0100
1000
0001
0000
0200
0000
0000
0000
,
0310
0000
1000
0000
0001
0000
1000
0000
0001
0010
0001
0000
0010
0000
0110
0000
,
0100
0000
1100
0000
1000
0000
0001
0000
0100
0001
0100
0001
0100
0000
0000
0000
,
0001
0000
0100
0000
0010
0000
0010
0000
1000
0000
1000
0000
0001
1000
0001
1000
,
0001
0000
0000
0000
1000
0000
0000
0000
2002
0000
0000
0000
3003
0000
0001
0010
,
0100
0000
0100
0000
1000
0000
0100
0000
2000
0000
0000
0000
3000
0000
0010
0100
,
0001
0000
0001
0000
0100
0000
0001
0000
0200
0000
0000
0000
0300
0000
0010
1000
,
0001
0001
1000
0001
0010
0010
0001
0010
,
0100
0000
0100
0000
1000
0000
1000
0000
0002
0000
0000
0000
0003
0000
1000
0001
,
0200
0000
0000
0000
0310
0000
0000
0000
0220
0000
0000
0000
0330
0000
0010
1000
,
0100
0010
0220
0330
,
0011
0000
0001
0000
1000
0000
1001
0000
1000
0000
0010
0000
,
1010
0000
0000
0000
0220
0000
0000
0000
0330
0000
0010
0000
0010
0000
0100
0001
,
1000
0100
0010
0100
0001
0100
0100
0100
,
1000
0010
0100
0010
0001
0010
0010
0010
,
1000
0010
0100
0001
1000
0100
0010
0001
,
1000
0000
1000
0010
0000
0010
0200
0000
0000
0000
0001
0000
0001
0000
0301
0000
,
0100
0101
0001
0100
0010
0010
1000
1000
,
0100
1100
1000
0001
1000
1000
0010
0010
,
1000
0010
0100
0001
1000
0100
0020
0000
0000
0032
0000
0000
,
0013
0000
0000
0011
0000
0000
0001
0000
0000
1001
0000
0000
1010
0000
0000
0010
0100
0010
0100
0000
0000
0002
0000
0000
,
0000
0103
0010
1000
0001
2002
0000
3003
,
0002
0003
0000
0000
0200
0300
0000
0000
0020
0030
0000
0000
0200
0300
0000
0000
,
2000
3000
0000
0000
0200
0300
0000
0000
0010
0000
1010
0000
1000
0000
1001
0000
,
0001
0001
0100
0010
0010
1000
0100
0100
,
0010
0001
0001
0010
0100
0100
1000
1000
,
0001
0001
0100
0000
0010
0000
1010
1000
,
0001
0000
0011
0001
1000
0000
1010
1000
,
0200
0000
0000
0000
0320
0000
0000
0000
0031
0010
0001
0000
1000
0100
1000
0000
,
0001
0100
0001
0000
1000
0010
1000
0000
0001
0010
0001
0000
1000
0000
1000
0000
,
0001
0100
0010
1000
0001
0000
0000
0000
0010
0100
1000
0000
0010
0100
0001
0000
,
0100
0010
1000
0000
0100
0010
0001
0000
1000
0000
0100
0000
0001
0000
0100
0000
,
0010
0000
0010
0000
0010
0000
0000
0000
0001
1000
0001
0000
0100
0010
0100
0000
,
0001
1000
0001
0000
0010
0100
0010
0000
0100
0000
0010
0000
0001
0000
1000
0000
,
0020
0000
0000
0000
0130
0010
0100
0010
0100
0000
0000
0000
0000
0000
0010
1000
,
0001
0000
0001
0000
0000
0000
1000
0001
0010
0000
0000
0000
0100
0000
0000
0000
,
2002
0000
0000
0000
0000
0000
0000
0000
3003
0000
0000
0000
1000
0000
0001
0000
1000
0000
0100
0000
0010
0000
0100
0000
0001
0000
0100
1000
0100
0000
1000
0000
,
0001
0000
0100
0000
0010
0000
0100
0000
1000
0000
0100
0010
0100
0001
0100
0010
1000
0000
1000
0000
0010
0000
1000
0000
0001
0000
0001
0000
1000
0000
0001
0000
,
0010
0010
0100
0100
1000
0000
1100
0000
0000
0000
1000
0000
2020
0000
0000
0000
,
3030
0202
0303
0011
,
1100
0000
0200
0000
0320
0000
0031
0010
,
0001
1000
0020
0000
0130
0000
0220
0000
,
0330
0000
0100
0000
0100
0000
0001
0000
0001
0000
1000
0000
2000
3000
0000
0000
,
0200
0300
0000
0000
0020
0030
0000
0000
0200
0300
0000
0000
0002
0003
0000
0000
,
0200
0300
0000
0000
0010
0000
0110
0000
0001
0000
1001
0000
1000
0000
1000
0000
,
0010
0100
0100
0001
0010
0010
0100
1000
,
1000
0001
0100
0100
0010
0010
1000
1000
,
0001
0000
0010
0000
1100
1000
0001
0000
,
0101
0001
1000
0000
1100
1000
0001
0000
,
0101
0001
1000
0000
1010
1000
0001
0000
,
0011
0001
1000
0000
1010
1000
0002
0000
,
0023
0000
0000
0130
0010
0100
1000
0001
1000
0010
0100
0001
,
0100
0000
0000
0000
0010
0000
0000
0000
1000
0000
0000
0000
0002
0000
0000
0000
0000
0000
0000
0000
0000
0000
0000
0000
0023
0000
0000
0000
0000
0000
0000
0000
0000
0000
0000
0000
1030
0000
0000
0010
0000
0000
0100
0000
0000
0010
0000
0000
,
0001
0000
0000
0000
1000
0010
1000
0000
0001
0100
0001
0000
1000
0100
1000
0000
,
0001
0010
0001
0000
1000
0000
0010
0000
0001
0000
0010
0000
1000
0000
0001
1000
,
0001
0000
0000
0000
0010
0100
1000
0000
0010
0100
0001
0000
1000
0100
0010
0000
,
0001
0100
0010
0000
1000
0000
0100
0000
0001
0000
0100
0000
0020
0000
0000
0000
,
0031
0100
0010
1000
0002
0000
0000
0000
1003
0000
1000
0000
0100
0000
0010
0000
,
0010
0001
0100
0100
0010
1000
0001
0001
,
1000
1000
0200
0000
0320
0000
0032
0000
,
2003
3020
0230
0300
,
0110
0010
1000
0000
0010
1000
0001
0001
,
0010
0100
1000
0001
0100
0100
0010
0010
,
1000
0010
1000
0001
1000
1000
0100
0100
,
0010
0001
1000
0001
0100
0100
0010
0010
,
0100
0010
1000
0001
0010
0010
0100
0100
,
0010
0000
0001
0000
1000
0000
0010
0000
0100
0000
0001
0000
1000
0100
0010
0001
,
1000
0000
0000
0000
0000
0000
0001
1000
0010
0000
0100
0000
0000
0000
0100
0001
,
0010
0011
1001
1010
,
0010
0100
0001
1000
,
0200
0000
0000
0000
,
0000
0300
0000
0000
;

//---------------dance-single - ----------------
#NOTEDATA:;
#CHARTNAME:;
#STEPSTYPE:dance-single;
#DESCRIPTION:;
#CHARTSTYLE:;
#DIFFICULTY:Medium;
#METER:8;
#RADARVALUES:0.431343,0.565377,0.296616,0.570416,0.064647,397.000000,358.000000,39.000000,75.000000,0.000000,0.000000,0.000000,0.000000,0.000000,0.431343,0.565377,0.296616,0.570416,0.064647,397.000000,358.000000,39.000000,75.000000,0.000000,0.000000,0.000000,0.000000,0.000000;
#CREDIT:;
#NOTES:
0000
0000
0000
0000
,
0000
0000
0000
0000
,
0000
0000
0000
0000
,
0000
0000
0000
0000
,
1000
0100
0010
0001
,
1000
0000
0010
0000
0100
0001
0100
0010
,
1000
0100
0010
0100
1000
0000
0001
0000
,
1000
0000
0010
0000
0100
0010
1000
0001
,
0010
0100
1000
0001
,
0100
0000
0010
0000
1000
0010
0100
0001
,
1000
0100
1000
0001
,
0100
0000
0010
0000
0220
0000
0330
0010
,
1000
0000
0100
0000
2200
0000
3300
0100
,
0010
0000
0001
0000
0202
0000
0303
0001
,
0200
0000
0310
0100
0020
0000
1030
0010
,
2000
0000
3001
0000
2002
0000
3003
0001
,
0010
0000
0100
0000
0200
0000
0300
1000
,
0010
0100
0200
0300
,
0010
0000
0010
0000
0010
0000
1000
0000
1000
0000
1000
0000
,
0001
0000
2002
0000
0000
0000
3003
1000
,
0100
0000
0010
0000
0001
0010
0100
1000
,
0001
0000
0100
0000
0010
1000
0010
0100
,
0001
0100
0001
0000
1000
0001
1000
0000
,
1100
0000
0000
0110
0000
0000
0012
0000
0000
0000
1000
0000
1003
0000
0000
0000
,
0001
1000
0000
1000
0100
0000
1100
0000
,
1000
0001
0000
0001
0100
0000
0101
0000
,
0100
0000
0100
0010
0000
0010
1000
0000
0000
0001
0000
0000
,
2002
0000
0000
0000
0000
0000
3003
2000
,
0000
3100
0010
0001
1000
0020
0000
0130
,
0100
0010
1000
0001
,
0010
0000
0100
0000
0010
0001
1000
0001
,
0100
0000
0100
0010
0000
0010
1000
0000
,
1000
0001
0000
0001
0010
0000
0100
0000
,
1000
0001
0000
2001
,
0000
0001
0000
3001
,
1000
0000
0010
0000
1010
1000
0001
0000
,
0011
0001
1000
0000
1010
1000
0001
0000
,
1000
0001
1001
0000
0101
0100
0010
0000
,
1100
0100
0010
0000
0002
0000
0023
0000
,
0230
2300
3002
0003
0011
0001
1000
0000
,
1010
1000
0001
0000
1000
0100
0001
1000
,
0020
0000
0031
0100
0020
0000
0030
1000
,
0002
0000
0003
0010
0200
0000
2300
0000
,
3002
0000
0000
0000
0003
0000
0000
0000
1000
0000
0001
0000
0200
0000
0300
0001
,
0100
0000
0010
0000
2000
0000
3000
0010
2000
0000
3001
1000
0002
0000
0013
0001
,
0020
0000
0230
0000
1300
0000
0001
0000
0000
0000
0001
0000
0100
0000
0000
0101
,
0000
0000
0010
0000
1000
0000
0000
1010
0000
0000
1000
0000
0001
0000
0000
0000
,
1001
0002
0023
0230
,
2300
3002
0203
0320
,
0030
1000
0010
1000
0001
1000
0100
0000
,
0100
0010
0010
0001
,
0001
0000
0010
0100
1000
0001
0100
0000
,
0100
0010
0000
0010
1000
0000
1000
0100
,
0000
0100
0010
0000
0110
0000
0001
0000
,
1001
0000
0000
0000
0001
0100
0010
0000
,
1000
0100
0010
0000
0001
0100
0010
0000
,
1000
0100
0010
0000
0001
0010
0100
0000
,
1000
0010
0100
0000
0001
0010
0200
0000
,
2300
0000
0000
3001
0000
0001
0100
0000
0100
0010
0000
0010
,
1000
0000
0000
0000
1000
0000
0002
0000
0000
0000
0000
0000
0023
0000
0000
0000
0000
0000
1030
0000
0000
0010
0000
0000
,
0001
0000
0010
0100
0110
0000
1000
0010
,
0110
0000
0200
0000
0320
0000
1030
0001
,
0010
0000
0011
0001
1000
0000
1010
1000
,
0001
0000
1000
0100
0010
0010
0002
0000
,
1003
0001
0200
0000
0310
0020
0000
1000
,
2030
0000
0001
3002
0000
0010
0023
0000
,
0230
2300
3200
0320
,
0032
2003
3020
0030
,
0220
0000
0000
0000
,
0000
0000
0330
0100
0001
0000
1000
0000
,
2200
0000
3300
1000
0100
0000
0010
0000
,
0022
0000
0033
0010
0001
0000
1000
0000
,
2002
0000
3003
0001
0100
0000
0010
0000
,
0220
0000
0000
0000
0330
0000
0010
0100
,
0110
0000
0000
0001
1001
0000
0000
1000
,
1100
0110
0011
0000
,
0010
0100
1000
0001
,
0200
0000
0000
0000
,
0000
0300
0000
0000
;

//---------------dance-single - ----------------
#NOTEDATA:;
#CHARTNAME:;
#STEPSTYPE:dance-single;
#DESCRIPTION:;
#CHARTSTYLE:;
#DIFFICULTY:Easy;
#METER:5;
#RADARVALUES:0.265108,0.344531,0.114083,0.182533,0.000000,244.000000,229.000000,15.000000,24.000000,0.000000,0.000000,0.000000,0.000000,0.000000,0.265108,0.344531,0.114083,0.182533,0.000000,244.000000,229.000000,15.000000,24.000000,0.000000,0.000000,0.000000,0.000000,0.000000;
#CREDIT:;
#NOTES:
0000
0000
0000
0000
,
0000
0000
0000
0000
,
0000
0000
0000
0000
,
0000
0000
0000
0000
,
0001
0010
0001
0010
,
0001
1000
0001
1000
,
0010
1000
0010
1000
,
0020
0130
0200
0301
,
1000
0100
1000
0100
,
1000
0001
1000
0001
,
0100
0010
1000
0001
,
1001
1001
1001
0000
,
1000
0100
0010
0000
,
0001
0100
0010
0000
,
1000
1000
0001
0001
,
1000
0001
1000
0000
,
0001
0100
1000
0000
,
1000
0100
0001
0000
,
1000
0100
0001
0100
,
1000
2002
3003
0000
,
0001
0100
0010
0010
,
0100
0010
1000
1000
,
0100
0100
0010
0010
,
0001
0001
0002
0003
,
1000
1000
2000
3000
,
0010
0010
0020
0030
,
0200
0300
0002
0003
,
2000
0000
0000
3000
,
0000
0000
0000
0000
,
0100
0100
0100
0100
,
0100
0100
0100
0100
,
0010
0010
0010
0010
,
0010
0010
0001
0001
,
1000
1000
0000
2002
,
0000
0000
0000
3003
,
0001
1000
0010
0010
,
1000
1000
0010
0010
,
1000
0001
0010
0010
,
0001
0001
0010
0100
,
1000
1001
0001
0001
,
0100
0100
0001
0100
,
0010
1000
0001
0000
,
0010
0000
0100
0010
,
0100
0000
0000
0000
1000
1000
1000
0000
,
0001
0001
0001
0000
0100
0000
0010
0000
,
1000
0100
0010
0000
0000
0000
0001
0000
,
0000
1000
0000
2002
,
3003
0001
0010
0100
,
1000
0001
1000
1001
,
0000
0001
0001
0100
,
0100
0100
0100
0100
,
0100
0100
0100
0010
,
0010
0010
0010
0010
,
0010
1000
1000
0001
,
0001
0000
0220
0000
,
0000
0000
0000
0000
,
0000
0330
2002
0000
,
0000
0000
3003
0001
,
0010
0100
0010
0001
,
1000
0010
0100
0010
,
0010
1000
1010
0001
,
0011
0000
0010
0100
,
1000
0001
0101
1000
,
1100
0100
0010
0001
,
1000
0000
0010
0000
0000
0100
0000
0000
,
0001
0000
0000
1000
0000
0000
0100
0000
,
0010
0001
0001
1000
,
1000
0010
0010
0000
,
0220
0000
0000
0000
,
0000
0330
1000
0010
,
0002
0000
1003
0100
,
0002
0000
1003
0100
,
0002
0000
1003
0010
,
0002
0000
0000
0013
,
0010
0000
0100
0000
,
1000
0001
1000
0000
;

//---------------dance-single - ----------------
#NOTEDATA:;
#CHARTNAME:;
#STEPSTYPE:dance-single;
#DESCRIPTION:;
#CHARTSTYLE:;
#DIFFICULTY:Beginner;
#METER:3;
#RADARVALUES:0.135813,0.200977,0.022817,0.000000,0.000000,125.000000,122.000000,3.000000,0.000000,0.000000,0.000000,0.000000,0.000000,0.000000,0.135813,0.200977,0.022817,0.000000,0.000000,125.000000,122.000000,3.000000,0.000000,0.000000,0.000000,0.000000,0.000000,0.000000;
#CREDIT:;
#NOTES:
// measure 0
0000
0000
0000
0000
,  // measure 1
0000
0000
0000
0000
,  // measure 2
0000
0000
0000
0000
,  // measure 3
0000
0000
0000
0000
,  // measure 4
1000
0000
0000
0000
,  // measure 5
0010
0000
0000
0000
,  // measure 6
0100
0000
0000
0000
,  // measure 7
0000
0001
0001
0000
,  // measure 8
1000
0000
0000
0000
,  // measure 9
0100
0000
0000
0000
,  // measure 10
0010
0000
0010
0000
,  // measure 11
0010
0010
0010
0000
,  // measure 12
0001
0000
0000
0000
,  // measure 13
0001
0000
0000
0000
,  // measure 14
0001
0000
0001
0000
,  // measure 15
0001
0000
0000
0000
,  // measure 16
0100
0000
0000
0000
,  // measure 17
0100
0000
0000
0000
,  // measure 18
0100
0000
0100
0000
,  // measure 19
0100
0000
0000
0000
,  // measure 20
0010
0000
0010
0000
,  // measure 21
1000
0000
1000
0000
,  // measure 22
0001
0000
0001
0000
,  // measure 23
0001
0000
0000
0000
,  // measure 24
0010
0000
0000
0000
,  // measure 25
0100
0000
0000
0000
,  // measure 26
1000
0000
0001
0000
,  // measure 27
1000
0000
0000
0000
,  // measure 28
0000
0000
0000
0000
,  // measure 29
0100
0000
0100
0000
,  // measure 30
0100
0000
0100
0000
,  // measure 31
0010
0000
0010
0000
,  // measure 32
0010
0000
0010
0010
,  // measure 33
0010
0010
0000
0110
,  // measure 34
0000
0000
0000
0000
,  // measure 35
0000
0000
0001
0000
,  // measure 36
0100
0000
0001
0000
,  // measure 37
0100
0100
0001
0000
,  // measure 38
1000
0000
0001
0001
,  // measure 39
0001
0000
1000
0000
,  // measure 40
0100
0000
1000
1000
,  // measure 41
1000
0000
1000
0000
,  // measure 42
0100
0000
0010
0010
,  // measure 43
0010
0000
0001
0000
,  // measure 44
0100
0000
0010
1000
,  // measure 45
0001
0000
0000
1000
,  // measure 46
0000
0000
0000
0001
,  // measure 47
0000
0000
0000
0010
,  // measure 48
0000
0100
0000
0010
,  // measure 49
0000
0001
0001
0001
,  // measure 50
0000
0100
0000
0100
,  // measure 51
0000
0100
0000
0010
,  // measure 52
0000
0010
0000
0010
,  // measure 53
0000
1000
1000
1000
,  // measure 54
1000
0000
0001
0000
,  // measure 55
0000
0000
0001
0000
,  // measure 56
0000
0000
1001
0000
,  // measure 57
0000
0000
1001
0000
,  // measure 58
0000
0000
0000
0000
,  // measure 59
0000
1000
0000
0100
,  // measure 60
0000
0010
0000
0010
,  // measure 61
0000
0001
0001
0001
,  // measure 62
0000
0100
0000
0010
,  // measure 63
0000
1000
1000
1000
,  // measure 64
0000
1000
0000
0000
,  // measure 65
0000
0001
0000
0000
,  // measure 66
0000
0010
0000
0100
,  // measure 67
0100
0100
0100
0000
,  // measure 68
1000
0000
0000
0000
,  // measure 69
0000
0000
0010
0000
,  // measure 70
0010
0000
0000
0000
,  // measure 71
0000
0000
0100
0000
,  // measure 72
0100
0000
0000
0000
,  // measure 73
0000
0000
0000
0001
,  // measure 74
0001
0000
0000
0000
,  // measure 75
1000
1000
1000
0000
;
