#TITLE:便意;
#SUBTITLE:;
#ARTIST:テリヤキパンツバーガー;
#TITLETRANSLIT:Call of Nature;
#SUBTITLETRANSLIT:;
#ARTISTTRANSLIT:TERIYAKI PANTS BURGER;
#GENRE:;
#CREDIT:Telperion;
#BANNER:[VIP Room Round 1] - Call of Nature.png;
#BACKGROUND:[VIP Room Round 1] - Call of Nature-bg.png;
#LYRICSPATH:;
#CDTITLE:;
#MUSIC:[VIP Room Round 1] - Call of Nature.ogg;
#OFFSET:-0.219000;
#SAMPLESTART:22.433001;
#SAMPLELENGTH:18.462000;
#SELECTABLE:YES;
#DISPLAYBPM:130.000000:170.000000;
#BPMS:0.000000=130.000000
,108.000000=132.000000
,112.000000=140.000000
,116.000000=145.000000
,120.000000=150.000000
,124.000000=155.000000
,128.000000=157.000000
,132.000000=160.000000
,136.000000=170.000000
;
#STOPS:
;
#BGCHANGES:140.000=[VIP Room Round 1] - Call of Nature-bg.png=0.100=0=0=1====#FFFBFB=,
140.188=[VIP Room Round 1] - Call of Nature-bg.png=0.100=0=0=1====#FFF6F6=,
140.375=[VIP Room Round 1] - Call of Nature-bg.png=0.100=0=0=1====#FFF2F2=,
140.563=[VIP Room Round 1] - Call of Nature-bg.png=0.100=0=0=1====#FFEEEE=,
140.750=[VIP Room Round 1] - Call of Nature-bg.png=0.100=0=0=1====#FFEAE5=,
140.938=[VIP Room Round 1] - Call of Nature-bg.png=0.100=0=0=1====#FFE5DD=,
141.125=[VIP Room Round 1] - Call of Nature-bg.png=0.100=0=0=1====#FFE1D4=,
141.313=[VIP Room Round 1] - Call of Nature-bg.png=0.100=0=0=1====#FFDDCC=,
141.500=[VIP Room Round 1] - Call of Nature-bg.png=0.100=0=0=1====#FFD9C3=,
142.000=[VIP Room Round 1] - Call of Nature-bg.png=0.100=0=0=1====#FFD4BB=,
142.333=[VIP Room Round 1] - Call of Nature-bg.png=0.100=0=0=1====#FFD0B2=,
142.667=[VIP Room Round 1] - Call of Nature-bg.png=0.100=0=0=1====#FFCCAA=,
143.000=[VIP Room Round 1] - Call of Nature-bg.png=0.100=0=0=1====#FFC8A1=,
143.250=[VIP Room Round 1] - Call of Nature-bg.png=0.100=0=0=1====#FFC399=,
143.500=[VIP Room Round 1] - Call of Nature-bg.png=0.100=0=0=1====#FFBF90=,
143.750=[VIP Room Round 1] - Call of Nature-bg.png=0.100=0=0=1====#FFBB88=,
144.000=[VIP Room Round 1] - Call of Nature-bg.png=0.100=0=0=1====#FFB77F=,
145.000=[VIP Room Round 1] - Call of Nature-bg.png=0.100=0=0=1====#FFB277=,
146.000=[VIP Room Round 1] - Call of Nature-bg.png=0.100=0=0=1====#FFAE6E=,
147.000=[VIP Room Round 1] - Call of Nature-bg.png=0.100=0=0=1====#FFAA66=,
148.000=[VIP Room Round 1] - Call of Nature-bg.png=0.100=0=0=1====#FFA65D=,
148.188=[VIP Room Round 1] - Call of Nature-bg.png=0.100=0=0=1====#FFA155=,
148.375=[VIP Room Round 1] - Call of Nature-bg.png=0.100=0=0=1====#FF9D4C=,
148.563=[VIP Room Round 1] - Call of Nature-bg.png=0.100=0=0=1====#FF9944=,
148.750=[VIP Room Round 1] - Call of Nature-bg.png=0.100=0=0=1====#FF943B=,
148.938=[VIP Room Round 1] - Call of Nature-bg.png=0.100=0=0=1====#FF9033=,
149.125=[VIP Room Round 1] - Call of Nature-bg.png=0.100=0=0=1====#FF8C2A=,
149.313=[VIP Room Round 1] - Call of Nature-bg.png=0.100=0=0=1====#FF8822=,
149.500=[VIP Room Round 1] - Call of Nature-bg.png=0.100=0=0=1====#FF8319=,
149.750=[VIP Room Round 1] - Call of Nature-bg.png=0.100=0=0=1====#FF7F11=,
150.000=[VIP Room Round 1] - Call of Nature-bg.png=0.100=0=0=1====#FF7B08=,
150.250=[VIP Room Round 1] - Call of Nature-bg.png=0.100=0=0=1====#FF7700=,
150.500=[VIP Room Round 1] - Call of Nature-bg.png=0.100=0=0=1====#FF6E00=,
151.000=[VIP Room Round 1] - Call of Nature-bg.png=0.100=0=0=1====#FF6600=,
152.000=[VIP Room Round 1] - Call of Nature-bg.png=0.100=0=0=1====#FF5D00=,
152.500=[VIP Room Round 1] - Call of Nature-bg.png=0.100=0=0=1====#FF5500=,
153.000=[VIP Room Round 1] - Call of Nature-bg.png=0.100=0=0=1====#FF4C00=,
153.500=[VIP Room Round 1] - Call of Nature-bg.png=0.100=0=0=1====#FF4400=,
154.000=[VIP Room Round 1] - Call of Nature-bg.png=0.100=0=0=1====#FF3B00=,
154.500=[VIP Room Round 1] - Call of Nature-bg.png=0.100=0=0=1====#FF3300=,
155.000=[VIP Room Round 1] - Call of Nature-bg.png=0.100=0=0=1====#FF2A00=,
155.500=[VIP Room Round 1] - Call of Nature-bg.png=0.100=0=0=1====#FF2200=,
156.000=[VIP Room Round 1] - Call of Nature-bg.png=0.100=0=0=1====#FF0000=,
351.900=[VIP Room Round 1] - Call of Nature-bg.png=0.100=0=0=1====#FF3311=,
351.920=[VIP Room Round 1] - Call of Nature-bg.png=0.100=0=0=1====#FF6622=,
351.940=[VIP Room Round 1] - Call of Nature-bg.png=0.100=0=0=1====#FF9944=,
351.960=[VIP Room Round 1] - Call of Nature-bg.png=0.100=0=0=1====#FFCC88=,
352.000=[VIP Room Round 1] - Call of Nature-bg.png=0.100=0=0=1====#FFFFFF=,
99999=-nosongbg-=1.000=0=0=0 // don't automatically add -songbackground-
;
#KEYSOUNDS:;
#ATTACKS:;

//---------------dance-single - ----------------
#NOTES:
     dance-single:
     :
     Challenge:
     11:
     0.748932,0.896013,0.212625,0.245847,0.903654,789.000000,757.000000,32.000000,37.000000,0.000000,1.000000,0.748932,0.896013,0.212625,0.245847,0.903654,789.000000,757.000000,32.000000,37.000000,0.000000,1.000000:
// measure 0
0000
0000
0000
0000
,  // measure 1
0000
0000
0000
0000
,  // measure 2
0000
0000
0000
0000
,  // measure 3
0000
0000
0000
0000
0000
0000
0000
0000
0000
0000
1000
0000
0001
1000
0100
0000
,  // measure 4
0012
0000
0000
0000
1000
0000
0000
0000
0100
0000
0000
0000
1003
0000
0010
1000
,  // measure 5
0001
0100
0000
0001
0100
0000
0001
1000
0000
0100
1000
0100
0010
0100
1000
0000
,  // measure 6
0001
0000
0000
0100
0000
0000
0010
0000
0000
1000
0010
0000
0100
0000
0001
0000
,  // measure 7
1000
0000
0000
0100
0000
0000
0010
0000
0000
0010
0001
0000
1000
0010
0000
0000
,  // measure 8
0100
0000
0000
0000
0000
0000
0000
0000
0000
0010
0000
0000
0000
0000
0000
0000
0000
0000
1000
0000
0001
0000
1000
0000
0010
0000
0000
0000
0000
0000
0100
0000
0000
0000
0000
0000
0001
0000
0000
0000
0000
0000
0010
0000
0100
0000
1000
0000
,  // measure 9
0100
0000
0000
0010
0000
0000
0001
0000
0000
0001
1000
0000
0010
0000
0100
0000
,  // measure 10
0001
0000
0000
1000
0000
0000
1000
0000
0000
0010
1000
0000
0001
0000
0010
0000
,  // measure 11
1000
0000
0000
0010
0000
0000
0001
0000
0000
1000
0001
0000
0100
0000
0001
0100
,  // measure 12
0010
0000
0000
1000
0010
0000
0100
0000
0000
0001
0100
0000
0010
0000
1000
0001
,  // measure 13
0010
0000
0000
0100
0010
0000
0001
0000
0000
1000
0001
0000
0010
0000
0100
0000
,  // measure 14
1000
0000
0000
1000
0001
0000
0100
0000
0000
0000
0110
0000
1010
0000
2002
0000
,  // measure 15
0000
0000
3003
0000
0021
0000
0000
0000
0130
0010
0100
1000
0001
0000
0100
0001
,  // measure 16
0100
0000
0000
0010
1000
0000
0010
0000
0000
0000
0010
0000
0100
0001
0000
0000
,  // measure 17
0010
0000
0000
0100
1000
0000
0001
0100
1000
0000
0100
0000
0010
0000
1000
0000
,  // measure 18
0001
0000
0000
0010
0100
0000
1000
0000
0000
0100
0010
0000
0001
0000
1000
0000
,  // measure 19
1010
0000
0000
0010
0100
0000
0001
0000
0000
1000
0001
0000
0010
0000
0100
0010
,  // measure 20
0001
0000
0000
1000
0010
0000
1000
0000
0000
0001
0100
0000
0001
0000
0010
0100
,  // measure 21
1000
0000
0001
0100
0000
0100
0010
1000
0010
0100
0001
0000
1000
0100
1000
0001
,  // measure 22
0010
0000
0000
0011
0000
0000
1000
0000
0000
0010
1000
0000
0001
0000
0100
0000
,  // measure 23
0010
0000
0000
0000
0000
0000
0000
0000
0000
1000
0000
0000
0000
0000
0000
0000
0000
0000
0001
0000
1000
0000
0100
0000
0010
0000
0000
0000
0000
0000
0100
0000
0000
0000
0000
0000
1000
0000
0000
0000
0000
0000
0001
0000
0000
0000
0000
0000
,  // measure 24
0101
0000
0000
1000
0000
0000
0001
0000
0000
0000
0010
0000
1000
0000
0010
0000
,  // measure 25
0001
0000
0000
1000
0100
0000
1000
0000
0001
0000
0100
0000
0001
0000
0100
0010
,  // measure 26
1000
0000
0001
0010
0100
1000
0000
0100
0000
1000
0000
0100
1000
0000
0001
0000
,  // measure 27
0102
0000
0000
0000
1003
0000
1000
0100
0000
0100
0010
0000
0001
0000
0200
0000
,  // measure 28
0301
0000
1000
0010
0100
0001
0000
0100
0000
0001
0000
0100
0001
0000
1000
0000
,  // measure 29
1002
0000
0000
0100
0003
0000
0001
0010
0000
0010
0100
0000
1000
0000
0001
0000
,  // measure 30
0101
0000
0000
0100
0010
0000
1000
0000
0000
0010
0100
0000
0001
0000
1000
0100
,  // measure 31
1000
0000
0000
0001
0010
0000
0001
0000
0000
1000
0100
0000
1000
0000
0001
0100
,  // measure 32
0010
0000
0000
1000
0010
0000
1000
0000
0000
0001
0100
0000
0001
0000
1000
0100
,  // measure 33
0010
0000
0000
0001
1000
0001
0000
0010
0000
0001
0000
1000
0000
0000
0010
0000
,  // measure 34
0200
0000
0000
0000
0000
0000
0000
0000
0000
0000
0000
0000
0000
0000
0000
0000
0000
0000
0000
0000
0000
0000
0000
0000
0000
0000
0000
0000
0000
0000
0000
0000
0000
0000
0000
0000
0000
0000
0000
0000
0000
0000
0000
0000
0000
0000
0000
0300
,  // measure 35
1001
0000
0000
1100
0000
0000
1001
0000
0000
0000
0000
0000
0002
0000
0000
0000
,  // measure 36
1100
0000
0000
0003
,  // measure 37
1001
0000
0000
0101
0000
0000
1001
0000
0000
0000
1000
0000
0000
0000
0000
0100
,  // measure 38
2000
0001
0100
3001
,  // measure 39
0110
0000
0000
1000
0001
1000
0010
0000
0000
0100
0001
0100
0010
0000
1000
0001
,  // measure 40
0010
0000
0000
0001
1000
0001
0010
0000
0000
0100
1000
0100
0010
0000
0000
0000
,  // measure 41
0011
0000
0000
1000
0001
0100
0001
0000
0000
1000
0100
0010
0100
0000
1000
0001
,  // measure 42
0100
0000
0000
0010
1000
0010
0100
0000
0000
0101
0000
0000
1001
0000
0000
0000
,  // measure 43
0110
0000
0000
0001
1000
0001
0010
0000
0100
1000
0100
0000
1000
0001
1000
0100
,  // measure 44
0010
0000
0000
0001
1000
0001
0100
0000
0010
1000
0010
0000
0100
0001
0100
0010
,  // measure 45
1000
0000
0001
0010
0001
1000
0100
0000
1000
0001
0100
0001
1000
0010
0100
0001
,  // measure 46
0010
0000
0000
0000
0000
0000
0000
0000
0100
0000
0000
0000
0000
0000
0000
0000
1000
0000
0000
0000
0000
0000
0000
0000
0001
0100
0000
0000
0000
0000
0000
0000
0010
0000
0000
0000
0000
0000
0000
0000
1000
0000
0000
0000
0000
0000
0000
0000
,  // measure 47
0002
0000
0000
0100
0000
0000
1003
0010
0001
1000
0100
0010
,  // measure 48
2000
0010
3004
0000
,  // measure 49
0023
0000
0000
0000
0000
0000
0000
0000
0000
0000
0000
0000
0100
0000
0000
0000
0030
0000
0000
0000
0010
0000
0000
0000
2000
0000
0000
0000
0000
0000
0000
0000
0000
0000
0000
0000
3010
0000
0000
0000
0000
0000
0100
0000
0000
1000
0000
0000
,  // measure 50
0001
0000
0001
0100
0010
0000
0000
0000
4000
0000
0000
0000
0000
0000
0000
0000
,  // measure 51
3001
0010
0100
0002
0000
0000
0003
1000
0010
0002
0000
0000
,  // measure 52
0003
1000
0010
0002
0000
0000
0013
0000
0000
2000
0000
0000
,  // measure 53
3001
0010
0100
1000
0001
0100
0010
0100
0001
1000
0100
0010
,  // measure 54
0002
0000
0000
0000
1000
0000
0000
0000
0103
0000
0001
1000
0100
1000
0001
0100
,  // measure 55
0010
0000
0000
1010
0000
0000
0210
0000
0000
0000
0000
0000
0010
0000
0000
0000
,  // measure 56
0302
0100
4003
0000
,  // measure 57
3200
1000
0320
0100
,  // measure 58
0032
1003
0004
0000
,  // measure 59
0103
0010
0100
1000
0100
0010
1000
0001
0010
0100
0001
0100
,  // measure 60
1000
1000
0001
0100
0010
0100
0001
0001
1000
0100
0010
0100
,  // measure 61
1000
0000
0001
0100
0010
0000
0100
0001
1000
0000
0100
0010
0001
0000
0010
0100
,  // measure 62
2000
3002
0203
0320
,  // measure 63
1030
0001
1000
0001
0100
0000
0010
0000
1000
0000
0000
0000
0001
0010
0001
0010
,  // measure 64
0100
0000
1000
0000
0010
0000
0000
0000
0100
0001
0100
0001
0100
0010
1000
0000
,  // measure 65
0001
1000
0001
1000
0100
0000
0010
0000
0001
0000
0000
0000
1000
0010
1000
0010
,  // measure 66
0100
0000
0001
0000
1000
0000
0000
0000
0100
1000
0100
1000
0001
0010
0001
0000
,  // measure 67
1000
0010
1000
0010
0100
0000
0001
1000
0100
0000
1000
0001
0010
0001
0010
0001
,  // measure 68
1000
0000
0010
0100
0010
0000
1000
0001
0100
0000
0010
0000
1000
0010
1000
0000
,  // measure 69
0001
0010
0001
0010
0100
0000
1000
0001
0100
0000
0010
1000
0001
1000
0001
1000
,  // measure 70
0010
0000
0100
0001
1000
0000
0100
1000
0100
0010
0001
1000
0100
0010
0001
1000
,  // measure 71
0010
0000
0100
0000
0001
0000
1000
0010
1000
0000
0001
0000
0100
0001
1000
0000
,  // measure 72
0100
1000
0100
0000
0010
0000
0001
1000
0001
0000
0010
0000
0100
1000
0001
0000
,  // measure 73
0100
0010
0100
0000
0001
0000
1000
0010
1000
0000
0001
0000
0100
0010
1000
0000
,  // measure 74
0001
1000
0001
0000
0010
0000
0100
1000
0100
0000
0010
0000
0001
1000
0001
1000
,  // measure 75
0010
0000
0100
0000
0001
0000
1000
0001
1000
0000
0010
0000
0100
0001
1000
0000
,  // measure 76
0100
0000
0000
0000
0010
0000
0000
0000
0001
0000
0000
0000
1000
0000
0000
0000
0000
0000
0100
0000
0000
1000
0000
0000
0100
0000
0000
0000
0000
0000
0010
0000
0000
0000
0000
0000
0001
0000
0000
1000
0000
0000
0001
0000
0000
0000
0000
0000
,  // measure 77
0200
0000
0000
0000
0310
1000
0010
1000
0001
0100
0001
0100
0010
1000
0001
0010
,  // measure 78
0200
0320
0032
2003
,  // measure 79
3010
0000
0100
0001
0100
0000
0001
0100
0001
0000
1000
0100
0010
0000
0001
0010
,  // measure 80
0100
1000
0000
0001
1000
0000
0100
1000
0001
1000
0100
0000
1000
0000
0001
0100
,  // measure 81
0010
0000
0100
0001
1000
0001
0100
0000
0010
0100
0000
0001
0100
0000
0010
1000
,  // measure 82
0001
0000
0010
0001
0010
0000
0100
1000
0100
0010
0000
0000
0001
0000
1000
0010
,  // measure 83
0100
0001
0100
2010
0000
3100
0010
0012
,  // measure 84
0000
0000
0000
0000
0000
0000
1003
0000
0000
0000
0000
0000
0001
0000
0000
0000
0000
0000
0220
0000
0000
0000
0000
0000
0000
0000
0000
0000
0000
0330
0001
0000
0000
0000
0000
0000
1000
0000
0000
0000
0000
0000
0010
0000
0000
0000
0000
0000
,  // measure 85
0100
0000
0001
1000
0001
0000
0100
0001
0100
0000
0001
1000
0001
0000
0100
0010
,  // measure 86
1000
0001
0010
0100
0000
0010
0001
1000
0010
0000
0100
0001
1000
0100
1000
0001
,  // measure 87
0011
0000
0000
0110
0000
0000
0011
0000
1001
1000
0000
0010
1000
0000
0010
0100
,  // measure 88
0001
1000
0001
1000
0100
0000
0010
0000
0001
0000
1000
0000
0100
0000
1000
0000
,  // measure 89
0001
0000
0000
0001
0100
0001
1000
0000
0040
0000
0000
0000
0000
0000
0000
0000
,  // measure 90
0000
0000
0000
0000
,  // measure 91
0000
0000
0000
0000
,  // measure 92
0030
0000
0000
0000
0000
0000
0000
0000
0000
0000
0000
0000
0000
0000
0001
1000
,  // measure 93
0100
0000
0000
0000
;

//---------------dance-single - ----------------
#NOTES:
     dance-single:
     :
     Hard:
     8:
     0.474608,0.556146,0.305648,0.332226,0.308970,500.000000,454.000000,46.000000,50.000000,4.000000,0.000000,0.474608,0.556146,0.305648,0.332226,0.308970,500.000000,454.000000,46.000000,50.000000,4.000000,0.000000:
0000
0000
0000
0000
,
0000
0000
0000
0000
,
0000
0000
0000
0000
,
0000
0000
0000
0000
,
2000
0010
0000
0010
,
3001
0000
0000
1000
0000
0000
0001
0000
0000
0000
0010
0000
0100
0000
1000
0000
,
0001
0000
0000
0100
0000
0000
0010
0000
0000
0000
0010
0000
1000
0000
0001
0000
,
1000
0000
0000
0100
0000
0000
0010
0000
0000
0000
0001
0000
0000
0010
0000
0000
,
1000
0000
0000
0010
0000
0000
0001
0000
1000
0000
0010
0000
0100
0000
0010
0000
,
1000
0000
0000
0001
0000
0000
0010
0000
0000
0000
0100
0000
0010
0000
0100
0000
,
1000
0000
0000
0001
0000
0000
0100
0000
0000
0000
0100
0000
0010
0000
1000
0000
,
0001
0000
0000
0010
0000
0000
0100
0000
0000
0000
1000
0000
0001
0000
1000
0100
,
1000
0000
0000
0001
0000
0000
0100
0000
0000
0000
0010
0000
0100
0000
0001
0000
,
1000
0000
0000
0010
0000
0000
0001
0000
0000
0010
0000
0000
1000
0000
0001
0000
,
0010
0000
0000
0100
0000
0000
1000
0000
0000
0000
0001
0000
0100
0000
0220
0000
,
0000
0330
2000
0000
3020
0000
0130
0001
,
0101
0000
0000
0100
0000
0000
0010
0000
0000
0000
0001
0000
0000
0010
0000
0000
,
1000
0000
0000
0001
0000
0000
0010
0000
0000
0000
0000
0000
0100
0000
1000
0000
,
1100
0000
0000
0100
0000
0000
0010
0000
0000
0000
1000
0000
0010
0000
0001
0000
,
1000
0000
0000
0010
0000
0000
0100
0000
0000
0001
0000
0000
1000
0000
0000
0000
,
0001
0000
0000
0100
0000
0000
0001
0000
0000
0100
0000
0000
0001
0000
1000
0000
,
0100
0000
0000
0010
0000
0000
0110
0000
0000
0000
0000
0000
0000
0000
0000
0000
,
0001
0000
0000
0010
0000
0000
0100
0000
0000
0000
0100
0000
1000
0000
0001
0000
,
0100
0000
0000
0010
0000
0000
1000
0000
0010
0000
0100
0000
0001
0000
1000
0000
,
0001
0000
0000
0010
0000
0000
0100
0000
0000
0000
0010
0000
1000
0000
0010
0000
,
0001
0000
0000
1000
0000
0000
0010
0000
0100
0000
0010
0000
1000
0000
0001
0000
,
0010
0000
0100
0000
0000
1000
0000
0001
0000
1000
0000
0001
0000
0000
0100
0000
,
0020
0000
0000
2030
0000
0000
3000
1000
,
0100
0000
0010
0000
0000
0001
0000
1000
0000
0001
0000
1000
0000
0000
0010
0000
,
0200
0000
0000
0302
0000
1003
0001
1000
,
0100
0000
0000
0010
0000
0000
0001
0000
0000
0000
0001
0000
0000
0000
1000
0000
,
0010
0000
0000
0100
0000
0000
0100
0000
0000
0001
0000
0000
1000
0000
0100
0000
,
0010
0000
0000
0100
0000
0000
0100
0000
0000
1000
0000
0000
0001
0000
0100
0000
,
0010
1000
0001
0010
,
0200
0000
0000
0000
0000
0000
0000
0000
0000
0000
0000
0000
0000
0000
0000
0000
0000
0000
0000
0000
0000
0000
0000
0000
0000
0000
0000
0000
0000
0000
0000
0000
0000
0000
0000
0000
0000
0000
0000
0000
0000
0000
0000
0000
0000
0000
0000
0300
,
1001
0000
0000
1100
0000
0000
1001
0000
0000
0000
0000
0000
0200
0000
0000
0000
,
0010
0000
0000
0300
,
1001
0000
0000
0101
0000
0000
1001
0000
0000
0000
1000
0000
0000
0000
0000
0000
,
0110
0001
1000
0100
,
0020
0000
0000
0001
0000
0000
0100
0000
,
1000
0000
0000
0100
0000
0000
0031
0000
,
2000
0000
0000
0001
0000
0000
0010
0000
,
3001
0000
1002
0000
0000
0010
0000
0000
,
1003
0100
0010
0001
1000
0100
1000
0001
,
0100
0010
1000
0001
0100
0010
0100
0001
,
1000
0100
0010
0001
0010
0100
1000
0001
,
0100
0000
0010
0000
1000
0000
0001
0000
0010
0000
0100
0000
,
2000
0000
0000
0001
0000
0000
3100
0000
0100
0010
0000
0010
,
0002
1000
0043
0000
,
0230
0000
0000
0000
0000
0000
0000
0000
0000
0000
0000
0000
0010
0000
0000
0000
0300
0000
0000
0000
0100
0000
0000
0000
1000
0000
0000
0000
0000
0000
0000
0000
0000
0000
0000
0000
0001
0000
0000
0000
0000
0000
0000
0000
0000
1000
0000
0000
,
0010
0000
0000
0010
0200
0000
0000
0000
0304
0000
0000
0000
0000
0000
0000
0000
,
1003
0100
1000
0002
0000
0000
0003
0100
0001
2000
0000
0000
,
3000
0100
1000
0002
0000
0000
0010
0000
0000
0100
0000
0000
,
1003
0000
1000
0010
0000
0010
0100
0000
0100
0001
0000
0001
,
0020
1000
0100
0031
,
0011
0000
0000
1000
0000
0000
0002
0000
0000
0000
0000
0000
0103
0000
0000
0000
,
0120
0000
0130
0010
,
2020
0030
0002
3003
,
0022
0030
2000
3003
,
0001
1000
0001
0010
0000
0010
0100
0000
0100
1000
0000
1000
,
0001
0000
0001
0100
0000
0100
0010
0000
0000
1000
0000
1000
,
0001
0000
0001
0010
0000
0010
0100
0000
0100
1000
0000
1000
,
0002
0203
0320
1030
,
1010
0000
0000
0001
0000
0000
1000
0000
0000
0000
0000
0000
0011
0000
0000
0001
,
0000
1000
0000
0000
1010
0000
0110
0000
,
0101
0000
0000
1000
0000
0000
0001
0000
0000
0000
0000
0000
1100
0000
0000
1000
,
0000
0001
0000
0000
0011
0000
0110
0000
,
1100
0000
0000
0001
0000
0000
1000
0000
0000
0000
0000
0000
0101
0000
0000
0001
,
0000
1000
0000
0000
1100
0000
0110
0000
,
0011
0000
0000
1000
0000
0000
0001
0000
0000
0000
0000
0000
1010
0000
0000
0001
,
2000
3200
0320
0032
,
1003
0100
0010
0100
0001
0000
1000
0010
,
0100
0010
0001
1000
0010
0000
0100
0001
,
1000
0010
0100
0010
0001
0000
1000
0100
,
0010
0100
0001
1000
0100
0000
0010
0001
,
1001
0000
1000
0010
0100
0000
0001
0100
,
0010
0000
1000
0000
0010
0000
0100
0000
0000
0000
0000
0000
0001
0000
0000
1000
0000
0000
0100
0000
0000
0010
0000
0000
,
0001
0000
0000
0000
0000
0000
0010
0000
0000
0100
0000
0000
1000
0000
0000
0001
0000
0000
1000
0000
0100
0000
0010
0000
,
0002
0203
0320
2030
,
3001
0000
0101
0000
1000
0001
0100
0000
,
0110
0000
0000
0000
0101
0000
0000
0000
1100
0000
0000
0100
0010
0000
0001
0000
,
0011
0000
1100
0000
0001
1000
0100
0010
,
1000
0000
0000
0010
0000
0000
0001
0000
2000
0000
0000
0000
3010
0000
0000
0000
,
0001
0100
0001
0021
0000
0130
1000
0020
,
0000
0130
0001
2001
0000
3100
0010
0001
,
1000
0000
1000
0100
1100
0000
1000
0000
,
1001
0000
0000
0001
0100
0000
0001
0000
1000
0000
0000
0000
1001
0000
0000
0000
,
1100
0000
0000
0110
0000
0000
0001
0000
0022
0000
0000
0000
0033
0000
0000
0000
,
1000
0000
0010
1000
0010
0000
0100
0000
0002
0000
0000
0000
0010
0000
0000
0000
,
1003
0000
0000
1000
0001
0000
0010
0000
0220
0000
0000
0000
0000
0000
0000
0000
,
0000
0000
0000
0000
,
0000
0000
0000
0000
,
0330
0000
0000
0000
0000
0000
0000
0000
0000
0000
0000
0000
0000
0000
0000
0000
0000
0000
0000
0000
0000
M000
0M00
00M0
,
000M
0000
0000
0000
;

//---------------dance-single - ----------------
#NOTES:
     dance-single:
     :
     Medium:
     6:
     0.317038,0.432558,0.066445,0.365449,0.096346,334.000000,324.000000,10.000000,55.000000,3.000000,0.000000,0.317038,0.432558,0.066445,0.365449,0.096346,334.000000,324.000000,10.000000,55.000000,3.000000,0.000000:
0000
0000
0000
0000
,
0000
0000
0000
0000
,
0000
0000
0000
0000
,
0000
0000
0000
0000
,
0000
0000
0000
0000
,
0000
0000
0000
0000
,
1000
0000
0000
0001
0000
0000
1000
0000
0000
0000
0000
0000
0010
0000
0100
0000
,
0001
0000
0000
1000
0000
0000
0001
0000
0000
0000
0010
0000
0000
0100
0000
0000
,
1000
0000
0010
0001
,
0100
0000
1000
0001
,
0100
0000
0000
0001
0000
0000
0100
0000
0000
0000
0000
0000
0010
0000
1000
0000
,
0100
0000
0000
0010
0000
0000
0100
0000
0000
0000
0000
0000
1000
0000
0100
0000
,
0010
0000
0000
0001
0000
0000
1000
0000
0000
0000
0000
0000
0010
0000
0100
0000
,
0010
0000
0000
1000
0000
0000
0001
0000
0000
0000
0000
0000
0010
0000
0001
0000
,
1000
0000
0000
0100
0000
0000
1000
0000
0000
0000
0001
0000
0100
0000
0020
0000
,
0000
1030
0010
0100
,
0001
0000
0000
1000
0000
0000
0100
0000
0000
0000
0010
0000
0000
0100
0000
0000
,
1000
0000
0000
0001
0000
0000
0100
0000
0000
0000
0000
0000
0010
0000
0000
0000
,
1000
0000
0000
0001
0000
0000
0010
0000
0000
0000
0000
0000
0100
0000
0010
0000
,
0001
0000
0000
1000
0000
0000
0010
0000
0000
0000
0000
0000
0010
0000
0000
0000
,
0100
0000
0000
0010
0000
0000
0100
0000
0000
0000
0000
0000
0001
0000
1000
0000
,
0001
0000
0000
0010
0000
0000
0100
0000
0000
0000
2000
0000
0000
0000
0000
0000
,
3001
0000
0000
1000
0000
0000
0010
0000
0000
0000
1000
0000
0100
0000
0000
0000
,
0010
0000
0000
0001
0000
0000
1000
0000
0000
0000
0001
0000
0100
0000
0000
0000
,
0010
0000
0000
0100
0000
0000
0001
0000
0000
0000
1000
0000
0100
0000
0000
0000
,
0010
0000
0000
0100
0000
0000
1000
0000
0001
0000
0000
0000
0100
0000
0000
0000
,
0010
0010
0010
0010
,
2002
0000
0003
3200
0000
0000
0300
0000
,
0010
0010
0010
0010
,
2002
0000
3000
0203
0000
0310
1000
0000
,
0001
0010
1000
0100
,
1000
0010
0001
0100
,
0010
1000
0100
0001
,
0010
0001
0100
1000
,
0020
0000
0000
0000
0000
0000
0000
0000
0000
0000
0000
0000
0000
0000
0000
0000
0000
0000
0000
0000
0000
0000
0000
0000
0000
0000
0000
0000
0000
0000
0000
0000
0000
0000
0000
0000
0000
0000
0000
0000
0000
0000
0000
0000
0000
0000
0000
0030
,
1001
0000
0000
1000
0000
0000
1001
0000
0000
0000
0000
0000
0020
0000
0000
0000
,
0100
0000
0000
0030
,
1001
0000
0000
0001
0000
0000
1001
0000
0000
0000
1000
0000
0000
0000
0000
0000
,
0100
1000
0001
0100
,
0020
0000
0000
0000
,
0000
0000
0000
0000
,
0000
0000
0000
0000
,
0030
2002
0000
3003
,
1000
0000
0000
0100
0000
0000
1000
0000
,
0001
0000
0000
0100
0000
0000
0001
0000
,
1000
0000
0000
0100
0000
0000
0010
0000
,
0001
0000
1000
0000
0001
0000
1000
0000
0001
0000
1000
0000
,
0020
0000
0230
0010
,
0302
0000
1003
0001
,
2000
0000
3200
0000
,
0320
0000
0031
1000
,
0002
0100
0003
2100
,
0000
3010
0000
0012
,
1003
0010
0100
0001
,
2000
3200
0320
0032
,
1003
0000
0000
1000
0000
0000
1000
0000
0000
0000
0000
0000
0001
0000
0000
0000
,
0100
0000
0200
0320
,
2030
0000
0001
0000
,
3200
0000
0320
0000
,
0031
0010
0100
0010
,
1000
0010
0100
1000
,
0010
0100
0010
1000
,
0002
0203
0320
2030
,
3001
0000
0010
0001
0010
0000
0001
0000
,
0010
0001
0010
0000
0100
0000
1000
0000
,
0010
0000
1000
0010
1000
0000
0010
0000
,
1000
0010
1000
0000
0001
0000
0010
0000
,
0100
0000
1000
0100
1000
0000
0100
0000
,
1000
0100
1000
0000
0100
0000
0010
0000
,
0001
0000
0010
0001
0010
0000
0001
0000
,
2000
3200
0320
0032
,
2003
0000
3020
0000
,
0230
0010
0302
0100
,
2003
0000
3200
1000
,
0320
0000
0031
1000
,
1002
0000
0000
0000
0203
0000
0300
0010
,
1000
0000
0010
0000
0100
0001
0100
0001
,
1000
1000
0100
0010
,
0002
0203
0320
2030
,
3001
0000
0100
0001
0100
0000
0010
0000
,
1000
0010
0100
0001
,
1000
0000
0100
1000
0100
0000
0010
0000
,
0001
0010
0100
1000
,
0001
0100
0001
1000
0000
0100
1000
0001
,
0000
0100
0001
1000
0000
0100
1000
0001
,
1000
0100
0010
0001
,
1000
0000
0000
1000
0000
0000
1000
0000
2000
0000
0000
0000
3000
0000
0000
0000
,
0001
0000
0000
0001
0000
0000
0001
0000
0002
0000
0000
0000
0003
0000
0000
0000
,
0100
0010
0100
0010
0100
0000
0000
0000
,
0001
0000
1000
0001
0020
0000
0000
0000
,
0000
0000
0000
0000
,
0000
0000
0000
0000
,
0030
0000
0000
0000
0000
0000
0000
0000
0000
0000
0000
0000
0000
0000
M000
0M00
,
000M
0000
0000
0000
;

//---------------dance-single - ----------------
#NOTES:
     dance-single:
     :
     Easy:
     3:
     0.233507,0.278073,0.086379,0.179402,0.016611,246.000000,233.000000,13.000000,27.000000,2.000000,0.000000,0.233507,0.278073,0.086379,0.179402,0.016611,246.000000,233.000000,13.000000,27.000000,2.000000,0.000000:
0000
0000
0000
0000
,
0000
0000
0000
0000
,
0000
0000
0000
0000
,
0000
0000
0000
0000
,
0000
0000
0000
0000
,
0000
0000
0000
0000
,
1000
0000
0000
0100
0000
0000
1000
0000
,
0001
0000
0000
0100
0000
0000
0010
0000
,
1000
0000
0001
0010
,
0100
0000
1000
0100
,
0010
0000
0000
0001
0000
0000
0100
0000
,
0010
0000
0000
1000
0000
0000
0001
0000
,
1001
1000
0100
0010
,
0000
0001
0100
0010
,
0000
0000
1000
0000
0100
0000
0000
0110
,
0000
0001
0010
0100
,
1000
0000
0000
0001
0000
0000
0100
0000
,
0001
0000
0000
1000
0000
0000
0100
0000
,
1000
0000
0000
0001
0000
0000
0010
0000
,
0001
0000
0000
1000
0000
0000
0010
0000
,
0100
0000
0000
0001
0000
0000
1000
0000
,
0100
0000
0000
0100
0000
0000
0100
0000
0000
0000
0000
0000
0000
0000
0000
0000
,
0010
0001
0010
0100
,
0000
1000
0001
0100
,
0000
0010
1000
0001
,
0000
0010
0001
1000
,
0100
0100
0100
0100
,
2002
0000
0000
3003
0000
0000
0000
0000
,
0100
0100
0100
0100
,
2002
0000
0000
3003
0000
0000
0000
0000
,
0101
0000
0000
0000
,
1100
0000
0000
0000
,
1001
0000
0000
0000
,
0110
0000
0000
0000
,
1001
0000
0000
0000
,
0001
0000
0000
0001
0000
0000
0001
0000
0000
0000
0000
0000
2000
0000
0000
0000
,
0001
0000
3000
0000
,
1000
0000
0000
1000
0000
0000
1000
0000
0000
0000
0000
0000
0000
0000
0000
0000
,
0001
0100
0001
1000
,
0020
0000
0000
0000
,
0000
0000
0000
0000
,
0000
0000
0000
0000
,
0030
0200
0000
0300
,
0001
0000
0000
0001
0000
0000
0001
0000
,
1000
0000
0000
1000
0000
0000
1000
0000
,
0100
0000
0000
0100
0000
0000
0100
0000
,
0010
0000
0000
0000
,
0001
0000
0010
0100
,
1000
0000
0001
1000
,
0010
0000
1000
0010
,
0100
0000
0001
0001
,
1000
0000
0001
0010
,
0100
0000
1000
0001
,
0100
0000
0010
0100
,
0001
1000
0100
0010
,
0002
0000
0100
0000
,
2003
0000
3100
0010
,
0002
0000
1000
0000
,
0203
0000
0310
0000
,
2000
0000
0100
0000
,
3002
0000
0103
0010
,
1000
0010
0100
0001
,
2000
3200
0320
0032
,
1003
0100
0000
1000
,
0100
1000
0010
0100
,
0001
0010
0000
0001
,
0100
0001
1000
0100
,
0010
0100
0000
1000
,
0001
1000
0100
0010
,
0001
1000
0000
0001
,
0100
0010
1000
0001
,
0020
0000
0001
0000
,
0230
0000
0010
0000
,
2300
0000
0100
0000
,
3002
0000
1000
0000
,
0103
0000
0001
0100
,
0010
0000
0100
0010
,
1000
0000
0010
1000
,
0002
0203
0320
2030
,
3001
0010
0001
0010
,
0100
1000
0100
1000
,
0010
1000
0010
1000
,
0010
0100
0001
0100
,
0001
0000
0000
1001
0000
0000
0000
0110
,
0000
0000
0000
1001
0000
0000
0000
0000
,
1000
0001
0100
0001
,
1000
0000
0000
1000
0000
0000
0000
0000
0100
0000
0000
0000
0000
0000
0000
0000
,
0001
0000
0000
0001
0000
0000
0000
0000
0100
0000
0000
0000
0000
0000
0000
0000
,
0010
0100
0010
0000
,
1000
0001
2002
0000
,
0000
0000
0000
0000
,
0000
0000
0000
0000
,
3003
0000
0000
0000
,
0MM0
0000
0000
0000
;

//---------------dance-single - ----------------
#NOTES:
     dance-single:
     :
     Beginner:
     1:
     0.094922,0.152824,0.033223,0.046512,0.000000,100.000000,95.000000,5.000000,7.000000,0.000000,0.000000,0.094922,0.152824,0.033223,0.046512,0.000000,100.000000,95.000000,5.000000,7.000000,0.000000,0.000000:
0000
0000
0000
0000
,
0000
0000
0000
0000
,
0000
0000
0000
0000
,
0000
0000
0000
0000
,
1000
0000
0000
0000
,
0000
0000
0000
0000
,
1000
0000
0000
0000
,
0100
0000
0000
0000
,
0010
0000
0000
0000
,
0000
0000
0000
0000
,
0001
0000
0000
0000
,
0100
0000
0000
0000
,
0010
0000
0000
0000
,
1000
0000
0000
0000
,
0001
0000
0000
0000
,
0010
0000
0000
0000
,
0100
0000
0000
0000
,
0100
0000
0000
0000
,
1000
0000
0000
0000
,
0001
0000
0000
0000
,
0000
0000
0000
0000
,
0100
0000
0000
0000
,
0100
0000
0000
0000
,
0010
0000
0000
0000
,
1000
0000
0000
0000
,
0001
0000
0000
0000
,
0010
0010
0010
0000
,
0100
0000
0000
0000
,
0010
0010
0010
0000
,
0100
0000
0000
0000
,
0100
0000
0000
0000
,
0100
0000
0000
0000
,
0100
0000
0000
0000
,
0200
0000
0000
0000
,
0300
0000
0000
0000
,
1001
0000
0000
0000
,
0100
0000
0000
0000
,
1001
0000
0000
0000
,
0100
0000
0000
0000
,
0220
0000
0000
0000
,
0000
0000
0000
0000
,
0000
0000
0000
0000
,
0000
0330
0000
0000
,
2002
0000
0000
0000
,
0000
0000
0000
0000
,
0000
0000
0000
0000
,
3003
0000
0000
0000
,
0001
0000
0000
0000
,
1000
0000
0000
0000
,
0100
0000
0000
0000
,
0001
0000
0000
0000
,
0010
0000
0000
0000
,
0001
0000
0000
0000
,
0100
0000
0000
0000
,
1000
0000
0000
0000
,
0010
0000
0000
0000
,
0010
0000
0000
0000
,
0100
0000
0000
0000
,
0100
0000
0000
0000
,
0001
0000
0000
0000
,
1000
0000
0000
0000
,
0001
0000
0000
0000
,
1000
0000
0000
0000
,
0010
0000
0000
0000
,
0010
0000
0000
0000
,
0010
0000
0000
0000
,
0010
0000
0000
0000
,
0010
0010
0010
0000
,
0010
0000
0000
0000
,
0010
0010
0010
0000
,
0010
0000
0000
0000
,
0100
0000
0001
0000
,
1000
0000
0001
0000
,
0100
0000
0001
0000
,
1000
0000
0000
0000
,
0100
0000
1000
0000
,
0001
0000
1000
0000
,
0100
0000
1000
0000
,
0001
0000
0000
0000
,
0100
0000
0100
0000
,
0100
0000
0000
0000
,
0010
0000
0010
0000
,
0010
0000
0000
0000
,
1000
0000
0000
0000
,
0001
0000
0000
0000
,
1000
0000
0001
0000
,
1000
0000
0001
0000
,
0010
0000
0100
0000
,
0010
0000
0000
0000
,
0000
0000
2002
0000
,
0000
0000
0000
0000
,
0000
0000
0000
0000
,
3003
0000
0000
0000
;
