#TITLE:¡Viva!;
#SUBTITLE:;
#ARTIST:Ryu*;
#TITLETRANSLIT:;
#SUBTITLETRANSLIT:;
#ARTISTTRANSLIT:;
#GENRE:;
#CREDIT:;
#BANNER:iViva!.png;
#BACKGROUND:iViva!-bg.png;
#LYRICSPATH:;
#CDTITLE:;
#MUSIC:iViva!.ogg;
#OFFSET:0.567000;
#SAMPLESTART:93.654221;
#SAMPLELENGTH:14.222221;
#SELECTABLE:YES;
#BPMS:0.000000=135.000000
;
#STOPS:
;
#BGCHANGES:;
#KEYSOUNDS:;
#ATTACKS:;

//---------------dance-single - ----------------
#NOTES:
     dance-single:
     :
     Hard:
     8:
     0.432119,0.592253,0.238803,0.008845,0.367049,342.000000,315.000000,27.000000,1.000000,0.000000,0.000000,0.432119,0.592253,0.238803,0.008845,0.367049,342.000000,315.000000,27.000000,1.000000,0.000000,0.000000:
0000
0000
0000
0000
,
0000
0000
0000
0000
,
0000
0000
0000
0000
,
0000
0000
0000
0000
,
0000
0000
0000
0000
,
0001
0000
0000
0000
0001
0000
0000
0000
1000
0000
0000
0010
0000
0000
1000
0000
,
0000
0000
0100
0000
0010
0000
0000
0000
0100
0000
0000
0100
0000
0000
1000
0000
,
0001
0000
0000
0000
0001
0000
0000
0000
0100
0000
0000
0010
0000
0000
0100
0000
,
0000
0000
0001
0000
0010
0000
0000
0000
0001
0000
0000
0001
0000
0000
1000
0000
,
0100
0000
0000
0000
0100
0000
0000
0000
1000
0000
0000
0001
0000
0000
1000
0000
,
0000
0000
0100
0000
0010
0000
0000
0000
0100
0000
0000
0100
0000
0000
1000
0000
,
0010
0000
0000
0000
0010
0000
0000
0000
0100
0000
0000
0001
0000
0000
0010
0000
,
0000
0000
0100
0000
0010
0000
0000
0000
0001
0000
0000
0001
0000
0000
1000
0000
,
1001
0100
0100
0100
,
1001
0000
0010
0000
0010
0000
0010
0100
,
1001
0000
0110
0000
,
1001
0000
0000
1001
0000
0000
0001
0000
0100
0000
0001
0000
0100
0000
0001
0000
0100
0000
0001
0000
0000
0000
0000
0000
,
1000
0000
0000
0001
0000
0000
0100
0000
0010
0000
0100
0000
0010
0000
0000
1000
0000
0000
0100
0000
0010
0000
0100
0000
,
0010
0000
0110
0000
0100
0000
1100
0000
0100
0000
0010
0000
,
0001
0000
1000
0000
0001
0000
1000
0000
0000
0001
0000
0000
1000
0000
0001
0000
1000
0000
0001
0000
0000
1000
0000
0000
,
0040
0400
0000
0000
0000
0000
0000
0000
0000
0000
0000
0000
0330
0000
0000
0000
,
1001
0000
1000
0000
0100
1000
0000
0010
0000
0010
0000
0000
0100
0001
0000
0000
,
1000
0000
0010
0000
0100
0001
0000
0010
0000
0010
0000
0000
0100
0010
0000
0000
,
0100
0000
1000
0000
0010
1000
0000
0001
0000
0001
0000
0000
1000
0100
0000
0000
,
1000
0000
0001
0000
0100
0001
0000
0001
0000
1000
0010
0000
0010
0000
0000
0000
,
0100
0000
0010
0000
1000
0010
0000
0100
0000
0100
0000
0000
0001
0010
0000
0000
,
0100
0000
0010
0000
0001
1000
0000
0100
0000
0100
0000
0000
1000
0010
0000
0000
,
0100
0000
0001
0000
0010
0001
0000
1000
0000
1000
0000
0000
0100
0010
0000
0000
,
1100
0000
0000
1100
0000
0000
1000
0000
0000
0001
0000
0000
0100
0000
0001
0000
0100
0000
0010
0000
0000
1000
0000
0000
,
0000
0000
0001
0000
1000
0000
0000
0010
0000
0000
1000
0000
0001
0000
0000
0010
,
0000
0000
0001
0000
1000
0000
0000
0010
0000
0000
1000
0000
0000
0001
0000
0001
,
0000
0000
1000
0000
0010
0000
0000
0100
0000
0000
0010
0000
1000
0000
0000
0100
,
0000
0000
0010
0000
0100
0000
0000
1000
0000
0000
0100
0000
0000
0010
0000
0000
,
0001
1000
0000
0000
0001
0010
0000
0001
,
1000
0010
1000
0000
1100
0000
0000
0000
,
1000
0001
0000
0000
1000
0100
0000
1000
,
0100
0010
0100
0000
1001
0000
0000
0000
,
0440
0000
0000
0000
,
0330
0000
0000
0000
0000
0000
0000
1000
,
1100
0000
0011
0000
,
0001
0000
0000
1000
0000
0000
0010
0000
0000
0100
0000
0000
0010
0000
1000
0000
0001
0000
0100
0000
0000
0010
0000
0000
,
1000
0010
0000
0000
0100
0001
0000
0001
,
1000
0010
0000
0000
0100
0001
0000
0001
,
1000
0010
0000
0000
0100
0001
0000
0100
,
0010
0000
0000
1000
0000
0000
0001
0000
0000
0000
0000
0000
1000
0000
0001
0000
1000
0000
0001
0000
0000
0000
0000
0000
,
0011
0000
0000
0001
0000
0000
0100
0000
0000
0000
0010
0000
0000
1000
0000
0000
,
0001
0000
0000
0010
0000
0000
0001
0000
1000
0000
0100
1000
0000
1000
0100
0000
,
1000
0000
0000
0010
0000
0000
0100
0000
0000
0000
0001
0000
0000
0100
0000
0000
,
4004
0000
0000
3003
,
0101
0000
0000
0001
0000
0000
1000
0000
0000
0000
0100
0000
0000
1000
0000
0000
,
0001
0000
0000
0010
0000
0000
0001
0000
1000
0000
0010
1000
0000
1000
0010
0000
,
0200
0000
0000
0000
,
0301
0000
0000
0001
0000
0000
1000
0000
0000
1000
0000
0000
0001
0000
0100
0000
0010
0000
1000
0000
0000
0001
0000
0000
,
1000
0100
0000
0010
0001
0100
0000
0010
,
1000
0100
0010
0000
1100
0000
1001
0000
,
0001
0100
0000
0010
1000
0100
0000
0010
,
0001
0100
0010
0000
0101
0000
1001
0000
,
1000
0100
0000
0010
0001
1000
0000
0100
,
1000
0010
0100
0000
0011
0000
1001
0000
,
1100
0000
0000
0000
0101
0000
0000
1000
,
0100
0000
0000
0010
0000
0000
0001
0000
0000
0000
0000
0000
1000
0000
0001
0000
1000
0000
0001
0000
0000
1000
0000
0000
;

//---------------dance-single - ----------------
#NOTES:
     dance-single:
     :
     Easy:
     3:
     0.179418,0.349249,0.132668,0.044223,0.000000,142.000000,127.000000,15.000000,5.000000,0.000000,0.000000,0.179418,0.349249,0.132668,0.044223,0.000000,142.000000,127.000000,15.000000,5.000000,0.000000,0.000000:
0000
0000
0000
0000
,
0000
0000
0000
0000
,
0000
0000
0000
0000
,
0000
0000
0000
0000
,
0000
0000
0000
0000
,
1000
0000
0001
0000
,
1000
0000
0001
1000
,
0010
0000
0100
0000
,
0010
0000
0100
0010
,
1000
0000
0100
0000
,
1000
0000
0001
0100
,
0010
0000
1000
0000
,
0001
0000
0010
0000
,
1001
0000
0000
0000
,
1001
0000
0000
0000
,
1001
0000
1001
0000
,
1001
0001
0001
0001
,
1001
1000
1001
0001
,
0110
0000
1001
0000
,
0110
0000
1001
0000
,
0020
0000
0000
0000
,
1030
0010
0100
0000
,
0010
1000
0001
0000
,
0010
0100
1000
0000
,
0100
1000
0001
0001
,
0100
0001
0010
0000
,
0001
0100
0010
0000
,
1000
0010
0100
0000
,
1001
0000
0010
0000
,
1000
0000
0001
0000
,
0100
0000
0001
0000
,
1000
0000
0100
0000
,
1000
0000
0001
0000
,
0010
0000
0001
0000
,
1000
0100
1000
0000
,
0100
0000
1000
0000
,
0010
1000
0010
0000
,
2002
0000
0000
0000
,
3003
0000
0000
0000
,
0010
0000
0100
0000
,
0010
0010
1000
0001
,
1000
0000
0000
0000
,
0001
0000
0000
0000
,
0100
0000
0010
0000
,
1000
0001
1001
0000
,
0001
0000
1000
0000
,
0010
0000
1000
0000
,
0100
0000
1000
0000
,
0002
0000
0000
0003
,
0100
0000
0010
0000
,
1000
0000
0001
0000
,
0020
0000
0000
0000
,
0130
0000
0010
0000
,
0001
0000
1000
0000
,
0010
0100
0010
0000
,
1000
0000
0001
0000
,
0100
0010
0100
0000
,
0010
0000
1000
0000
,
0001
0100
0001
0000
,
1000
0000
0001
0000
,
0100
0010
1000
1001
;

//---------------dance-single - ----------------
#NOTES:
     dance-single:
     :
     Medium:
     5:
     0.305769,0.349249,0.141513,0.053067,0.061912,242.000000,226.000000,16.000000,6.000000,0.000000,0.000000,0.305769,0.349249,0.141513,0.053067,0.061912,242.000000,226.000000,16.000000,6.000000,0.000000,0.000000:
0000
0000
0000
0000
,
0000
0000
0000
0000
,
0000
0000
0000
0000
,
0000
0000
0000
0000
,
0000
0000
0000
0000
,
0001
0100
0010
0010
,
1000
0001
1000
1000
,
0100
1000
0010
0010
,
0100
0001
1000
1000
,
1001
0001
1000
1000
,
0010
1000
0100
0100
,
1000
0001
0010
0010
,
0001
1000
0010
0100
,
1001
0010
0010
0010
,
1001
0010
0010
0010
,
1001
0100
1001
0100
,
0001
1000
0020
0000
0000
0000
0030
0000
,
1000
0001
1000
0000
0001
1000
0001
0000
,
0100
0000
0100
0000
0100
0000
0010
0000
0010
0000
0010
0000
,
0100
0010
0100
0000
0001
1000
0001
0000
,
2000
0000
0000
3000
,
0101
0001
0010
0001
,
0010
0100
1000
0100
,
1000
0010
0100
0001
,
1000
0000
0010
0000
0100
0001
0001
0000
,
1000
0100
1000
0010
,
0100
0001
0010
0001
,
1000
0100
1000
0010
,
0100
0010
1000
0000
0001
0000
1001
0000
,
1000
0000
0001
0000
,
0100
0000
0001
0000
,
1000
0000
0100
0000
,
1000
0000
0010
0000
,
0100
0001
0000
0000
0001
0100
0000
0100
,
0010
0100
0010
0000
1000
0000
0000
0000
,
0001
1000
0000
0000
1000
0001
0000
1000
,
0001
0100
0001
0000
1000
0000
0000
0000
,
2002
0000
0000
3003
,
0110
0000
0000
0000
0000
0000
0000
0010
,
1001
0000
0110
0000
,
0001
1000
0010
0100
0001
0000
1001
0000
,
1000
0010
0000
0000
1000
0010
0000
0000
,
0100
0001
0000
0000
0100
0001
0000
0000
,
0001
1000
0000
0000
1000
0001
0000
1000
,
0100
0010
0001
0000
1001
0000
0000
0000
,
0001
0000
0000
0100
0000
0000
0001
0000
0000
0000
0100
0000
0000
0010
0000
0000
,
1000
0000
0000
0010
0000
0000
0100
0000
0010
0000
0000
1000
0000
0000
0001
0000
,
0010
0000
0000
0010
0000
0000
0100
0000
0000
0000
0010
0000
0000
0001
0000
0000
,
2000
0000
0000
3000
,
0101
0000
0000
0001
0000
0000
0001
0000
0000
0000
1000
0000
0000
0100
0000
0000
,
1000
0000
0000
0010
0000
0000
0100
0000
0010
0000
0000
1000
0000
0000
0010
0000
,
0200
0000
0000
0000
,
0310
1000
0010
0100
0001
0000
1001
0000
,
1000
0001
0000
0000
0001
1000
0000
1000
,
0001
0100
0001
0000
1000
0000
0000
0000
,
1000
0100
0000
0000
0100
0010
0000
0010
,
0001
0010
0100
0000
0010
0000
0000
0000
,
0100
1000
0000
0000
1000
0001
0000
0001
,
1000
0010
1000
0000
0001
0000
0000
0000
,
1000
0100
0000
0000
0100
0010
0000
0100
,
0010
0001
0100
0000
0010
0000
1001
0000
;

//---------------dance-double - ----------------
#NOTES:
     dance-double:
     :
     Challenge:
     8:
     0.457390,0.592253,0.247647,0.044223,0.428961,362.000000,334.000000,28.000000,5.000000,0.000000,0.000000,0.457390,0.592253,0.247647,0.044223,0.428961,362.000000,334.000000,28.000000,5.000000,0.000000,0.000000:
00000000
00000000
00000000
00000000
,
00000000
00000000
00000000
00000000
,
00000000
00000000
00000000
00000000
,
00000000
00000000
00000000
00000000
,
00000000
00000000
00000000
00000000
,
10000000
00000000
00000000
00000000
00010000
00000000
00000000
00000000
00100000
00000000
00000000
00100000
00000000
00000000
00100000
00000000
,
00000000
00000000
00010000
00000000
01000000
00000000
00000000
00000000
00010000
00000000
00000000
00100000
00000000
00000000
00001000
00000000
,
00010000
00000000
00000000
00000000
00001000
00000000
00000000
00000000
00010000
00000000
00000000
00000100
00000000
00000000
00000100
00000000
,
00000000
00000000
00000010
00000000
00000100
00000000
00000000
00000000
00000010
00000000
00000000
00000001
00000000
00000000
00001000
00000000
,
00000010
00000000
00000000
00000000
00000010
00000000
00000000
00000000
00001000
00000000
00000000
00001000
00000000
00000000
00001000
00000000
,
00000000
00000000
00000001
00000000
00000010
00000000
00000000
00000000
00000100
00000000
00000000
00000100
00000000
00000000
00010000
00000000
,
00001000
00000000
00000000
00000000
00001000
00000000
00000000
00000000
01000000
00000000
00000000
01000000
00000000
00000000
01000000
00000000
,
00000000
00000000
00100000
00000000
10000000
00000000
00000000
00000000
00010000
00000000
00000000
10000000
00000000
00000000
01000000
00000000
,
10010000
00010000
00100000
00010000
,
00110000
00000000
00100000
00000000
00001000
00000000
00100000
00001000
,
00101000
00001000
00011000
00010000
,
00010100
00000000
00000000
00010100
00000000
00000000
00000100
00000000
00010000
00000000
00001000
00000000
00100000
00000000
00001000
00000000
00010000
00000000
00001000
00000000
00000000
00000000
00000000
00000000
,
00001000
00000000
00000000
00100000
00000000
00000000
00010000
00000000
00100000
00000000
00010000
00000000
00100000
00000000
00000000
00001000
00000000
00000000
00010000
00000000
00000100
00000000
00010000
00000000
,
00000100
00000000
00001000
00000000
00001010
00000000
00000010
00000000
00000100
00000000
00000101
00000000
,
00000001
00000000
00001000
00000000
00000010
00000000
00001000
00000000
00000000
00000100
00000000
00000000
00010000
00000000
00001000
00000000
00100000
00000000
00010000
00000000
00000000
01000000
00000000
00000000
,
40000000
00040000
00000000
00000000
00000000
00000000
00000000
00000000
00000000
00000000
00000000
00000000
30030000
00000000
00000000
00000000
,
10100000
00000000
10000000
00000000
01000000
10000000
00000000
00010000
00000000
10000000
00000000
00000000
00100000
10000000
00000000
00000000
,
00010000
00000000
00100000
00000000
00100000
01000000
00000000
00100000
00000000
00010000
00000000
00000000
01000000
00010000
00000000
00000000
,
00100000
00000000
00001000
00000000
00010000
00000100
00000000
00001000
00000000
00000010
00000000
00000000
00000100
00000001
00000000
00000000
,
00001000
00000000
00000001
00000000
00000010
00000100
00000000
00000010
00000000
00000100
00001000
00000000
00001000
00000000
00000000
00000000
,
00000100
00000000
00010000
00000000
00001000
00100000
00000000
00010000
00000000
00010000
00000000
00000000
10000000
00010000
00000000
00000000
,
01000000
00000000
00010000
00000000
00100000
01000000
00000000
00100000
00000000
00010000
00000000
00000000
01000000
00010000
00000000
00000000
,
00100000
00000000
00001000
00000000
00010000
00001000
00000000
00010000
00000000
00010000
00000000
00000000
00000010
00000100
00000000
00000000
,
00000101
00000000
00000000
00000101
00000000
00000000
00000001
00000000
00000000
00001000
00000000
00000000
00000100
00000000
00010000
00000000
00001000
00000000
00100000
00000000
00000000
01000000
00000000
00000000
,
00000000
00000000
00100000
00000000
00010000
00000000
00000000
10000000
00000000
00000000
00010000
00000000
10000000
00000000
00000000
00100000
,
00000000
00000000
10000000
00000000
00010000
00000000
00000000
00100000
00000000
00000000
00001000
00000000
00000000
00010000
00000000
00000100
,
00000000
00000000
00000010
00000000
00000001
00000000
00000000
00000100
00000000
00000000
00000010
00000000
00001000
00000000
00000000
00000100
,
00000000
00000000
00000010
00000000
00000001
00000000
00000000
00001000
00000000
00000000
00000010
00000000
00000000
00001000
00000000
00001000
,
00000001
00000010
00000000
00000000
00000001
00001000
00000000
00001000
,
00000100
00010000
00001000
00000000
00101000
00000000
00000000
00000000
,
00001000
00100000
00000000
00000000
01000000
10000000
00000000
00010000
,
00100000
00001000
00010000
00000000
00010100
00000000
00000000
00000000
,
00044000
00000000
00000000
00033000
,
00001100
00000000
00000000
00000000
00000000
00000000
00000000
00000010
,
00001001
00000000
00000101
00000000
,
00001001
00000000
00000000
00001001
00000000
00000000
00000001
00000000
00000000
00001000
00000000
00000000
00000010
00000000
00010000
00000000
00001000
00000000
00100000
00000000
00000000
01000000
00000000
00000000
,
10000000
00010000
00000000
00000000
00010000
01000000
00000000
00001000
,
00010000
00000010
00000000
00000000
00000010
00000100
00000000
00000010
,
00010000
00001000
00000000
00000000
00100000
01000000
00000000
10000000
,
01000000
00100000
00010000
00000000
00011000
00000000
00000000
00000000
,
00010010
00000000
00000000
00000010
00000000
00000000
00000100
00000000
00000000
00000000
00000001
00000000
00000000
00001000
00000000
00000000
,
00000100
00000000
00000000
00001000
00000000
00000000
00000001
00000000
00000100
00000000
00000010
00001000
00000000
00001000
00000100
00000000
,
00001000
00000000
00000000
00000100
00000000
00000000
00010000
00000000
00000000
00000000
00001000
00000000
00000000
00100000
00000000
00000000
,
02000000
00000000
00000000
00100000
00000000
00000000
00100000
00000000
00100000
00000000
00000000
00000000
03000000
00000000
00000000
00000000
,
10010000
00000000
00000000
10000000
00000000
00000000
00100000
00000000
00000000
00000000
01000000
00000000
00000000
00010000
00000000
00000000
,
00100000
00000000
00000000
00010000
00000000
00000000
10000000
00000000
00010000
00000000
01000000
00010000
00000000
00010000
00100000
00000000
,
00210000
00000000
00000000
00000000
,
00301000
00000000
00000000
00010000
00000000
00000000
00000100
00000000
00000000
00000010
00000000
00000000
00000001
00000000
00000100
00000000
00000010
00000000
00001000
00000000
00000000
00000100
00000000
00000000
,
00010000
00000000
00001000
00010000
00000000
00010000
00001000
00000000
00010000
00000000
00100000
01000000
00000000
01000000
10000000
00000000
,
00010000
01000000
00100000
00000000
10020000
00000000
00130000
00000000
,
01000000
00000000
00100000
00010000
00000000
00010000
00100000
00000000
00001000
00000000
00001000
00010000
00000000
00010000
00001000
00000000
,
00010000
00000100
00001000
00000000
00000201
00000000
00000310
00000000
,
00000100
00000000
00000010
00001000
00000000
00001000
00000001
00000000
00000010
00000000
00000100
00001000
00000000
00001000
00000010
00000000
,
00001000
00000100
00010000
00000000
00012000
00000000
01003000
00000000
,
01010000
00000000
00000000
00010000
00000000
00000000
00100000
00000000
01100000
00000000
00000000
01000000
00000000
00000000
10000000
00000000
,
00010000
00000000
00000000
00100000
00000000
00000000
00001000
00000000
00000000
00000000
00000000
00000000
00010000
00000000
00000100
00000000
00010000
00000000
00001000
00000000
00000000
01000000
00000000
00000000
;

//---------------dance-single - ----------------
#NOTES:
     dance-single:
     :
     Beginner:
     1:
     0.113716,0.188057,0.061912,0.000000,0.000000,90.000000,83.000000,7.000000,0.000000,0.000000,0.000000,0.113716,0.188057,0.061912,0.000000,0.000000,90.000000,83.000000,7.000000,0.000000,0.000000,0.000000:
// measure 0
0000
0000
0000
0000
,  // measure 1
0000
0000
0000
0000
,  // measure 2
0000
0000
0000
0000
,  // measure 3
0000
0000
0000
0000
,  // measure 4
0000
0000
0000
0000
,  // measure 5
1000
0000
0000
0000
,  // measure 6
0001
0000
0000
0000
,  // measure 7
0100
0000
0000
0000
,  // measure 8
0010
0000
0000
0000
,  // measure 9
1000
0000
0000
0000
,  // measure 10
0001
0000
0000
0000
,  // measure 11
0010
0000
0000
0000
,  // measure 12
0001
0000
0000
0000
,  // measure 13
1001
0000
0000
0000
,  // measure 14
0010
0000
0000
0000
,  // measure 15
0100
0000
0010
0000
,  // measure 16
1000
0000
0000
0000
,  // measure 17
0001
0000
0001
0000
,  // measure 18
1000
0000
1000
0000
,  // measure 19
0010
0000
0010
0000
,  // measure 20
0100
0000
0000
0000
,  // measure 21
1001
0000
0000
0000
,  // measure 22
1000
0000
0000
0000
,  // measure 23
0010
0000
0000
0000
,  // measure 24
0100
0000
0001
0001
,  // measure 25
1000
0000
0000
0000
,  // measure 26
0010
0000
0000
0000
,  // measure 27
1000
0000
0000
0000
,  // measure 28
1001
0000
0000
0000
,  // measure 29
0010
0000
0000
0000
,  // measure 30
1000
0000
0000
0000
,  // measure 31
0001
0000
0000
0000
,  // measure 32
0010
0000
0000
0000
,  // measure 33
0001
0000
1000
0000
,  // measure 34
0010
0000
0100
0000
,  // measure 35
0001
0000
1000
0000
,  // measure 36
0010
0000
0100
0000
,  // measure 37
1001
0000
0000
0000
,  // measure 38
1000
0000
0000
0000
,  // measure 39
0001
0000
1000
0000
,  // measure 40
0001
0000
0000
0000
,  // measure 41
0100
0000
0000
0000
,  // measure 42
0010
0000
0000
0000
,  // measure 43
1000
0000
0001
0000
,  // measure 44
0100
0100
0100
0000
,  // measure 45
0110
0000
0000
0000
,  // measure 46
0010
0000
0000
0000
,  // measure 47
1000
0000
0000
0000
,  // measure 48
0001
0000
0000
0000
,  // measure 49
1001
0000
0000
0000
,  // measure 50
0010
0000
0000
0000
,  // measure 51
0100
0000
0000
0000
,  // measure 52
0010
0000
0000
0000
,  // measure 53
1000
0000
1000
0000
,  // measure 54
1000
1000
1000
0000
,  // measure 55
0001
0000
0001
0000
,  // measure 56
0001
0001
0001
0000
,  // measure 57
0100
0000
0100
0000
,  // measure 58
0100
0100
0100
0000
,  // measure 59
0010
0000
0010
0000
,  // measure 60
0010
0010
0010
1001
;
