#VERSION:0.83;
#TITLE:illumina;
#SUBTITLE:;
#ARTIST:DJ TOTTO feat. *spiLa*;
#TITLETRANSLIT:;
#SUBTITLETRANSLIT:;
#ARTISTTRANSLIT:;
#GENRE:;
#ORIGIN:;
#CREDIT:;
#BANNER:[Tech Savvy] - illumina.png;
#BACKGROUND:[Tech Savvy] - illumina-bg.png;
#PREVIEWVID:;
#JACKET:[Tech Savvy] - illumina-jacket.png;
#CDIMAGE:;
#DISCIMAGE:;
#LYRICSPATH:;
#CDTITLE:cdtitle.png;
#MUSIC:[Tech Savvy] - illumina.ogg;
#OFFSET:0.150000;
#SAMPLESTART:44.115002;
#SAMPLELENGTH:15.000000;
#SELECTABLE:YES;
#BPMS:0.000=187.000,
12.000=93.500,
44.000=187.000,
236.000=93.500,
252.000=187.000;
#STOPS:;
#DELAYS:;
#WARPS:;
#TIMESIGNATURES:0.000=4=4;
#TICKCOUNTS:0.000=4;
#COMBOS:0.000=1;
#SPEEDS:0.000=1.000=0.000=0;
#SCROLLS:0.000=1.000;
#FAKES:;
#LABELS:0.000=Song Start;
#BGCHANGES:;
#KEYSOUNDS:;
#ATTACKS:
;

//---------------dance-single - ----------------
#NOTEDATA:;
#CHARTNAME:9646_BEG;
#STEPSTYPE:dance-single;
#DESCRIPTION:;
#CHARTSTYLE:Dance;
#DIFFICULTY:Beginner;
#METER:1;
#RADARVALUES:0.100193,0.159995,0.026301,0.210405,0.000000,80.000000,77.000000,3.000000,24.000000,0.000000,0.000000,0.000000,0.000000,0.000000,0.100193,0.159995,0.026301,0.210405,0.000000,80.000000,77.000000,3.000000,24.000000,0.000000,0.000000,0.000000,0.000000,0.000000;
#CREDIT:9646;
#NOTES:
0000
0000
0000
0000
,
0000
0000
0000
0000
,
0000
0000
0000
0000
,
0010
0000
0000
0000
,
0100
0000
0000
0000
,
0010
0000
0000
0000
,
0001
0000
0000
0000
,
0100
0000
0000
0000
,
0010
0000
0000
0000
,
0100
0000
0000
0000
,
1000
0000
0000
0000
,
0002
0000
0000
0000
,
0003
0000
0000
0000
,
0020
0000
0000
0000
,
0030
0000
0000
0000
,
0200
0000
0000
0000
,
0300
0000
0000
0000
,
2000
0000
0000
0000
,
3000
0000
0000
0000
,
0001
0000
0000
0000
,
0001
0000
0000
0000
,
1000
0000
0000
0000
,
1000
0000
0000
0000
,
0010
0000
0000
0000
,
0100
0000
0000
0000
,
0020
0000
0000
0000
,
0030
0000
0000
0000
,
2000
0000
0000
0000
,
3000
0000
1000
0000
,
0002
0000
0000
0000
,
0003
0000
0001
0000
,
0020
0000
0030
0000
,
0200
0000
0300
0000
,
1000
0000
1000
0000
,
0001
0000
0000
0000
,
0002
0000
0000
0000
,
0003
0000
0001
0000
,
2000
0000
0000
0000
,
3000
0000
1000
0000
,
0020
0000
0030
0000
,
0200
0000
0300
0000
,
0001
0000
0001
0000
,
1001
0000
0000
0000
,
0001
0000
0001
0000
,
1000
0000
1000
0000
,
0002
0000
0003
0000
,
0020
0000
0030
0000
,
0100
0000
0100
0000
,
0010
0000
0010
0000
,
0001
0000
1000
0000
,
0010
0000
0100
0000
,
0001
0000
0001
0000
,
1000
0000
1000
0000
,
0200
0000
0300
0000
,
0020
0000
0030
0000
,
0001
0000
0001
0000
,
1000
0000
1000
0000
,
0020
0000
0030
0000
,
0110
0000
0000
0000
,
0001
0000
0000
0000
,
1000
0000
0000
0000
,
0100
0000
0000
0000
,
0010
0000
0000
0000
,
0002
0000
0000
0000
,
0003
0000
0001
0000
,
2000
0000
0000
0000
,
3000
0000
1000
0000
,
0020
0000
0030
0000
,
0200
0000
0300
0000
,
0001
0000
0001
0000
,
1000
0000
0000
0000
,
2002
0000
0000
0000
,
0000
0000
0000
0000
,
3003
0000
0000
0000
;

//---------------dance-single - ----------------
#NOTEDATA:;
#CHARTNAME:9646_BSP;
#STEPSTYPE:dance-single;
#DESCRIPTION:;
#CHARTSTYLE:Dance;
#DIFFICULTY:Easy;
#METER:3;
#RADARVALUES:0.245472,0.319990,0.070135,0.455876,0.000000,196.000000,188.000000,8.000000,52.000000,0.000000,0.000000,0.000000,0.000000,0.000000,0.245472,0.319990,0.070135,0.455876,0.000000,196.000000,188.000000,8.000000,52.000000,0.000000,0.000000,0.000000,0.000000,0.000000;
#CREDIT:9646;
#NOTES:
0000
0000
0000
0000
,
0000
0000
0000
0000
,
0000
0000
0000
0000
,
2000
0001
0000
3001
,
0200
0010
0000
0310
,
2000
0100
0000
3100
,
0002
0010
0000
0013
,
2000
0001
0000
3001
,
0020
0100
0000
0130
,
2000
0010
0000
3010
,
0002
0100
0200
0303
,
0020
0000
0000
0000
,
2030
0000
0000
0000
,
3200
0000
0000
0000
,
0302
0000
0000
0000
,
0020
0000
0003
0000
,
2000
0000
0030
0000
,
0200
0000
3000
0000
,
0020
0000
0300
0000
,
0031
0001
0001
0000
,
1000
1000
1000
0000
,
0010
0010
0010
0000
,
0100
0100
0100
0000
,
0002
0000
1003
0000
,
2000
0000
3001
0000
,
0020
0000
0200
0330
,
2002
0000
0000
3003
,
1001
0001
1000
0010
,
0002
0003
0020
0030
,
1000
0001
1000
0100
,
0002
0003
0200
0300
,
2000
0000
3001
0000
,
0002
0000
0103
0000
,
0010
0010
1000
0001
,
0002
0000
1000
1003
,
1001
1000
0001
0100
,
2000
3000
0200
0300
,
0001
1000
0001
0010
,
2000
3000
0020
0030
,
0002
0000
1003
0000
,
2000
0000
3010
0000
,
0100
0100
0001
1000
,
2002
0000
0000
3003
,
1000
1000
0001
0100
,
0010
1000
0100
0010
,
0002
0000
1003
0000
,
2000
0000
3001
0000
,
0001
0001
0100
0010
,
1000
0100
0010
0001
,
2000
0000
3100
0000
,
0002
0000
0103
0000
,
1000
1000
0100
0100
,
0001
0001
0010
0010
,
2000
0000
0001
3001
,
0010
0100
1000
0001
,
1000
1000
0010
0010
,
0001
0001
0100
0100
,
2000
0000
0001
3001
,
2002
0000
0000
3003
,
0002
1000
0000
1003
,
0020
0100
0000
0130
,
0002
0010
0000
0013
,
1001
0000
0100
0100
,
1001
1000
0001
0100
,
1000
0001
0010
1000
,
0001
1000
0001
0010
,
1000
0001
0100
1000
,
0001
1000
0010
0100
,
0001
1000
0100
0010
,
0001
0001
1000
0100
,
0020
0000
0000
0030
,
2002
0000
0000
0000
,
0000
0000
0000
0000
,
3003
0000
0000
0000
;

//---------------dance-single - ----------------
#NOTEDATA:;
#CHARTNAME:9646_ESP;
#STEPSTYPE:dance-single;
#DESCRIPTION:;
#CHARTSTYLE:Dance;
#DIFFICULTY:Hard;
#METER:8;
#RADARVALUES:0.563583,0.671979,0.166570,0.718882,0.144653,450.000000,431.000000,19.000000,82.000000,0.000000,0.000000,0.000000,0.000000,0.000000,0.563583,0.671979,0.166570,0.718882,0.144653,450.000000,431.000000,19.000000,82.000000,0.000000,0.000000,0.000000,0.000000,0.000000;
#CREDIT:9646;
#NOTES:
0000
0000
0000
0000
,
0000
0000
0000
0000
,
0000
0000
0000
0000
,
0010
0020
0000
0000
0130
0000
0000
0000
0002
0000
0000
0000
1003
0010
0000
1000
,
0100
0020
0000
0000
0130
0000
0000
0000
2000
0000
0000
0000
3001
1000
0010
0000
,
0100
0200
0000
0000
0301
0000
0000
0000
0020
0000
0000
0000
0130
0000
1000
0001
,
1000
0000
0020
0000
0000
0000
0000
0000
0130
0000
0000
0000
0000
0000
0000
0000
0002
0000
0000
0000
0000
0000
0000
0000
1003
0000
0000
0010
0000
0000
1000
0000
,
0100
0200
0000
0000
0310
0000
0000
0000
0002
0000
0000
0000
1003
0100
0000
1000
,
0010
0000
0200
0000
0000
0000
0000
0000
0310
0000
0000
0000
0000
0000
0000
0000
2000
0000
0000
0000
0000
0000
0000
0000
3001
0010
0000
0000
0100
0000
0010
0000
,
0001
0002
0000
0000
1003
0000
0000
0000
0200
0000
0000
0000
0301
0000
0100
1000
,
0001
2000
0000
0000
3010
0000
0100
0001
0020
0000
0000
0100
0200
0000
0330
0000
,
2001
0000
0010
0000
0010
0000
3010
0100
,
0002
0000
1000
0000
1000
0000
1003
0100
,
0020
0000
0130
1000
0001
1000
0010
0100
,
0002
0100
2003
0100
,
3020
0000
0100
0000
0100
0000
0130
0001
,
2000
0000
3100
1000
0001
0100
0010
1000
,
0002
0000
0100
0000
0103
0001
0010
0100
,
2000
0100
0002
3003
,
1001
0000
0100
0000
0100
0000
0100
0010
,
1000
0000
1000
0000
1000
0000
1000
0100
,
0010
0000
0100
0010
0100
0010
0001
1000
,
0010
0010
0100
0100
,
0002
0000
0010
0000
0010
0000
0013
0100
,
2000
0100
3002
0010
,
1003
0010
0100
0001
0010
0100
1000
0001
,
2002
0000
0000
3003
,
1001
0000
1001
0001
0010
0100
1000
0002
,
0000
0010
0013
0000
0100
0001
0100
1000
,
0020
0000
0031
0010
1000
0001
0010
0200
,
0000
1000
1300
0000
0001
1000
0010
0100
,
0020
0000
0001
0000
0130
0001
1000
0020
,
0000
1000
2030
0000
3200
0000
0320
0000
,
0032
0000
0103
0010
1000
0001
0010
0200
,
0000
0010
0310
0000
0110
0000
0011
0000
,
1001
0000
1001
1000
0010
0100
0001
2000
,
0000
0010
3010
0000
0100
1000
0100
0001
,
2000
0000
3010
0001
0010
1000
0001
0020
,
0000
0100
0130
0001
0100
1000
0001
0010
,
0200
0000
0310
1000
0010
0100
0010
0002
,
0000
1000
2003
0000
3001
0100
0020
0000
,
1030
0001
0010
0100
1000
0001
0010
0100
,
2002
0000
0000
3003
,
1020
0000
0001
0000
1030
0001
0010
0100
,
1000
0010
0001
0010
1000
0100
0010
0001
,
2000
0000
0001
0000
3001
0100
0010
2000
,
0000
3100
0001
0100
0010
0001
1000
0100
,
2100
0000
3001
1000
0010
0100
0001
1000
,
0100
0010
0100
1000
0001
0010
0100
0010
,
0002
0000
1003
0001
1000
0010
0100
0010
,
1000
1000
0001
0001
0010
0100
1000
0001
,
1000
0010
0010
0001
0100
0100
1000
0010
,
0010
0001
0100
0100
1000
0010
0100
0001
,
0020
0000
0100
0000
0031
0100
0010
2000
,
0000
3001
0010
0100
0001
0100
0010
0001
,
1000
0100
0100
0001
0010
0010
1000
0100
,
0010
0001
0100
0010
1000
0100
0001
0100
,
2000
0000
3001
1000
0010
0100
0001
0010
,
0220
0000
0000
0330
,
1000
2000
0000
0000
3001
0000
0000
0000
0020
0000
0000
0000
0130
1000
0000
0001
,
0100
0020
0000
0000
1030
0000
0000
0000
0002
0000
0000
0000
1003
0100
0010
0001
,
1000
2000
0000
0000
3001
0000
0000
0000
0200
0000
0000
0000
0310
0000
1000
0001
,
2002
0000
0000
3003
0000
0000
0000
0101
0000
0001
1000
0000
0100
0001
0100
1000
,
1001
0000
1001
0001
0010
0100
1000
0002
,
0013
0200
0310
0001
0100
1000
0100
0001
,
2000
0010
3010
0001
0010
1000
0001
0200
,
0310
2000
3100
0001
0100
1000
0001
0010
,
0200
0000
0310
1000
0010
0100
0010
0002
,
0000
1000
2003
0000
3001
0100
0020
0000
,
1030
0001
0010
0100
1000
0001
0010
0100
,
1002
0000
0000
0103
0020
0000
1030
0001
,
2002
0000
0000
0000
,
0000
0000
0000
0000
,
3003
0000
0000
0000
;

//---------------dance-single - ----------------
#NOTEDATA:;
#CHARTNAME:9646_DSP;
#STEPSTYPE:dance-single;
#DESCRIPTION:;
#CHARTSTYLE:Dance;
#DIFFICULTY:Medium;
#METER:5;
#RADARVALUES:0.353179,0.479985,0.166570,0.631213,0.000000,282.000000,263.000000,19.000000,72.000000,0.000000,0.000000,0.000000,0.000000,0.000000,0.353179,0.479985,0.166570,0.631213,0.000000,282.000000,263.000000,19.000000,72.000000,0.000000,0.000000,0.000000,0.000000,0.000000;
#CREDIT:9646;
#NOTES:
// measure 0
0000
0000
0000
0000
,  // measure 1
0000
0000
0000
0000
,  // measure 2
0000
0000
0000
0000
,  // measure 3
2000
0000
3010
0000
0002
0000
0013
1000
,  // measure 4
0002
0000
0103
0000
0020
0000
1030
0100
,  // measure 5
0002
0000
0103
0000
2000
0000
3001
0100
,  // measure 6
0020
0000
1030
0000
0200
0000
0310
0010
,  // measure 7
0002
0000
1003
0000
0020
0000
0031
0010
,  // measure 8
2000
0000
3001
0000
0020
0000
0130
1000
,  // measure 9
0002
0000
0103
0000
2000
0000
3100
0100
,  // measure 10
0002
0010
2000
3003
,  // measure 11
2000
0100
0100
3000
,  // measure 12
0002
0100
0100
0003
,  // measure 13
2000
0010
0010
3000
,  // measure 14
0002
0010
0010
0003
,  // measure 15
2000
0000
0100
0000
,  // measure 16
3020
0000
0100
0000
,  // measure 17
0230
0000
0001
0000
,  // measure 18
0302
0000
0010
0000
,  // measure 19
1003
1000
1000
1000
,  // measure 20
0001
0001
0001
0001
,  // measure 21
0100
0100
0100
0100
,  // measure 22
0010
0010
0010
0010
,  // measure 23
1000
0010
0100
0001
,  // measure 24
0001
0100
0010
1000
,  // measure 25
1000
0100
0010
0001
,  // measure 26
2002
0000
0000
3003
,  // measure 27
1001
0001
0100
1000
,  // measure 28
2000
3100
0002
0013
,  // measure 29
0100
0100
1000
0001
,  // measure 30
0200
0010
0301
0001
,  // measure 31
2000
0000
3200
0000
0302
0000
0103
1000
,  // measure 32
0000
1000
0002
0000
0023
0000
0230
0000
,  // measure 33
1300
0000
0001
0000
0100
0010
0000
1001
,  // measure 34
0000
0001
1000
0000
0100
0000
0100
0000
,  // measure 35
1001
0001
0010
1000
,  // measure 36
2000
3010
0002
0103
,  // measure 37
0010
0010
1000
0001
,  // measure 38
0020
0100
0031
0001
,  // measure 39
2000
0000
0100
0000
3002
0000
0103
0020
,  // measure 40
0000
1030
0002
0000
0013
0100
2000
0000
,  // measure 41
3010
0001
0100
1000
,  // measure 42
2002
0000
0000
3003
,  // measure 43
1010
1001
1000
0001
,  // measure 44
0010
0100
1000
0001
,  // measure 45
0200
0000
0010
0310
,  // measure 46
1000
0100
0001
0100
,  // measure 47
1100
1001
1000
0001
,  // measure 48
0100
0010
1000
0001
,  // measure 49
0010
0010
0100
0100
,  // measure 50
0010
0001
0100
0010
,  // measure 51
1000
0100
0001
0010
,  // measure 52
1000
0100
0001
0010
,  // measure 53
2000
0000
0001
3001
,  // measure 54
0100
0010
1000
0001
,  // measure 55
0011
1001
0001
1000
,  // measure 56
0010
0100
0001
1000
,  // measure 57
0200
0000
0010
0310
,  // measure 58
2002
0000
0000
3003
,  // measure 59
0002
0000
1003
0000
0200
0000
0301
0100
,  // measure 60
2000
0000
3001
0000
0200
0000
0310
1000
,  // measure 61
0002
0000
0013
0000
2000
0000
3010
0001
,  // measure 62
2002
0000
0000
3003
0000
0000
0000
0000
0220
0000
0330
0000
0110
0000
0110
0000
,  // measure 63
1001
1000
0100
0001
,  // measure 64
0002
0103
2000
3010
,  // measure 65
0100
0100
0001
1000
,  // measure 66
0200
0010
1300
1000
,  // measure 67
0002
0000
0010
0000
2003
0000
3010
0200
,  // measure 68
0000
0301
2000
0000
3100
0010
0002
0000
,  // measure 69
0103
1000
0010
0001
,  // measure 70
2002
3003
0100
0010
,  // measure 71
0220
0000
0000
0000
,  // measure 72
0000
0000
0000
0000
,  // measure 73
0330
0000
0000
0000
;
