#VERSION:0.82;
#TITLE:Z;
#SUBTITLE:;
#ARTIST:DM Ashura;
#TITLETRANSLIT:;
#SUBTITLETRANSLIT:;
#ARTISTTRANSLIT:;
#GENRE:;
#ORIGIN:;
#CREDIT:;
#BANNER:Z.png;
#BACKGROUND:Z-bg.png;
#PREVIEWVID:;
#JACKET:Z-jacket.png;
#CDIMAGE:;
#DISCIMAGE:;
#LYRICSPATH:;
#CDTITLE:;
#MUSIC:Z.mp3;
#OFFSET:-0.186984;
#SAMPLESTART:6.643957;
#SAMPLELENGTH:15.000000;
#SELECTABLE:YES;
#BPMS:0.000=150.000,
16.000=300.000,
144.000=25.000,
144.167=37.500,
144.417=40.625,
144.688=46.875,
145.000=50.000,
145.333=75.000,
145.833=81.250,
146.375=93.750,
147.000=150.000,
179.000=300.000,
307.000=150.000,
323.000=300.000,
355.000=75.000;
#STOPS:;
#DELAYS:;
#WARPS:;
#TIMESIGNATURES:0.000=4=4;
#TICKCOUNTS:0.000=4;
#COMBOS:0.000=1;
#SPEEDS:0.000=1.000=0.000=0;
#SCROLLS:0.000=1.000;
#FAKES:;
#LABELS:0.000=Song Start;
#BGCHANGES:;
#KEYSOUNDS:;
#ATTACKS:
;

//---------------dance-single - ----------------
#NOTEDATA:;
#CHARTNAME:;
#STEPSTYPE:dance-single;
#DESCRIPTION:;
#CHARTSTYLE:;
#DIFFICULTY:Hard;
#METER:10;
#RADARVALUES:0.820555,1.000000,0.907511,0.121739,0.071937,426.000000,82.000000,11.000000,0.000000,0.000000,0.000000,0.000000,0.000000,0.820555,1.000000,0.907511,0.121739,0.071937,426.000000,82.000000,11.000000,0.000000,0.000000,0.000000,0.000000,0.000000;
#CREDIT:;
#NOTES:
0000
0000
0000
0000
,
0000
0000
0000
0000
,
0000
0000
0000
0000
,
1000
0010
1000
0010
1000
0010
1000
0000
0011
0000
0001
0000
0101
0000
0010
0000
,
1100
0000
0000
1100
0000
0000
1000
0001
,
0000
0100
1000
0100
0001
0000
1000
0000
,
1010
0000
0000
1010
0000
0000
1000
0001
,
0000
0010
1000
0010
0001
0000
1000
0000
,
0011
0000
0000
0011
0000
0000
0001
1000
,
0000
0100
0001
0100
1000
0000
0001
0000
,
1100
0000
0000
1100
0000
0000
0001
1000
,
0000
0010
0001
0010
1000
0000
0010
0000
,
0101
0000
0000
1001
0000
0000
1000
0100
,
0000
1000
0010
0100
0001
0000
0010
0000
,
1100
0000
0000
0101
0000
0000
1000
0010
,
0000
0100
0001
0010
0100
0000
1000
0000
,
1010
0000
0000
1001
0000
0000
0001
0100
,
0000
1000
0100
0001
0010
0000
0100
0000
,
1100
0000
0000
0101
0000
0000
1000
0100
,
0010
0001
1000
0010
0100
0001
0010
0100
,
1000
0010
1010
0100
,
0011
0000
1000
0000
1100
0000
0010
0001
,
0010
0100
1100
0010
,
0101
0000
1000
0000
1010
0000
0100
0001
,
0100
0001
0011
0100
,
1010
0000
0001
0000
0101
0000
0010
1000
,
0010
0100
0101
0010
,
1100
0000
0001
0000
0011
0000
0100
1000
,
0010
0010
1010
0010
,
0011
0000
0010
0000
0110
0000
1000
0100
,
0010
0010
0011
0010
,
1010
0000
0010
0000
0110
0000
0001
0010
,
0100
1000
1100
0001
,
1010
0000
0100
0000
0101
0000
1000
0010
,
0100
0001
0101
1000
,
0001
1000
0100
0010
0001
0100
1000
0100
,
0002
0000
0000
0000
0000
0003
1010
0000
,
0000
0000
0000
0000
0101
0000
0000
0100
0000
0000
0001
0000
0010
0000
0000
1000
,
0000
0000
0010
0000
0001
0000
0000
1000
0000
0000
0010
0000
0110
0000
0000
0000
,
0000
0000
0001
0010
0100
0000
0000
0000
1000
0000
0001
0000
0000
0000
0020
0000
,
0000
0000
0030
0000
0001
0100
0101
0000
,
0000
0000
1000
0000
0000
0000
0000
0000
0100
0000
1000
0000
1010
0000
0000
0100
,
0000
0001
0000
0000
1000
0001
0102
0000
,
0000
0010
0010
0000
0000
1000
1000
0000
,
0010
0000
0100
0100
0100
0103
1010
0000
,
0010
1000
0010
0101
,
0001
0100
0010
1000
,
0100
0010
0100
0000
1000
0000
0001
0000
,
0100
0010
0100
0000
0001
0000
1000
0000
,
0100
0000
0010
0000
0001
0010
1000
0000
,
0010
0110
0000
1000
,
0010
0001
1000
0100
,
0001
0010
0100
1100
,
1000
0001
0101
0100
,
0010
1000
0100
0002
,
0000
0203
0000
0000
2300
0000
3020
0000
,
0000
0230
0000
0000
0302
0000
1003
0000
,
0100
0000
1000
0000
0001
0010
0100
0000
,
1000
0000
0010
0000
0100
0001
0010
0000
,
0100
0000
1000
0000
0010
0100
0001
0000
,
1000
0000
0100
0000
0010
0001
1000
0000
,
0010
0100
0000
0000
0001
0100
0000
0100
,
0001
1010
0001
0011
,
1000
0001
0000
0000
1000
0100
0000
0100
,
1000
1010
0001
0101
,
0010
1000
0000
0000
0001
0010
0000
0010
,
0001
0101
0010
1100
,
1000
0001
0000
0000
0100
0010
0000
0010
,
0100
0101
1000
0011
,
0100
1000
0001
0000
1000
0010
0100
0010
,
1000
0101
0010
1100
,
0010
0001
1000
0000
0100
0010
0000
0010
,
0100
1100
0010
0101
,
0010
1000
0001
0000
0010
0100
0000
0100
,
0010
0011
0100
1100
,
0001
1000
0010
0000
0100
0001
1000
0100
,
0010
0001
1000
0010
0100
0001
1000
0100
,
1000
0000
1010
0000
0010
0000
0100
0000
0001
0000
1000
0010
1000
0000
0100
0000
,
0010
0000
0011
0000
0000
0000
1100
0000
1001
0000
0001
1000
0001
0000
0100
0000
,
0010
0000
1010
0000
0101
0000
0001
0000
1000
0000
0100
0010
0100
0000
0000
1100
,
0000
0000
0011
0000
0000
0000
0110
0000
1001
0000
0001
0100
0001
0000
0000
0000
,
1000
0100
0011
0010
,
0100
0000
1000
0000
0001
0010
0001
0000
,
0100
0010
1010
0100
,
0101
0000
1001
0000
1000
0001
1000
0000
,
0100
0010
0011
1100
,
0001
0000
0100
0000
0010
1000
0001
0100
,
0010
0100
0001
0010
1000
0010
0001
1000
,
0100
0001
0100
1000
0010
0100
2002
0000
,
0000
0000
0000
0000
0000
0000
0000
3003
0000
0000
0000
0000
0000
0000
0000
0000
;

//---------------dance-single - ----------------
#NOTEDATA:;
#CHARTNAME:;
#STEPSTYPE:dance-single;
#DESCRIPTION:;
#CHARTSTYLE:;
#DIFFICULTY:Challenge;
#METER:10;
#RADARVALUES:0.958104,1.000000,1.000000,0.110672,0.143874,493.000000,103.000000,10.000000,0.000000,0.000000,0.000000,0.000000,0.000000,0.958104,1.000000,1.000000,0.110672,0.143874,493.000000,103.000000,10.000000,0.000000,0.000000,0.000000,0.000000,0.000000;
#CREDIT:;
#NOTES:
// measure 0
0000
0000
0000
0000
,  // measure 1
0000
0000
0000
0000
,  // measure 2
0000
0000
0000
0000
,  // measure 3
1000
0010
0100
0001
0010
0100
1000
0000
1001
0000
0101
0000
0011
0000
1100
0000
,  // measure 4
1010
0000
0000
1010
0000
0000
0100
0001
,  // measure 5
0000
0010
1000
0010
0001
0000
1000
0000
,  // measure 6
0101
0000
0000
0101
0000
0000
0001
1000
,  // measure 7
0000
0100
0001
0100
1000
0000
0100
0000
,  // measure 8
0011
0000
0000
0011
0000
0000
0001
1000
,  // measure 9
0000
0010
0001
0010
1000
0000
0001
0000
,  // measure 10
1100
0000
0000
1100
0000
0000
0010
0001
,  // measure 11
0000
0100
1000
0100
0001
0000
1000
0010
,  // measure 12
1010
0000
0001
0010
0100
0000
1000
0010
,  // measure 13
0000
0010
1000
0100
0001
0000
0100
0000
,  // measure 14
0011
0000
0100
1000
0010
0000
0100
0001
,  // measure 15
0000
0001
0010
1000
0010
0000
0001
0000
,  // measure 16
1100
0000
0001
0100
0010
0000
1000
0100
,  // measure 17
0000
0100
1000
0010
0001
0000
0010
0000
,  // measure 18
0100
0001
0100
0001
1000
0010
1000
0010
,  // measure 19
1000
0100
0010
0001
0100
0010
1000
0001
,  // measure 20
1001
0010
1010
0100
,  // measure 21
0011
0000
0000
0000
1000
0000
0000
0000
1100
0000
0000
0000
0001
1000
0001
1000
,  // measure 22
0001
0100
0101
0010
,  // measure 23
1100
0000
0001
0000
0011
0000
0100
1000
,  // measure 24
1100
0001
0011
0100
,  // measure 25
1010
0000
0000
0000
0001
0000
0000
0000
0101
0000
0000
0000
1000
0001
1000
0001
,  // measure 26
1000
0100
1100
0010
,  // measure 27
0101
0000
1000
0000
0001
1000
0001
1000
,  // measure 28
1100
0110
0101
0110
,  // measure 29
1100
0000
0000
0000
1001
0000
0000
0000
0110
0000
0000
0000
0001
1000
0001
1000
,  // measure 30
0001
0101
1100
0101
,  // measure 31
1010
0000
1001
0000
0110
0000
0001
0010
,  // measure 32
0011
0001
1000
0010
0100
0001
0100
0010
,  // measure 33
1000
0100
0010
0001
1000
0010
0100
0001
,  // measure 34
1000
0100
0001
0100
1000
0010
0001
0010
,  // measure 35
1000
0000
0100
0000
0010
0000
0001
0000
0100
0000
0010
0000
1000
0001
1000
0001
,  // measure 36
0200
0000
0300
0000
0000
0000
1010
0100
,  // measure 37
0000
0000
0100
0000
0011
0000
0010
0001
0000
0000
0001
0000
1000
0000
0000
0010
,  // measure 38
0000
0000
0001
0000
0010
0000
0000
1000
0000
0000
0100
0000
0110
0000
1000
0000
,  // measure 39
0000
0000
1000
0100
0001
0000
0000
0000
0100
0000
0010
0000
0000
0000
0100
1000
,  // measure 40
0001
0010
0100
1000
0010
0000
0000
0000
0001
0000
0101
0000
0110
0000
0000
0000
,  // measure 41
0000
0000
1000
0000
0000
0000
0000
0000
0100
0000
1100
0000
1010
0000
0000
0100
,  // measure 42
0000
0001
0000
0000
1000
0101
0012
0000
,  // measure 43
0000
0100
0100
0000
0000
1000
1000
0000
,  // measure 44
0100
0000
0010
0010
0010
0013
1100
0000
,  // measure 45
0001
0010
0001
0101
,  // measure 46
1000
0100
0010
0001
,  // measure 47
0100
1000
0000
1000
0100
0000
0001
0000
,  // measure 48
0010
1000
0000
1000
0010
0000
0100
1000
,  // measure 49
0001
0000
1000
0010
0000
0001
0010
0000
,  // measure 50
1000
0100
0000
0001
0100
0000
1000
0010
,  // measure 51
0100
0001
1000
0100
0001
0100
1000
0010
,  // measure 52
0100
0001
0010
0100
1000
0001
0100
0000
,  // measure 53
1000
0100
0001
0010
,  // measure 54
1000
0010
0001
2000
,  // measure 55
0000
3200
0000
0000
0302
0000
0023
0000
,  // measure 56
0000
0230
0000
0000
0302
0000
1003
0000
,  // measure 57
0010
0000
0100
0000
1000
0100
0001
0000
,  // measure 58
0010
0000
0100
0000
0001
0100
1000
0001
,  // measure 59
1000
0010
0100
0001
0010
0100
1000
0010
,  // measure 60
0001
0010
1000
0100
0001
0100
1100
0000
,  // measure 61
0000
1100
0000
0000
0001
0011
0000
0010
,  // measure 62
0011
1100
1010
0101
,  // measure 63
0000
0101
0000
0000
1000
1010
0000
0010
,  // measure 64
1010
0101
0011
1010
,  // measure 65
0000
1010
0000
0000
0100
0101
0000
0001
,  // measure 66
0101
1010
1100
0011
,  // measure 67
0000
0011
0000
0000
0100
1100
0000
1000
,  // measure 68
1100
0011
1010
0101
,  // measure 69
0100
0001
0010
0000
0100
1000
0010
1000
,  // measure 70
0100
0000
0011
0000
1100
0000
0010
0001
,  // measure 71
0100
0001
0010
0000
0100
1000
0000
1000
,  // measure 72
0001
0101
0010
1100
,  // measure 73
0100
0001
0000
0001
0010
0000
0010
1000
,  // measure 74
0000
1000
0100
0000
0010
0000
0001
0100
,  // measure 75
0010
1000
0001
0010
0100
1000
0010
0001
,  // measure 76
0010
1000
0001
0010
1000
0010
0001
0100
,  // measure 77
0001
0000
1010
0000
0010
0000
1000
0000
0001
0000
1000
0100
1100
0000
1000
0000
,  // measure 78
0001
0000
0011
0000
0100
0000
1100
0000
1001
0000
0001
0010
0011
0000
0001
0000
,  // measure 79
1000
0000
1010
0000
0101
0000
0001
0000
0010
0000
0100
1000
1100
0000
0000
0011
,  // measure 80
0000
0000
0101
0000
0000
0000
0110
0000
1001
0000
0001
1000
1100
0000
0000
0000
,  // measure 81
0100
0100
0110
0010
,  // measure 82
0010
0000
0010
0000
0001
0100
0101
0000
,  // measure 83
0100
0100
0110
0010
,  // measure 84
1010
0000
0000
0000
0101
0000
0000
0000
1000
0001
1000
0001
1000
0000
0010
0000
,  // measure 85
0100
0001
1000
0100
0010
0001
0100
0010
,  // measure 86
1000
0001
0010
0100
1000
0001
1001
1000
,  // measure 87
0100
0001
0100
1000
0010
0001
0010
1000
,  // measure 88
0001
0010
1000
0001
0100
1000
2002
0000
,  // measure 89
0000
0000
0000
0000
0000
0000
0000
3003
0000
0000
0000
0000
0000
0000
0000
0000
;

//---------------dance-single - ----------------
#NOTEDATA:;
#CHARTNAME:;
#STEPSTYPE:dance-single;
#DESCRIPTION:;
#CHARTSTYLE:;
#DIFFICULTY:Medium;
#METER:9;
#RADARVALUES:0.687748,0.989824,0.619764,0.088538,0.044269,371.000000,56.000000,8.000000,0.000000,0.000000,0.000000,0.000000,0.000000,0.687748,0.989824,0.619764,0.088538,0.044269,371.000000,56.000000,8.000000,0.000000,0.000000,0.000000,0.000000,0.000000;
#CREDIT:;
#NOTES:
0000
0000
0000
0000
,
0000
0000
0000
0000
,
0000
0000
0000
0000
,
1000
0010
0100
0001
1000
1000
0001
0001
,
1010
0000
0000
1010
0000
0000
1000
0001
,
0000
0001
1000
0000
0010
0000
0100
0000
,
0101
0000
0000
0101
0000
0000
0100
0010
,
0000
0010
0100
0000
0001
0000
0010
0000
,
0011
0000
0000
0011
0000
0000
0001
1000
,
0000
1000
0001
0000
0010
0000
0100
0000
,
1100
0000
0000
1100
0000
0000
1000
0010
,
0000
0010
1000
0000
0001
0000
0100
0000
,
1010
0000
0000
1010
0000
0000
1000
0001
,
0000
0001
0100
0000
0010
0000
1000
0000
,
1100
0000
0000
1100
0000
0000
0100
0010
,
0000
0010
0001
0000
1000
0000
0100
0000
,
0011
0000
0000
0011
0000
0000
0001
0100
,
0000
0100
0010
0000
1000
0000
0001
0000
,
0101
0100
0001
0010
,
0100
1000
0001
0010
0100
1000
0001
0000
,
1001
1000
0010
1000
,
0010
0000
0100
0000
0001
0000
0100
0001
,
0010
0001
0010
0001
,
1000
0000
0100
0000
1000
0000
0100
1000
,
0001
0100
0001
0100
,
0010
0000
1000
0000
0010
0000
1000
0100
,
0010
0001
0010
0001
,
1000
0000
0100
0000
1000
0000
0001
1000
,
0010
0100
0001
1000
,
0010
0000
0100
0000
0001
0000
1000
0100
,
0010
0001
1000
0100
,
0010
0000
0001
0000
1000
0000
0100
1000
,
0010
0100
0001
0100
,
1000
0000
0100
0000
0010
0000
1000
0100
,
0010
0001
0010
1000
,
0010
0000
0001
0000
1000
0000
0010
0100
,
0020
0000
0000
0000
0000
0030
1010
0000
,
0000
0000
0000
0000
0001
0000
0000
0001
0000
0000
1000
0000
0010
0000
0000
0100
,
0000
0000
0001
0000
1000
0000
0000
0100
0000
0000
0010
0000
0011
0000
0000
0000
,
0000
0000
0001
0010
0100
0000
0000
0000
1000
0000
0010
0000
0000
0000
0200
0000
,
0000
0000
0300
0000
0001
0100
0101
0000
,
0000
0000
0100
0000
0000
0000
0000
0000
0010
0000
1000
0000
1100
0000
0000
0100
,
0000
0010
0000
0000
0001
1000
1001
0000
,
0000
0000
0001
0010
0100
0000
0000
1000
0000
0000
0001
0000
0100
0000
0000
0000
,
0100
0000
0100
0100
0100
0100
0010
0000
,
1000
0010
1000
0001
,
0100
0001
0010
1000
,
0000
0010
0000
0000
0001
0000
1000
0000
,
0000
0100
0000
0000
0001
0000
0100
0000
,
1000
0000
0100
0000
1000
0001
0100
0000
,
0001
1000
0001
0010
,
0100
1000
0010
0100
,
0010
1000
0100
0010
,
0001
0100
0001
1000
,
0100
0010
0001
0010
,
0000
0100
0000
0000
1000
0000
0010
0000
,
0000
0100
0000
0000
0001
0000
2000
0000
,
0000
0000
0000
0000
3001
0010
0200
0000
,
0000
0000
0000
0000
1300
0001
0200
0000
,
0000
0000
0000
0000
0310
1000
0002
0000
,
0000
0000
0000
0000
0013
0100
1000
0000
,
0000
1100
0000
0000
1000
0001
0000
0001
,
1000
1010
0010
0101
,
0000
0101
0000
0000
0001
1000
0000
1000
,
0001
0011
0100
1010
,
0000
1010
0000
0000
0010
0100
0000
0100
,
0010
1010
0100
0101
,
0000
0101
0000
0000
0001
1000
0000
1000
,
0001
0101
0100
1010
,
1000
0100
0001
0100
,
1000
0010
0100
0011
,
0001
0100
1000
0100
,
0001
0010
0100
1010
,
0010
0001
0010
1000
,
0100
0010
0001
0100
,
0100
0000
0010
0000
0010
0000
1000
0001
,
0100
0010
1000
0001
0100
0000
1010
0000
,
1000
1010
0000
1000
0100
0010
0011
0000
,
0001
0011
0000
1001
1001
0000
0110
0000
,
0100
0000
0110
0000
0110
0000
0000
0000
0001
0000
1000
0000
1010
0000
0000
0101
,
0000
0011
0000
1100
1001
0001
0011
0000
,
0010
0001
0011
0010
,
0100
1000
0010
1010
,
1000
0010
1010
1000
,
1100
1100
1000
0001
,
0100
1000
0100
0001
,
0010
1000
0010
0001
,
0001
0000
1000
0000
1000
0000
0001
0100
,
0010
1000
0001
0010
0100
0000
2002
0000
,
0000
0000
0000
0000
0000
0000
0000
3003
0000
0000
0000
0000
0000
0000
0000
0000
;

//---------------dance-single - ----------------
#NOTEDATA:;
#CHARTNAME:;
#STEPSTYPE:dance-single;
#DESCRIPTION:;
#CHARTSTYLE:;
#DIFFICULTY:Easy;
#METER:7;
#RADARVALUES:0.441107,0.494912,0.077470,0.099605,0.000000,263.000000,7.000000,9.000000,0.000000,0.000000,0.000000,0.000000,0.000000,0.441107,0.494912,0.077470,0.099605,0.000000,263.000000,7.000000,9.000000,0.000000,0.000000,0.000000,0.000000,0.000000;
#CREDIT:;
#NOTES:
0000
0000
0000
0000
,
0000
0000
0000
0000
,
0000
0000
0000
0000
,
1000
0001
1000
0001
0011
0000
1100
0000
,
0001
0000
0001
0000
,
1000
0100
1000
0000
,
0010
0000
0010
0000
,
0100
0001
0100
0000
,
0010
0000
0010
0000
,
1000
0100
1000
0000
,
0001
0000
0001
0000
,
0010
0100
1000
0100
,
0010
0000
0010
0000
,
0001
1000
0001
0000
,
0100
0000
0100
0000
,
0001
0010
0001
0000
,
1000
0000
1000
0000
,
0010
0100
0010
0000
,
1000
0000
0100
0000
,
0001
1000
0001
1000
,
0010
1000
0010
1000
,
0010
1000
0010
0100
,
0001
0100
0001
0100
,
0001
0100
0001
1000
,
0100
1000
0100
1000
,
0100
1000
0100
0010
,
0001
0010
0001
0010
,
0001
0010
0100
0100
,
0100
1000
0010
1000
,
0100
1000
0010
0100
,
0100
0001
0010
0001
,
0100
0001
0010
0001
,
0002
0000
2003
0000
,
3200
0000
2300
0000
,
3001
0010
0001
0010
,
0100
1000
0001
1000
,
2002
0000
3003
0010
,
0000
0100
0000
1000
,
0010
0001
0010
0100
,
0000
0001
0000
1000
,
0000
0000
0000
0000
0000
0010
0010
0000
,
0000
0000
0000
0000
0000
0100
0100
0000
,
0000
0000
0000
0000
0000
0001
0001
0000
,
0000
1000
0000
0100
,
0100
0000
1000
0001
1000
0001
0010
0000
,
0001
0010
0001
0100
,
0001
0010
0001
1000
,
0000
0100
1000
0001
,
0000
0100
0001
0010
,
0000
0100
0000
1000
,
0001
1000
0000
0010
,
0000
0100
0000
0001
,
0000
0010
0000
0010
,
0000
0000
0100
0000
,
0000
1000
0001
0010
,
0000
0001
1000
0010
,
0000
1000
0001
0200
,
0000
0000
0000
0010
,
0000
0000
0000
0010
,
0000
0010
0000
0310
,
0100
0010
0100
0001
,
0000
0001
0000
1000
,
0001
0010
0000
0100
,
0000
0100
0000
0010
,
0100
1000
0000
0010
,
0000
0010
0000
1000
,
0010
0100
0000
0001
,
0000
0001
0000
1000
,
0010
0100
0001
1000
,
1000
0100
0000
1000
,
0010
1000
0000
0001
,
0001
0100
0000
0001
,
0010
0100
0000
1000
,
1000
0010
0000
0100
,
0001
1000
0000
0010
,
0000
0100
0000
0001
,
1000
0001
1000
0010
,
0000
0010
0000
0000
1000
0000
0001
0000
,
0000
0001
0000
0001
0001
0000
0010
0000
,
0000
0100
0100
0000
0000
0000
1001
0000
,
0000
0110
0000
0000
1001
0000
0010
0000
,
1000
0010
1000
0010
,
1000
0010
1000
0001
,
0100
0001
0100
0001
,
0100
0010
0010
1000
,
0001
1000
0001
1000
,
0001
1000
0001
1000
,
0010
0100
0001
1000
,
0100
0010
0001
2002
,
0000
0000
0000
0000
0000
0000
0000
3003
0000
0000
0000
0000
0000
0000
0000
0000
;

//---------------dance-single - ----------------
#NOTEDATA:;
#CHARTNAME:;
#STEPSTYPE:dance-single;
#DESCRIPTION:;
#CHARTSTYLE:;
#DIFFICULTY:Beginner;
#METER:4;
#RADARVALUES:0.219763,0.346438,0.066403,0.044269,0.000000,129.000000,6.000000,4.000000,0.000000,0.000000,0.000000,0.000000,0.000000,0.219763,0.346438,0.066403,0.044269,0.000000,129.000000,6.000000,4.000000,0.000000,0.000000,0.000000,0.000000,0.000000;
#CREDIT:;
#NOTES:
0000
0000
0000
0000
,
0000
0000
0000
0000
,
0000
0000
0000
0000
,
0000
0000
0000
0000
,
0010
0000
0000
0000
,
0010
0000
0000
0000
,
0001
0000
0000
0000
,
0001
0000
0000
0000
,
0100
0000
0000
0000
,
0100
0000
0000
0000
,
1000
0000
0000
0000
,
1000
0000
0000
0000
,
0010
0000
0000
0000
,
0010
0000
0000
0000
,
1000
0000
0000
0000
,
1000
0000
0000
0000
,
0100
0000
0000
0000
,
0100
0000
0000
0000
,
0010
0000
0010
0000
,
0100
0000
0100
0000
,
1001
0000
1000
0000
,
1000
0000
1000
0000
,
0001
0000
0001
0000
,
0001
0000
0001
0000
,
0100
0000
0100
0000
,
0100
0000
0100
0000
,
0010
0000
0010
0000
,
0010
0000
0010
0000
,
0001
0000
0001
0000
,
0001
0000
0001
0000
,
1000
0000
1000
0000
,
1000
0000
1000
0000
,
0010
0000
0010
0000
,
0010
0000
0010
0000
,
0100
0000
0100
0000
,
0100
0000
0100
0000
,
2002
0000
0000
0000
3003
0000
0000
0000
0000
0010
0000
0000
,
0000
0100
0000
1000
,
0000
0001
0000
0100
,
0000
0100
0000
0000
,
0000
0000
0000
1000
,
0000
0000
0000
0001
,
0000
0000
0000
0010
,
0000
0100
0000
1000
,
1000
0001
0001
0010
,
0000
0010
0000
0100
,
0000
0100
0000
1000
,
0000
0000
0000
0001
,
0000
0000
0000
0100
,
0000
0000
0000
1001
,
0000
0000
0000
0000
,
0000
0000
0000
0000
,
0000
1000
0000
1000
,
0000
0000
0100
0000
,
0000
0001
0000
1001
,
0000
0000
0000
0110
,
0000
0000
0000
0100
,
0000
0000
0000
0100
,
0000
0000
0000
1000
,
0000
0000
0000
0001
,
0000
0000
0000
0010
,
0000
0010
0000
0000
,
0000
0000
0000
0100
,
0000
0100
0000
0000
,
0000
0000
0000
1000
,
0000
1000
0000
0000
,
0000
0000
0000
0001
,
0000
0001
0000
0000
,
0000
0000
0000
1000
,
0000
1000
0000
0100
,
0000
0000
0000
0001
,
0000
0001
0000
0010
,
0000
0000
0000
1000
,
0000
1000
0000
0010
,
0000
0000
0000
0001
,
0000
0001
0000
0100
,
0000
0000
0000
0001
,
0000
0100
0000
0000
0000
0000
1000
0000
,
0000
0100
0000
0000
0000
0000
0001
0000
,
0000
0100
0000
0000
0000
0000
0010
0000
,
0000
0100
0000
1000
,
0000
0010
0000
1000
,
0000
0010
0000
0100
,
0000
0001
0000
0100
,
0000
0001
0000
1000
,
0000
0100
0000
0001
,
0000
0100
0000
1000
,
0000
0001
0000
0100
,
0100
0100
0000
2002
,
0000
0000
0000
0000
0000
0000
0000
3003
0000
0000
0000
0000
0000
0000
0000
0000
;
