#VERSION:0.83;
#TITLE:With You;
#SUBTITLE:;
#ARTIST:Virtual Riot;
#TITLETRANSLIT:;
#SUBTITLETRANSLIT:;
#ARTISTTRANSLIT:;
#GENRE:EDM;
#ORIGIN:;
#CREDIT:;
#BANNER:With You-bn.png;
#BACKGROUND:With You-bg.png;
#PREVIEWVID:;
#JACKET:With You-jacket.png;
#CDIMAGE:cd-title-Benpai.png;
#DISCIMAGE:;
#LYRICSPATH:;
#CDTITLE:cd-title-Benpai.png;
#MUSIC:With You.ogg;
#OFFSET:0.009000;
#SAMPLESTART:83.800499;
#SAMPLELENGTH:15.238096;
#SELECTABLE:YES;
#DISPLAYBPM:63.000000:126.000000;
#BPMS:0.000=126.000,
48.000=63.000,
64.000=126.000,
127.500=189.000,
127.875=63.000,
128.000=126.000,
135.500=189.000,
135.875=63.000,
136.000=126.000,
192.000=189.000,
192.750=63.000,
193.000=126.000,
196.000=189.000,
196.375=63.000,
196.500=126.000,
198.000=189.000,
198.750=63.000,
199.000=126.000,
200.000=189.000,
200.750=63.000,
201.000=189.000,
204.000=126.000,
207.000=189.000,
207.750=63.000,
208.000=189.000,
208.750=63.000,
209.000=126.000,
212.000=189.000,
212.375=63.000,
212.500=126.000,
216.000=189.000,
216.750=63.000,
217.000=189.000,
220.000=126.000,
224.000=189.000,
224.750=63.000,
225.000=126.000,
228.000=189.000,
228.375=63.000,
228.500=126.000,
230.000=189.000,
230.750=63.000,
231.000=126.000,
232.000=189.000,
232.750=63.000,
233.000=189.000,
236.000=126.000,
240.000=189.000,
240.750=63.000,
241.000=126.000,
244.000=189.000,
244.375=63.000,
244.500=126.000,
248.000=189.000,
248.750=63.000,
249.000=189.000,
252.000=126.000;
#STOPS:201.000=0.079,
201.500=0.079,
202.000=0.079,
202.500=0.079,
203.000=0.079,
203.500=0.079,
217.000=0.079,
217.500=0.079,
218.000=0.079,
218.500=0.079,
219.000=0.079,
219.500=0.079,
233.000=0.079,
233.500=0.079,
234.000=0.079,
234.500=0.079,
235.000=0.079,
235.500=0.079,
249.000=0.079,
249.500=0.079,
250.000=0.079,
250.500=0.079,
251.000=0.079,
251.500=0.079;
#DELAYS:;
#WARPS:;
#TIMESIGNATURES:0.000=4=4;
#TICKCOUNTS:0.000=4;
#COMBOS:0.000=1;
#SPEEDS:0.000=1.000=0.000=0;
#SCROLLS:0.000=1.000;
#FAKES:;
#LABELS:0.000=Song Start;
#BGCHANGES:;
#KEYSOUNDS:;
#ATTACKS:
;

//---------------dance-single - ----------------
#NOTEDATA:;
#CHARTNAME:;
#STEPSTYPE:dance-single;
#DESCRIPTION:;
#CHARTSTYLE:;
#DIFFICULTY:Challenge;
#METER:10;
#RADARVALUES:0.656666,0.805089,0.349966,0.269204,0.619170,683.000000,631.000000,52.000000,40.000000,73.000000,0.000000,40.000000,0.000000,0.000000,0.656666,0.805089,0.349966,0.269204,0.619170,683.000000,631.000000,52.000000,40.000000,73.000000,0.000000,40.000000,0.000000,0.000000;
#CREDIT:Benpai;
#DISPLAYBPM:63.000000:126.000000;
#NOTES:
// measure 0
0000
0000
0000
0000
,  // measure 1
0000
0000
0000
0000
,  // measure 2
0000
0000
0000
0000
,  // measure 3
0000
0000
0000
0000
0000
0000
0000
0000
10M0
0001
0000
1000
0100
1000
0001
0100
,  // measure 4
M010
0000
0100
0001
1000
0100
0000
0000
1000
0001
1000
0010
0100
0000
0001
0000
,  // measure 5
1000
0000
0100
0010
0000
0001
1000
0010
0100
0000
0001
0010
0100
1000
0010
1000
,  // measure 6
0002
0000
0103
0001
0000
1000
0100
0010
0000
0100
1000
0000
0001
0000
0010
0100
,  // measure 7
0000
0010
0001
1000
0010
0100
0001
1000
0100
1000
0001
0100
0010
0100
0002
0000
,  // measure 8
1003
0100
0010
0001
0100
0010
1000
0001
1000
0100
0010
0001
1000
0010
0100
0001
,  // measure 9
1000
0100
0010
0100
1000
0001
0010
0001
1000
0010
1000
0010
0100
0001
0010
0100
,  // measure 10
0010
0001
1000
0001
1000
0010
1000
0100
0010
0001
0010
0100
1000
0001
0100
0010
,  // measure 11
1000
0000
0001
0000
0100
0000
0001
0000
1000
0000
0001
0000
0010
0000
0100
0000
4000
0004
0000
0000
0000
0000
0000
0000
0000
0000
0000
0000
0000
0000
0000
0000
,  // measure 12
3003
0000
0000
0001
0100
0000
0001
1000
0000
0100
0010
0000
020M
0000
M320
0000
,  // measure 13
0031
1000
0000
0010
1000
0000
0010
0100
0000
0001
0100
0000
00M2
0000
2M03
0000
,  // measure 14
3100
1000
0000
0001
1000
0000
0001
0010
0000
0100
1000
0000
002M
0000
2M30
0000
,  // measure 15
3001
0000
0100
0000
0000
0000
0010
0000
0100
0000
0000
0000
0010
0000
1000
0000
0000
0000
0001
0000
0010
0000
0000
0000
0M01
0010
0001
1000
00M1
1000
0001
0100
,  // measure 16
0001
0001
0000
0100
0100
0000
0010
0010
,  // measure 17
0000
1000
1000
0000
0M02
0023
0230
2300
,  // measure 18
3010
0010
0000
0100
0100
0000
0001
0001
,  // measure 19
0000
1000
1000
0000
020M
0320
0230
2300
,  // measure 20
3001
0001
0000
0100
0100
0000
0010
0010
,  // measure 21
0000
1000
1000
0000
02M0
0320
0032
2003
,  // measure 22
3010
0010
0000
0100
0100
0000
0001
0001
,  // measure 23
0000
0000
1000
0000
1000
0000
0000
0000
0200
0000
0000
0300
0100
0000
1000
0000
,  // measure 24
0MM1
0000
0000
0100
0000
0001
1000
0000
0010
0100
0000
0000
0001
0000
1000
0000
,  // measure 25
1001
0000
0000
0001
0000
0010
0100
0000
1000
0001
0000
0000
0100
0000
0010
0000
,  // measure 26
1010
0000
0000
1000
0000
0001
0010
0000
0100
1000
0000
0000
0001
0000
0100
0000
,  // measure 27
0110
0000
0000
0010
0000
1000
0001
0000
1000
0100
0000
0000
0010
0000
0001
0000
,  // measure 28
0011
0010
0001
1000
0001
1000
0010
0100
,  // measure 29
0010
1000
0001
1000
0100
0010
0100
1000
,  // measure 30
0001
0000
0100
0000
0010
0000
1000
0000
0001
0000
1000
0000
0100
0000
0010
0000
0004
4000
0000
0000
0000
0000
0000
0000
0000
0000
0000
0000
0000
0000
0000
0003
,  // measure 31
30M0
0000
0M00
0000
00M0
0000
0M00
0000
00M0
0000
0M00
0000
00M0
0000
0M00
0000
00M0
0000
0M00
0000
00M0
0000
0M00
0000
0001
0000
0000
0100
0000
0000
0000
0000
0000
0001
0000
0000
1000
0000
0000
0100
0000
0000
0040
0000
0000
0030
0000
0000
,  // measure 32
MM12
0000
0000
0000
4003
3000
0001
0000
0400
0300
0001
0100
M00M
0100
1000
0000
,  // measure 33
0004
0003
1000
0010
M00M
0010
0001
0000
0400
0300
0001
1000
0000
1000
0010
0000
,  // measure 34
M12M
0000
0000
0000
4030
3000
0001
0000
0040
0030
0001
0100
M00M
0100
1000
0000
,  // measure 35
0004
0003
1000
0010
M00M
0010
0001
0000
0401
0000
0310
0000
4100
0000
3010
0000
,  // measure 36
201M
0000
0000
0000
3004
0003
0100
0000
0004
0003
1000
0010
M00M
0010
0001
0000
,  // measure 37
4000
3000
0001
0010
M00M
0010
1000
0000
0400
0300
1000
0100
M00M
0100
0001
0000
,  // measure 38
0201
0000
0310
0000
4000
3000
0001
0000
0001
0000
1000
0100
M00M
0100
0001
0000
,  // measure 39
1000
0000
0400
0300
1001
0000
1000
0000
002M
0000
M230
0000
1300
0100
0010
1000
,  // measure 40
0001
0010
0110
0100
1000
0001
1001
1000
,  // measure 41
0010
0000
0100
0000
0101
0000
0001
0000
1000
0100
0010
0100
1000
0001
0010
0100
,  // measure 42
1000
0010
0110
0100
0001
1000
1001
0001
,  // measure 43
0010
0000
0100
0000
1100
0000
1000
0000
0001
0100
0010
1000
0001
1000
0040
0030
,  // measure 44
1000
0001
1001
1000
0100
0010
0011
0001
,  // measure 45
0100
0000
0010
0000
1010
0000
1000
0000
0001
0100
0010
0100
0001
1000
0100
0010
,  // measure 46
1000
0010
0100
1000
0001
0000
0100
0010
0001
0010
0100
0001
2000
0000
0000
0000
,  // measure 47
0000
0000
0000
0000
0000
0000
0000
3000
0101
0000
0100
0000
0001
0010
0100
0000
,  // measure 48
4MM1
0000
0000
3000
0010
0000
0100
0000
0001
0010
0010
1000
0001
0010
0010
1000
,  // measure 49
0400
0000
0310
0000
0001
0000
1000
0000
1040
0000
0000
0030
0100
0000
0010
0000
,  // measure 50
M41M
0000
0000
0300
0001
0000
1000
0000
1000
0000
0100
0000
0100
0000
0010
0000
,  // measure 51
1002
0000
0000
0000
0103
0000
0010
0000
1000
0000
0001
0000
0401
0000
0000
0300
,  // measure 52
1MM4
0000
0000
0003
0100
0000
0010
0000
1000
0100
0100
0001
1000
0100
0100
0001
,  // measure 53
0040
0130
1000
00M1
0100
M040
0130
0001
,  // measure 54
1MM4
0000
0000
0003
0010
0000
0100
0000
0100
0000
1000
0000
1000
0000
0001
0000
,  // measure 55
0101
0000
4000
3000
1100
0000
0001
0000
M020
0000
023M
0000
1300
0001
0100
0000
,  // measure 56
M14M
0000
0000
0030
1000
0000
0100
0000
1000
0100
0100
0001
1000
0100
0100
0001
,  // measure 57
0040
0000
0130
0000
1000
0000
0001
0000
0401
0000
0000
0300
0010
0000
0100
0000
,  // measure 58
M14M
0000
0000
0030
1000
0000
0001
0000
0001
0000
0010
0000
0010
0000
0100
0000
,  // measure 59
2001
0000
3010
0100
0110
0001
1100
0100
,  // measure 60
4MM1
0000
0000
3000
0010
0000
0100
0000
0001
0010
0010
1000
0001
0010
0010
1000
,  // measure 61
0400
0000
0310
0000
0001
0000
1000
0000
0010
0000
0040
0000
0130
0001
1000
0000
,  // measure 62
4MM1
0000
0000
3000
0100
0000
0010
0000
0010
0000
0001
0000
0001
0000
1000
0000
,  // measure 63
1010
0000
0000
0101
0000
0000
1001
0000
0000
1100
0100
0010
0001
1000
0010
0100
,  // measure 64
0001
1000
1001
0001
0010
0100
1100
1000
,  // measure 65
0001
0000
0100
0000
0110
0000
0010
0000
1000
0001
1000
0100
0010
0100
1000
0001
,  // measure 66
0010
0100
0110
0010
0001
1000
1010
0010
,  // measure 67
0100
0000
0001
0000
1001
0000
1000
0000
0010
0100
0001
0100
0010
1000
0004
0003
,  // measure 68
0020
0230
2300
3002
0103
0010
2010
3001
,  // measure 69
1000
0000
0100
0010
0001
0000
0000
0000
1001
0000
0000
0000
1000
0000
0000
0000
0010
0000
1000
0000
0001
0000
1000
0000
0100
0000
0010
0000
0001
0000
1000
0000
,  // measure 70
0010
0100
1000
0100
0000
0001
1000
0100
0001
0100
1000
0010
020M
0000
0000
0000
,  // measure 71
0000
0000
0000
0000
0000
0000
0000
0300
0101
0000
0001
0000
1000
0100
0010
0000
,  // measure 72
2MM2
0000
3003
0000
;

//---------------dance-single - ----------------
#NOTEDATA:;
#CHARTNAME:;
#STEPSTYPE:dance-single;
#DESCRIPTION:;
#CHARTSTYLE:;
#DIFFICULTY:Beginner;
#METER:1;
#RADARVALUES:0.069224,0.121142,0.000000,0.127872,0.000000,72.000000,72.000000,0.000000,19.000000,24.000000,0.000000,0.000000,0.000000,0.000000,0.069224,0.121142,0.000000,0.127872,0.000000,72.000000,72.000000,0.000000,19.000000,24.000000,0.000000,0.000000,0.000000,0.000000;
#CREDIT:Benpai;
#DISPLAYBPM:63.000000:126.000000;
#NOTES:
0000
0000
0000
0000
,
0000
0000
0000
0000
,
0000
0000
0000
0000
,
0000
0000
0000
0000
,
1000
0000
0000
0000
,
0010
0000
0000
0000
,
0200
0300
0000
0000
0000
0000
0000
0000
,
0001
0000
0000
0000
,
1000
0000
0000
0000
,
0100
0000
0000
0000
,
0010
0000
0000
0000
,
0001
0000
0000
0000
,
0010
0000
0000
0000
,
0100
0000
0000
0000
,
0010
0000
0000
0000
,
0001
0000
0000
0000
,
1000
0000
0000
0000
,
0000
0000
0001
0000
,
0100
0000
0000
0000
,
0000
0000
0001
0000
,
1000
0000
0000
0000
,
0000
0000
0001
0000
,
0010
0000
0000
0000
,
0000
0000
0100
0000
,
1000
0000
0000
0000
,
0001
0000
0000
0000
,
0100
0000
0000
0000
,
0001
0000
0000
0000
,
1000
0000
0100
0000
,
1000
0000
0001
0000
,
1000
0000
0000
0000
,
0020
0000
0000
0000
,
0130
0000
0000
0000
,
0001
0000
0000
0000
,
0010
0000
0000
0000
,
0001
0000
0000
0000
,
1000
0000
0000
0000
,
0100
0000
0000
0000
,
1000
0000
0000
0000
,
0001
0000
0000
0000
,
1000
0000
0000
0000
,
0010
0000
0000
0000
,
0100
0000
0000
0000
,
0001
0000
0000
0000
,
1000
0000
0000
0000
,
0100
0000
0000
0000
,
0010
0000
0000
0002
,
0000
0000
0000
0003
,
0020
0030
0000
0000
0000
0000
0000
0000
,
0200
0300
0000
0000
0000
0000
0000
0000
,
2000
3000
000M
00M0
000M
00M0
000M
00M0
,
0200
0300
0000
0000
0000
0000
0000
0000
,
0020
0030
0000
0000
0000
0000
0000
0000
,
0002
0003
0000
0000
0000
0000
0000
0000
,
0200
0300
00M0
M000
00M0
M000
00M0
M000
,
0002
0003
0000
0000
0000
0000
0000
0000
,
2000
3000
0000
0000
0000
0000
0000
0000
,
0020
0030
0000
0000
0000
0000
0000
0000
,
0200
0300
000M
M000
000M
M000
000M
M000
,
0020
0030
0000
0000
0000
0000
0000
0000
,
2000
3000
0000
0000
0000
0000
0000
0000
,
0200
0300
0000
0000
0000
0000
0000
0000
,
0020
0030
M000
0M00
M000
0M00
M000
0M00
,
0001
0000
0100
0000
,
0001
0000
0000
0000
,
1000
0000
0000
0000
,
0100
0000
0000
0000
,
1000
0000
0000
0000
,
0010
0000
0000
0000
,
0100
0000
0000
0000
,
0001
0000
0000
0200
,
0000
0000
0000
0000
,
0301
0000
0000
0000
;

//---------------dance-single - ----------------
#NOTEDATA:;
#CHARTNAME:;
#STEPSTYPE:dance-single;
#DESCRIPTION:;
#CHARTSTYLE:;
#DIFFICULTY:Easy;
#METER:3;
#RADARVALUES:0.159600,0.242284,0.020190,0.215364,0.000000,166.000000,163.000000,3.000000,32.000000,0.000000,0.000000,0.000000,0.000000,0.000000,0.159600,0.242284,0.020190,0.215364,0.000000,166.000000,163.000000,3.000000,32.000000,0.000000,0.000000,0.000000,0.000000,0.000000;
#CREDIT:Benpai;
#DISPLAYBPM:63.000000:126.000000;
#NOTES:
0000
0000
0000
0000
,
0000
0000
0000
0000
,
0000
0000
0000
0000
,
0000
0000
0000
0000
,
1000
0000
0010
0000
,
1000
0000
0001
0000
,
2000
3000
0000
0000
0100
0000
0000
0000
,
0010
0000
0001
0000
,
0100
0000
0010
0000
,
0100
0000
0001
0000
,
1000
0000
0100
0000
,
1000
0000
0001
0000
,
0010
0000
0000
0000
0000
0000
0100
0100
,
0000
0000
0000
0000
0000
0000
1000
1000
,
0000
0000
0000
0000
0000
0000
0001
0001
,
0000
0000
0000
0010
,
0001
0000
1000
0000
,
0010
0000
0100
0100
,
0001
0000
0100
0000
,
0001
0000
0010
0010
,
0100
0000
1000
0000
,
0010
0000
1000
1000
,
0001
0000
0010
0000
,
0100
0000
2000
0000
,
3001
0000
0100
0000
,
0001
0000
1000
0000
,
0001
0000
0010
0000
,
0100
0000
1000
0000
,
0002
0000
0000
0003
0200
0000
0000
0300
,
0020
0000
0000
0030
2000
0000
0000
3000
,
0200
0000
0000
0000
,
0320
0000
0000
0030
,
0100
0000
1000
0000
,
0001
0000
0100
0000
,
0010
0000
1000
0000
,
0100
0000
0010
0000
,
0001
0000
1000
0000
,
0100
0000
1000
0000
,
0010
0000
0100
0000
,
0001
0000
1000
0000
,
0100
0000
0010
0000
,
0100
0000
1000
1000
,
0001
0000
0100
0000
,
0010
0000
0100
0100
,
0001
0000
1000
0000
,
0001
0000
0010
0010
,
0200
0000
0000
2300
0000
0000
3002
0000
,
0000
0000
1003
0001
,
2000
3000
0100
0000
0000
0000
1000
0000
,
0200
0300
0010
0000
0000
0000
0100
0000
,
0020
0030
0001
0000
0000
0000
0010
0000
,
0002
0003
1000
0000
0001
0000
0002
0003
,
2000
3000
0010
0000
0000
0000
1000
0000
,
0020
0030
0100
0000
0000
0000
0010
0000
,
0200
0300
0001
0000
0000
0000
0100
0000
,
0002
1003
0100
0010
,
0002
0003
0100
0000
0000
0000
0001
0000
,
0200
0300
0010
0000
0000
0000
0100
0000
,
0020
0030
1000
0000
0000
0000
0010
0000
,
2000
3000
0001
0000
1001
0000
1001
0000
,
2000
3000
0010
0000
0000
0000
0100
0000
,
0020
0030
1000
0000
0000
0000
0001
0000
,
2000
3000
0100
0000
0000
0000
0010
0000
,
0002
0003
0200
0300
0010
0000
0010
0000
,
1010
0000
1000
0000
,
0001
0000
0100
0100
,
0010
0000
1000
0000
,
0100
0000
0010
0010
,
0001
0000
0100
0000
,
0010
0000
0100
0000
,
0002
0000
0000
2003
0000
0000
3200
0000
,
0000
0000
0000
0000
,
0310
0000
0000
0000
;

//---------------dance-single - ----------------
#NOTEDATA:;
#CHARTNAME:;
#STEPSTYPE:dance-single;
#DESCRIPTION:;
#CHARTSTYLE:;
#DIFFICULTY:Medium;
#METER:5;
#RADARVALUES:0.268243,0.411883,0.033651,0.343236,0.006730,279.000000,274.000000,5.000000,51.000000,26.000000,0.000000,3.000000,0.000000,0.000000,0.268243,0.411883,0.033651,0.343236,0.006730,279.000000,274.000000,5.000000,51.000000,26.000000,0.000000,3.000000,0.000000,0.000000;
#CREDIT:;
#DISPLAYBPM:63.000000:126.000000;
#NOTES:
0000
0000
0000
0000
,
0000
0000
0000
0000
,
0000
0000
0000
0000
,
0000
0000
0000
0000
,
1000
0010
1000
0001
,
0010
0100
1000
0001
,
0200
0310
0100
0001
,
1000
0100
0010
0100
,
1000
0001
0010
0001
,
0100
0010
1000
0010
,
0100
0001
1000
0100
,
0010
0001
1000
1000
,
0MM2
0000
0000
0000
0000
0000
0010
0010
,
2003
0000
0000
0000
0000
0000
0001
0001
,
3200
0000
0000
0000
0000
0000
1000
1000
,
0320
0000
0000
0000
0000
0000
0031
1000
,
0020
0000
0000
2030
0000
0000
3002
0000
,
0000
0023
0000
0000
0130
0000
0100
0000
,
0020
0000
0000
0032
0000
0000
2003
0000
,
0000
3200
0000
0000
0310
0000
0010
0000
,
0002
0000
0000
0203
0000
0000
0320
0000
,
0000
2030
0000
0000
3001
0000
0001
0000
,
0020
0000
0000
0032
0000
0000
0203
0000
,
0000
0320
0000
0000
2030
0000
0000
0000
,
3001
0001
0010
0010
,
0100
0100
1000
1000
,
0010
0010
1000
1000
,
0001
0001
0010
0010
,
0100
1000
0100
1000
0001
0010
0001
0010
,
0001
1000
0001
1000
0010
0100
0010
0100
,
0001
0001
1000
1000
,
0020
0000
0130
0002
,
1MM3
0100
1000
0001
,
0100
0000
0010
0000
0100
0000
0004
0003
,
M010
0100
0010
0001
,
1000
0000
0010
0000
0400
0300
0040
0030
,
1000
0001
1000
0010
,
0100
0001
1000
0100
,
1000
0001
0010
0100
,
1000
00M0
0001
0000
0100
0000
0010
0000
,
0100
0001
1000
0100
,
1000
0001
0010
0010
,
0001
0100
0010
0100
,
0001
1000
0100
0100
,
1000
0010
0100
0010
,
1000
0100
0010
0010
,
0012
0000
0000
2003
0000
0000
3020
0000
,
0000
0000
103M
0010
,
020M
0301
1000
0100
,
002M
0030
0001
0000
2M00
0000
3010
0000
,
020M
0000
0301
0100
0001
0100
0001
0100
,
M020
0030
1000
0000
0001
0000
0020
0000
,
M230
1300
0001
0010
,
M002
0003
0100
0000
0010
0000
1000
0000
,
002M
0000
1030
0010
1000
0010
1000
0010
,
0100
000M
0010
0000
1000
0000
0001
0000
,
20M0
3100
0010
0100
,
200M
3000
0001
0000
02M0
0000
0310
0000
,
020M
0000
0301
1000
0001
1000
0001
1000
,
0M20
0030
0100
0000
0101
0000
1100
0000
,
10M2
0013
0001
1000
,
0M20
0030
0100
0000
0001
0000
1000
0000
,
02M0
0000
0310
0100
0010
0100
0010
0100
,
2000
0000
0000
3002
0000
0000
0203
0000
0000
0302
0000
0000
1003
0000
0000
0000
,
0001
0010
0001
1000
,
0100
0010
0001
0001
,
1000
0010
0100
0010
,
1000
0100
0010
0010
,
0100
1000
0010
0100
,
0001
1000
0100
0100
,
0020
0000
0000
0032
0000
0000
0203
0000
,
0000
0000
0310
1000
,
1MM1
0000
0000
0000
;

//---------------dance-single - ----------------
#NOTEDATA:;
#CHARTNAME:;
#STEPSTYPE:dance-single;
#DESCRIPTION:;
#CHARTSTYLE:;
#DIFFICULTY:Hard;
#METER:8;
#RADARVALUES:0.420151,0.436111,0.087491,0.410537,0.060571,437.000000,424.000000,13.000000,61.000000,34.000000,0.000000,24.000000,0.000000,0.000000,0.420151,0.436111,0.087491,0.410537,0.060571,437.000000,424.000000,13.000000,61.000000,34.000000,0.000000,24.000000,0.000000,0.000000;
#CREDIT:Benpai;
#DISPLAYBPM:63.000000:126.000000;
#NOTES:
0000
0000
0000
0000
,
0000
0000
0000
0000
,
0000
0000
0000
0000
,
0000
0000
0000
0000
,
1000
0010
0100
0010
1000
0001
0010
0001
,
1000
0010
0100
0001
1000
0100
0010
0001
,
0200
0000
0310
0100
0001
1000
0100
0010
,
0100
1000
0001
0100
0010
0100
0001
2000
,
3001
0010
0001
0010
0100
1000
0001
0100
,
0010
0100
0001
1000
0100
0010
0001
1000
,
0010
0100
0010
1000
0001
0100
0001
1000
,
0100
0000
0000
0000
0010
0000
0000
0000
0002
0003
0000
0000
2000
0000
3000
0000
0002
0000
0000
0003
2000
0000
0000
0000
3002
0000
0000
0000
0203
0000
0000
0000
,
M3M2
0000
0000
0000
0000
0000
1000
1000
,
0023
0000
0000
0000
0000
0000
0001
0001
,
0230
0000
0000
0000
0000
0000
0010
0010
,
2300
0000
0000
0000
0000
0000
0000
0000
0000
0000
0000
0000
3001
0100
0001
1000
,
00M1
0001
0000
0100
0100
0000
0010
0010
,
0000
1000
1000
0000
0001
0010
0001
0000
,
1000
1000
0000
0100
0100
0000
0010
0010
,
0000
0001
0001
0000
1000
0100
1000
0000
,
0001
0001
0000
0100
0100
0000
0010
0010
,
0000
1000
1000
0000
0100
0010
0001
0000
,
1000
1000
0000
0100
0100
0000
0010
0010
,
0000
0100
0100
0000
1000
1000
0000
0001
,
0100
0001
1000
0100
,
0010
0100
1000
0001
,
0100
0010
0100
0001
,
1000
0100
0010
0001
,
1000
0010
1000
0001
1000
0100
0010
0001
,
0100
0010
0100
0001
1000
0100
1000
0001
,
0040
0034
4003
3040
,
0230
0000
000M
M000
000M
M000
000M
M000
0310
0000
1000
0000
0002
0000
0000
0000
,
1MM3
0000
0000
0000
0100
0000
1000
0000
0001
0000
0010
0000
0000
0100
0000
0000
,
4000
3000
0001
0000
0000
0100
0000
0000
0040
0030
1000
0000
0004
0000
1003
0000
,
00M1
0000
0000
0000
0010
0000
0100
0000
1000
0000
0010
0000
0000
0100
0000
0000
,
0004
0003
1000
0000
0000
0100
0000
0000
0140
0000
0030
0000
0014
0000
0003
0000
,
1001
0000
0000
0000
1000
0000
0010
0000
0100
0000
0001
0000
0000
0100
0000
0000
,
0004
0003
1000
0000
0000
0100
0000
0000
4000
3000
0001
0000
0000
0010
0000
0000
,
MM11
0000
0000
0000
0001
0000
1000
0000
0010
0000
1000
0000
0000
0001
0000
0000
,
4001
30M0
0001
0000
0010
0100
0010
0001
,
2000
3010
0100
0020
1030
0001
0020
0130
,
0010
0002
1003
0100
4000
0000
3004
0000
,
0203
0310
0100
0002
1003
0100
0020
0031
,
0010
0200
1300
0001
0400
0000
0340
0000
,
2030
3001
0100
0002
1003
0100
0020
0130
,
0010
0002
1003
0010
4000
0000
3040
0000
,
0230
0000
0000
0000
0301
0000
2000
0000
0000
0000
3100
0010
0200
0000
0000
0000
,
0000
0000
0000
0000
031M
0100
1000
0010
,
1M20
0000
0130
0000
0001
0100
0001
1000
,
020M
0310
0001
1000
0M20
0030
0110
0000
,
020M
0000
0301
0100
0001
1000
0001
0010
,
M002
0000
1003
0010
0100
0010
2010
0000
,
32M0
0000
0000
0300
1000
0000
0000
0000
0001
0000
0010
0000
0001
0000
1000
0000
,
0M20
1030
0001
0010
M100
0010
0001
0100
,
M002
0000
1003
0100
1000
0001
0100
0010
,
M100
0000
0004
0003
1000
0000
0010
0000
1000
0000
0100
0000
0010
0000
0100
0000
,
210M
0000
3001
0000
0010
0100
0010
0001
,
2M00
0000
3010
0000
0100
0000
0010
0000
200M
0000
0000
3000
0100
0000
0010
0000
,
M002
0000
0000
0003
1000
0000
0100
0000
1000
0000
0001
0000
1000
0000
0010
0000
,
0200
0301
0100
0001
1001
0000
1100
0000
,
0120
0000
0031
0000
1000
0100
1000
0001
,
0M20
0031
0100
0010
0100
0001
1000
1000
,
02M0
0000
0000
0300
1000
0000
0001
0000
0010
0000
0001
0000
1000
0000
0010
0000
,
0200
0000
0000
0320
0000
0000
0230
0000
0000
0302
0000
0000
1003
0000
0100
0000
,
0020
0031
1000
0002
0103
0010
0200
0301
,
1000
0200
0310
0100
4000
0000
3004
0000
,
0203
0310
0100
0002
1003
0100
0020
0130
,
1000
0002
0013
0100
0040
0000
0430
0000
,
1300
0001
0100
0010
0100
0001
0010
0100
,
1000
0001
1000
0000
0001
0000
0100
0000
0010
0000
0100
0000
0001
0000
1000
0000
,
0020
0000
0000
0000
0130
0000
0002
0000
0000
0000
1003
0100
2000
0000
0000
0000
,
0000
0000
0000
0000
3001
0010
0100
1000
,
1MM1
0000
0000
0000
;
