#TITLE:VAMPIRE;
#SUBTITLE:;
#ARTIST:nyankobrq;
#TITLETRANSLIT:;
#SUBTITLETRANSLIT:;
#ARTISTTRANSLIT:;
#GENRE:;
#CREDIT:;
#BANNER:[Tech Savvy] - VAMPIRE.png;
#BACKGROUND:[Tech Savvy] - VAMPIRE-bg.png;
#LYRICSPATH:;
#CDTITLE:cdtitle.png;
#MUSIC:[Tech Savvy] - VAMPIRE.mp3;
#OFFSET:1.046000;
#SAMPLESTART:27.086018;
#SAMPLELENGTH:15.000000;
#LASTBEATHINT:0.092839;
#SELECTABLE:YES;
#BPMS:0.000000=145.000000
;
#STOPS:118.000000=0.416000,
245.000000=0.416000
;
#BGCHANGES:;
#KEYSOUNDS:;
#ATTACKS:;

//---------------dance-single - ----------------
#NOTES:
     dance-single:
     :
     Challenge:
     10:
     0.665915,0.776248,0.231008,0.363012,0.585770,493.000000,28.000000,44.000000,0.000000,0.000000,0.000000,0.665915,0.776248,0.231008,0.363012,0.585770,493.000000,28.000000,44.000000,0.000000,0.000000,0.000000:
0000
0000
0000
0000
,
0000
0000
0000
0000
,
0000
0000
0000
0000
,
0000
0000
0000
0000
,
0000
0000
0000
0000
,
2000
0000
0000
0000
,
3200
0000
0000
0000
,
0320
0000
0000
0000
0000
0000
0000
0000
0000
0000
0000
0000
0000
0000
0031
0001
,
0100
0000
0010
0000
1000
0000
0100
0000
0010
0001
0000
1000
0010
0000
0010
0000
,
0010
1000
0100
0010
0001
0100
0000
0000
,
1000
0010
0001
1000
0100
0001
0000
0000
,
0010
0001
0100
0010
1000
0100
0000
0000
,
0001
0010
1000
0001
0100
1000
0000
0000
,
0010
1000
0100
1000
0001
0010
0100
1000
,
0010
0100
0001
0100
0010
1000
0001
0200
,
0020
0000
0000
0330
,
0001
1000
0001
0000
0010
0000
0001
0100
0001
0000
1000
0010
2000
0000
0000
0000
,
0100
0000
0000
0000
3000
0000
0000
0000
1000
0100
0000
0010
0000
0100
0100
0100
,
0100
0000
0000
0000
0020
0000
0000
2030
0000
0000
3200
0000
0000
0302
0000
0000
,
0013
0000
0001
0000
1000
0000
0100
0001
0000
0000
0100
1000
0100
0010
0001
0000
,
0001
0000
0010
0000
0001
0100
0000
1000
0000
0000
0100
0000
0001
1000
0100
0000
,
0000
0000
0000
0000
1001
0000
0000
0000
0010
0100
0000
0001
0000
0100
0100
0100
,
0100
0000
0000
0000
0020
0000
0000
0032
0000
0000
0203
0000
0000
2300
0000
0000
,
3010
0000
1000
0000
0001
0000
0100
0001
0000
0000
0010
0100
1000
0001
1000
0000
,
0001
0000
0010
0000
0100
1000
0100
0020
0000
0000
0031
0100
0001
0000
1000
0000
,
0001
0000
0000
0000
0110
0000
0000
0000
1000
0100
0000
0010
0000
0100
0100
0100
,
0100
0000
0000
0000
0020
0000
0000
2030
0000
0000
3200
0000
0000
0302
0000
0000
,
0013
0000
0000
0000
1000
0000
0000
0010
0000
0000
0100
0000
0001
0000
0010
0100
,
0000
1000
0000
0000
0001
0000
0100
0000
1000
0000
0100
0001
0000
0001
0100
0001
,
0010
0000
0000
0000
0001
0000
0000
0000
0010
0000
0000
0000
0100
0000
0000
0000
0010
0000
0000
0000
0100
0000
0000
0000
1000
0000
0000
0000
0000
0000
0000
0000
0000
0000
0000
0000
1000
0000
0000
0100
0000
0000
2000
0000
0000
0000
0000
0000
,
3001
0000
0000
0011
0000
0000
1100
0000
1001
0000
0000
0000
0002
0000
0000
0000
,
0103
0000
0000
0000
0000
0000
0100
1000
0001
0100
0010
2000
0000
0000
0000
0000
,
3001
0000
0000
0100
0000
0000
0100
0000
1001
0000
0000
0000
1000
0000
0001
0000
,
0100
0001
0000
1000
0000
0010
0000
1000
0001
0000
1000
0100
0000
0000
0001
0000
,
1000
0100
0000
0100
0010
0000
0010
0001
0000
1000
0000
1000
0100
1000
0100
1000
,
0001
0100
0001
0100
0010
1000
0010
1000
0001
0010
0001
0100
0000
0000
0010
0001
,
0000
0001
0000
1000
0000
1000
0010
0000
0100
0000
0100
0000
0002
0000
0000
0000
,
0000
0100
0000
1000
0003
0100
2000
0000
,
0001
0000
0000
0100
0000
0000
0100
0000
3001
0000
0000
0000
0002
0000
0000
0000
,
0000
0100
1003
0100
0100
0001
0100
0010
,
1000
0010
0002
0000
2003
0000
3001
1000
,
0001
0100
1000
0100
0001
0010
0100
0010
,
0001
0000
1000
0000
0100
1000
0000
1000
0100
0000
0100
0000
1000
0000
0010
0000
,
1000
0100
0001
0100
1000
0001
0010
0001
,
1000
0000
0100
0000
0010
0001
0000
0001
0010
0000
0010
0000
0001
0000
0100
0000
,
0001
1000
0001
0010
0100
0010
0001
1000
,
0001
0000
0100
0000
0010
1000
0000
1000
0010
0000
0010
1000
0200
0000
0000
0000
,
0000
0000
0000
0000
0000
0000
0000
0000
0300
0000
0000
0000
0010
0001
0010
0000
,
0100
0000
1000
0001
1000
0000
0001
0100
0002
0000
0000
0000
0010
0000
0000
0000
,
0003
0000
0000
0000
0010
1000
0000
0001
0000
0100
0100
0100
0100
0000
0000
0000
,
0101
0000
0000
0110
0000
0000
1100
0000
0000
0110
0000
0000
0201
0000
0010
0000
,
0301
0000
1000
0010
0000
0000
1000
0001
0010
0100
1000
0000
0001
0000
1000
0000
,
0100
1000
0001
0010
0000
0000
0001
0000
0001
1000
0100
0000
0000
0000
0000
0000
,
1001
0000
0000
0000
0001
1000
0000
0010
0000
0100
0100
0100
0100
0000
0000
0000
,
1010
0000
0000
0110
0000
0000
0011
0000
0000
0110
0000
0000
1020
0000
0100
0000
,
1030
0000
0001
0100
0000
0000
0010
0100
0001
1000
0100
0000
1000
0000
0001
0000
,
0100
0001
1000
0010
0000
0000
0010
1000
1000
0000
0010
0000
0110
0000
0000
0000
,
1001
0000
0000
0000
0100
0001
0000
0010
0000
0100
0100
0100
0100
0000
0000
0000
,
1001
0000
0000
1010
0000
0000
0011
0000
0000
0120
0000
0000
0032
0000
0000
0000
,
2003
0000
0000
3010
0000
0000
1000
0000
0001
0000
0010
0100
0000
0100
0000
0000
,
0001
0000
0000
0000
0000
0000
0100
0000
0000
0000
0000
0000
0010
0000
0000
0000
0000
0000
0100
0000
0000
0001
0000
0000
0000
0000
0000
0001
0000
0000
0100
0000
0000
0010
0000
0000
1000
0000
0000
0000
0010
0000
0000
0000
1000
0000
0000
0000
,
0001
0000
0000
0000
0100
0000
0000
0000
0001
0000
0000
0000
0010
0000
0000
0000
0000
0000
0000
0000
0000
0000
0000
0000
0001
0000
0000
0100
0000
0000
0002
0000
0000
0000
0000
0000
1003
0000
0000
0000
0000
0000
0000
0000
0000
1010
0000
0000
,
0000
0101
1001
0000
2000
0000
3100
0000
,
0000
0000
0100
1000
0001
0100
0001
0020
0000
0000
0000
0000
0031
0000
0000
0100
,
0000
0100
1001
0000
2000
0100
3001
0010
,
0002
0100
1003
0010
2000
0100
3001
0010
,
0001
0100
0000
0100
0001
0000
0001
0000
0020
0000
0001
0000
0130
0000
1000
0000
,
0020
1000
0130
0001
0020
0001
0130
1000
,
0010
0100
0000
0100
0010
0000
0010
0000
1000
0000
0001
0000
0100
0000
0001
0000
,
1000
0010
1000
0100
0010
0001
1000
0010
,
1000
0001
0000
0001
0010
0000
0010
0001
0200
0000
0000
0000
0000
0000
0000
0000
,
0000
0000
0000
0000
0000
0000
0000
0000
0310
1000
0001
0000
0100
0000
0001
1000
,
0100
0100
0000
0100
0010
0000
1001
0000
0000
0000
0000
0000
0000
0000
0000
0000
;

//---------------dance-single - ----------------
#NOTES:
     dance-single:
     :
     Beginner:
     1:
     0.103718,0.120042,0.016501,0.000000,0.000000,86.000000,2.000000,0.000000,0.000000,0.000000,0.000000,0.103718,0.120042,0.016501,0.000000,0.000000,86.000000,2.000000,0.000000,0.000000,0.000000,0.000000:
0000
0000
0000
0000
,
0000
0000
0000
0000
,
0000
0000
0000
0000
,
0000
0000
0000
0000
,
0000
0000
0000
0000
,
0000
0000
0000
0000
,
0000
0000
0000
0000
,
0000
0000
0000
0000
,
0000
0000
0000
0000
,
1000
0000
0000
0000
,
1000
0000
0000
0000
,
0001
0000
0000
0000
,
0001
0000
0000
0000
,
1000
0000
0000
0000
,
0001
0000
0000
0000
,
0100
0000
0000
0000
,
0100
0000
0000
0010
,
0100
0000
0001
0000
,
0000
0000
0000
0000
,
1000
0000
1000
0000
,
0001
0000
0001
0000
,
0010
0000
0001
0000
,
0000
0000
0000
0000
,
0001
0000
0001
0000
,
1000
0000
1000
0000
,
0100
0000
1000
0000
,
0000
0000
0000
0000
,
1000
0000
0001
0000
,
1000
0000
0001
0000
,
0010
0000
0000
0000
,
0000
0000
0000
0000
,
0010
0010
0000
0000
,
1001
0000
0000
0000
,
1000
0000
0000
0000
,
0100
0000
0000
0000
,
0001
0000
0000
0000
,
0100
0000
0000
0000
,
1000
0000
0000
0000
,
0010
0000
0000
0000
,
0001
0000
0000
0000
,
0010
0000
0000
0000
,
1000
0000
1000
0000
,
1000
0000
1000
0000
,
0001
0000
0001
0000
,
0001
0000
0001
0000
,
0100
0000
0000
0000
,
0010
0000
0000
0000
,
0100
0000
0000
0000
,
0000
0000
0000
0000
,
1001
0000
0000
0000
,
0000
0000
0000
0000
,
0000
0001
0000
0001
,
0000
1000
0000
1000
,
0000
0100
0000
0000
,
0000
0000
0000
0000
,
0000
0001
0000
0001
,
0000
1000
0000
1000
,
0010
0010
0000
0000
,
0000
0000
0000
0000
,
0000
1000
0000
1000
,
0000
0001
0000
0001
,
0100
0000
0100
0000
,
0000
0000
0000
0000
,
0010
0010
0000
0000
,
0000
0000
0000
0000
,
1000
0000
1000
0000
,
1000
0000
1000
0000
,
0001
0000
0001
0000
,
0001
0000
0001
0000
,
0100
0000
0100
0000
,
0100
0000
0100
0000
,
0010
0000
0000
0000
,
0010
0000
0010
0010
;

//---------------dance-single - ----------------
#NOTES:
     dance-single:
     :
     Easy:
     3:
     0.286403,0.298557,0.016501,0.173256,0.024751,220.000000,2.000000,21.000000,0.000000,0.000000,0.000000,0.286403,0.298557,0.016501,0.173256,0.024751,220.000000,2.000000,21.000000,0.000000,0.000000,0.000000:
0000
0000
0000
0000
,
0000
0000
0000
0000
,
0000
0000
0000
0000
,
0000
0000
0000
0000
,
0000
0000
0000
0000
,
1000
0000
0100
0000
,
0001
0000
0100
0000
,
1000
0000
0100
0000
,
0001
0100
0100
1000
,
0002
0023
0031
0000
,
0020
0230
0310
0000
,
0200
2300
3100
0000
,
2000
3020
1030
0000
,
0001
1000
0010
1000
,
0001
0100
0001
0010
,
0200
0000
0000
0300
,
1000
0100
1000
0200
,
0310
0100
0000
0100
,
0000
0000
0000
0000
0001
0000
0000
0001
0000
0000
0001
0000
0000
0000
0000
0000
,
1000
0010
0100
1000
,
0001
0010
0001
0200
,
0300
1001
0100
0010
,
0000
0000
0000
0000
1000
0000
0000
1000
0000
0000
1000
0000
0000
0000
0000
0000
,
0001
0100
0010
0001
,
1000
0100
1000
0002
,
0010
0013
0000
0010
,
0000
0000
0000
0000
0100
0000
0000
0100
0000
0000
0100
0000
0000
0000
0000
0000
,
0001
0100
1000
0100
,
0001
0010
0100
1000
,
0020
0000
0030
0000
,
0100
0000
0100
0001
,
1000
0000
1000
0001
,
0100
0010
1000
0001
,
0001
0001
0001
1000
,
1000
1000
1000
0100
,
0100
0100
0100
0010
,
0010
0010
0010
2000
,
0000
3000
0100
0002
,
0000
0003
0010
2000
,
0000
3001
0100
0001
,
0010
1000
0100
0001
,
0100
0100
1000
1000
,
0001
0010
0010
0001
,
1000
1000
0010
0010
,
0001
0100
0100
0010
,
0001
0001
0100
0100
,
1000
0001
0001
0020
,
0000
0000
0030
0001
,
0100
0001
0200
0310
,
0100
0000
0100
0000
,
1000
0000
0000
1000
0000
0000
1000
0000
0000
0000
0000
0000
0001
0000
0000
0000
,
0010
0100
0001
1000
,
0010
1000
0200
0300
,
1001
0010
0100
0000
,
0001
0000
0000
0001
0000
0000
0001
0000
0000
0000
0000
0000
0010
0000
0000
0000
,
0100
1000
0100
0010
,
0001
0100
0010
2000
,
3100
0000
0100
0000
,
0010
0000
0000
0010
0000
0000
0010
0000
0000
0000
0000
0000
1000
0000
0000
0000
,
0010
0001
0010
1000
,
0010
0100
0001
0020
,
0000
0030
0000
0100
,
0000
0100
0001
1000
,
0000
0100
1000
0001
,
0010
0100
1000
0001
,
0000
0001
0000
0001
,
0100
0100
1000
0010
,
0000
0010
0000
0010
,
0001
0001
1000
0100
,
0000
0100
0000
0100
,
0010
0010
0001
1000
,
0000
1000
0000
1000
,
0001
0000
0100
0100
0000
0000
0000
0000
;

//---------------dance-single - ----------------
#NOTES:
     dance-single:
     :
     Hard:
     8:
     0.531554,0.507547,0.132004,0.338262,0.280510,394.000000,16.000000,41.000000,0.000000,0.000000,0.000000,0.531554,0.507547,0.132004,0.338262,0.280510,394.000000,16.000000,41.000000,0.000000,0.000000,0.000000:
0000
0000
0000
0000
,
0000
0000
0000
0000
,
0000
0000
0000
0000
,
0000
0000
0000
0000
,
0000
0000
0000
0000
,
2000
0100
0000
3100
,
0002
0100
0000
0103
,
2000
0010
0000
3010
,
1000
0001
0100
0001
0010
0100
1000
0000
,
0100
1000
0001
1000
0100
1000
0000
0000
,
0001
0100
0001
1000
0001
0100
0000
0000
,
0010
1000
0001
1000
0100
1000
0000
0000
,
0001
0100
0001
1000
0001
0010
0000
0000
,
0001
0100
0001
0000
0010
0100
0010
0000
,
0100
1000
0100
0000
1000
0001
1000
0010
,
0200
0000
0000
0300
,
0001
1000
0010
1000
0100
0010
0002
0000
,
1000
0000
0003
0000
1100
0000
0000
0000
1000
0010
0000
1000
0000
0100
1000
0000
,
0000
0000
0000
0000
0100
0000
0000
0001
0000
0000
0100
0000
0000
1000
0000
0000
,
0010
0000
0100
0000
0001
0000
0100
0001
0000
0000
0100
0000
0010
0000
1000
0000
,
0001
0000
1000
0000
0100
1000
0000
0010
0000
0000
1000
0000
0001
0000
0200
0000
,
0000
0000
0300
0000
0011
0000
0000
0000
0001
1000
0000
0001
0000
0010
0001
0000
,
0000
0000
0000
0000
0100
0000
0000
1000
0000
0000
0100
0000
0000
0001
0000
0000
,
1000
0000
0010
0000
0100
0000
0001
0100
0000
0000
0010
0000
1000
0000
0100
0000
,
1000
0000
0001
0000
0010
0001
0000
1000
0000
0000
0010
0000
1000
0000
0200
0000
,
0010
0000
0300
0000
1010
0000
0000
0000
0001
0010
0000
0100
0000
0010
0001
0000
,
0000
0000
0000
0000
1000
0000
0000
0001
0000
0000
1000
0000
0000
0001
0000
0000
,
0200
0000
0000
0000
0310
0000
0000
1000
0000
0000
0001
0000
0100
0000
0000
0010
,
0000
0000
0100
0000
0001
0000
0000
0010
0000
0000
0100
0000
1000
0000
0100
0000
,
0020
0000
0000
0030
0101
0000
0100
0000
,
0001
0000
0000
0010
0000
0000
1100
0000
1100
0000
0000
0000
0101
0000
0000
0000
,
1100
0000
0000
0000
0000
0000
0001
0000
0100
0000
0001
0020
0000
0000
0000
0000
,
0031
0000
0000
0100
0000
0000
0010
0000
0010
0000
0000
0000
1000
0000
0001
0000
,
1000
0000
0010
1000
0010
0000
0100
0010
,
0100
0000
0001
0100
0001
0000
0010
0001
,
0010
0000
0100
0010
0100
0000
1000
0100
,
1000
0000
0001
1000
0001
1000
0020
0000
,
0000
0000
1030
0001
1000
0100
0020
0000
,
0031
0100
0000
0001
0000
1000
0020
0000
,
0000
0000
1030
1000
0001
0100
1000
0100
,
0001
0010
2000
0000
3020
0000
0032
0000
,
0013
0100
2000
0000
3100
0010
0002
0000
,
1003
0000
0010
0000
0100
0001
0000
0001
0100
0000
0100
0000
0020
0000
0000
0000
,
1030
0001
0200
0000
0301
1000
0020
0000
,
1030
0000
0001
0000
0010
0100
0000
0100
0010
0000
0010
0000
0200
0000
0000
0000
,
0310
0001
2000
0000
3001
0010
0200
0000
,
1300
0000
0010
0000
1000
0001
0000
0001
1000
0000
1000
0000
0020
0000
0000
0000
,
0000
0000
0000
0000
0030
0000
1000
0100
,
1000
0001
0010
0001
0200
0000
0302
0003
,
1100
0000
0000
0000
1000
0010
0000
0100
0000
0010
1000
0000
0000
0000
0000
0000
,
0100
0000
0000
0001
0000
0000
0100
0000
0000
1000
0000
0000
0010
0000
0100
0000
,
0001
0000
0100
0001
0000
0000
1000
0000
0010
0000
1000
0000
0100
0000
0010
0000
,
0100
1000
0000
0001
0000
0000
1000
0000
0010
0000
1000
0000
0000
0000
0000
0000
,
0011
0000
0000
0000
0001
1000
0000
0100
0000
1000
0001
0000
0000
0000
0000
0000
,
0100
0000
0000
1000
0000
0000
0100
0000
0000
0001
0000
0000
1000
0000
0100
0000
,
0010
0000
0001
0010
0000
0000
0001
0000
0100
0000
0010
0000
1000
0000
0100
0000
,
1000
0010
0000
0100
0000
0000
0001
0000
1000
0000
0100
0000
0020
0000
0030
0000
,
0101
0000
0000
0000
0010
0001
0000
0100
0000
0001
0010
0000
0000
0000
0000
0000
,
0001
0000
0000
1000
0000
0000
0001
0000
0000
1000
0000
0000
0200
0000
0000
0000
,
1300
0000
0000
0001
0000
0000
0100
0000
0001
0000
0000
1000
0000
0000
0100
0000
,
1000
0000
0000
0010
0000
0000
0100
0000
0001
0000
1000
0000
0200
0000
0000
0000
,
0000
0000
0300
0000
1010
0000
0000
0000
0010
0000
0000
0000
0100
0000
0000
1000
,
0000
0011
0011
0000
1010
0000
0011
0000
,
0000
0000
1000
0000
0100
0000
1000
0020
0000
0000
0000
0000
1030
0000
0000
0001
,
0000
0100
0100
0000
0002
0000
0103
0010
,
2000
0000
3010
0100
0002
0000
0103
0010
,
1000
0100
0000
0100
1000
0000
1000
0000
0020
0000
0000
0000
1030
0000
0001
0000
,
0200
0000
0301
1000
0020
0000
1030
0001
,
0010
0001
0000
0001
0010
0000
0010
0000
0200
0000
0000
0000
1300
0000
0010
0000
,
0200
0000
0301
0010
0200
0000
1300
0010
,
0100
0001
0000
0001
0010
0000
0010
0000
0200
0000
0000
0000
0000
0000
0000
0000
,
0000
0000
0300
0000
1000
0001
1000
0000
,
0100
1000
0000
0001
0010
0000
0010
0000
0000
0000
0000
0000
0000
0000
0000
0000
;

//---------------dance-single - ----------------
#NOTES:
     dance-single:
     :
     Medium:
     6:
     0.391299,0.417980,0.033001,0.165006,0.136130,308.000000,4.000000,20.000000,0.000000,0.000000,0.000000,0.391299,0.417980,0.033001,0.165006,0.136130,308.000000,4.000000,20.000000,0.000000,0.000000,0.000000:
// measure 0
0000
0000
0000
0000
,  // measure 1
0000
0000
0000
0000
,  // measure 2
0000
0000
0000
0000
,  // measure 3
0000
0000
0000
0000
,  // measure 4
0000
0000
0000
0000
,  // measure 5
2000
0000
0000
0000
,  // measure 6
3200
0000
0000
0000
,  // measure 7
0320
0000
0000
0000
0000
0000
0030
0001
,  // measure 8
0100
0000
0000
0000
0001
0000
0000
1000
0000
0000
1000
0000
0001
0000
0000
0000
,  // measure 9
0010
0001
0010
0000
1000
0100
0000
0000
,  // measure 10
1000
0010
1000
0000
0001
0100
0000
0000
,  // measure 11
0001
1000
0100
0000
1000
0010
0000
0000
,  // measure 12
1000
0001
0010
0000
0100
1000
0000
0000
,  // measure 13
1000
0100
0100
0001
,  // measure 14
0001
0010
0010
1000
,  // measure 15
0200
0000
0000
0300
,  // measure 16
1000
0100
1000
0000
0001
0010
0002
0000
,  // measure 17
0103
0000
0000
0000
0001
0000
0000
0000
0010
0100
0000
0100
0000
0000
0100
0000
,  // measure 18
1000
0000
0000
0000
0001
0000
0000
0001
0000
0000
0001
0000
0000
0000
0000
0000
,  // measure 19
0100
0000
0001
0000
0010
0000
0000
0010
0000
0000
0001
0000
0100
0000
0000
0000
,  // measure 20
0010
0000
1000
0000
0100
0000
0000
0100
0000
0000
1000
0000
0010
0000
0000
0000
,  // measure 21
0000
0000
0000
0000
1001
0000
0000
0000
0010
0100
0000
0100
0000
0000
0100
0000
,  // measure 22
0001
0000
0000
0000
1000
0000
0000
1000
0000
0000
1000
0000
0000
0000
0000
0000
,  // measure 23
0001
0000
1000
0000
0010
0000
0000
0010
0000
0000
1000
0000
0001
0000
0000
0000
,  // measure 24
0010
0000
0001
0000
1000
0000
0000
1000
0000
0000
0001
0000
0010
0000
0000
0000
,  // measure 25
0002
0000
0000
0000
2003
0000
0000
0000
3100
0010
0000
0010
0000
0000
0010
0000
,  // measure 26
0001
0000
0000
0000
0100
0000
0000
0100
0000
0000
0100
0000
0000
0000
0000
0000
,  // measure 27
0010
0000
0000
0000
0100
0000
0000
0001
0000
0000
1000
0000
0100
0000
0000
1000
,  // measure 28
0000
0001
0100
0000
0100
0000
0100
0000
,  // measure 29
0020
0000
0030
1000
,  // measure 30
0100
0001
0100
1000
,  // measure 31
1010
0000
0000
0000
0000
0000
1000
0000
0100
0000
0000
0020
0000
0000
0000
0000
,  // measure 32
0001
0000
0031
0001
,  // measure 33
0100
0000
0001
0100
0010
0000
1000
0000
,  // measure 34
0100
0000
1000
0001
0010
0000
0100
0000
,  // measure 35
1000
0000
0100
0010
0001
0000
0100
0000
,  // measure 36
0001
0000
0100
0010
1000
0001
0020
0000
,  // measure 37
0000
0000
0000
0001
0031
0000
0200
0000
,  // measure 38
0310
0000
0000
1000
0000
1000
0020
0000
,  // measure 39
0000
1030
0100
0010
,  // measure 40
0001
0100
0010
1000
,  // measure 41
1000
0100
1000
0000
1000
0001
1000
0000
,  // measure 42
1000
0010
0100
0000
0100
0000
0001
0000
,  // measure 43
0001
0100
0001
0000
0001
1000
0001
0000
,  // measure 44
0001
0010
0100
0000
0100
0000
1000
0000
,  // measure 45
1000
0001
0100
0000
1000
0001
0010
0000
,  // measure 46
1000
0100
0010
0000
0100
0000
0020
0000
,  // measure 47
0000
0000
0000
0000
0030
0000
0001
0100
,  // measure 48
0001
0000
1000
0010
2000
0000
3100
0000
,  // measure 49
1000
0000
0000
0000
0010
0100
0000
0100
0000
0000
0100
0000
0001
0000
0000
0000
,  // measure 50
1000
0000
0000
1000
0000
0000
1000
0000
0000
0000
0000
0000
0100
0000
1000
0000
,  // measure 51
0010
0000
0000
0010
0000
0000
0100
0000
0001
0000
0000
0000
0100
0000
0001
0000
,  // measure 52
0010
0000
0000
0010
0000
0000
0100
0000
1000
0000
0000
0000
0000
0000
0000
0000
,  // measure 53
1001
0000
0000
0000
0001
0010
0000
0010
0000
0000
0010
0000
0100
0000
0000
0000
,  // measure 54
0001
0000
0000
0001
0000
0000
0001
0000
0000
0000
0000
0000
0010
0000
0100
0000
,  // measure 55
1000
0000
0000
1000
0000
0000
0001
0000
0100
0000
0000
0000
0010
0000
0100
0000
,  // measure 56
0001
0000
0000
0001
0000
0000
1000
0000
0100
0000
0000
0000
0010
0000
0000
0000
,  // measure 57
0100
0000
0000
0000
0001
1000
0000
1000
0000
0000
1000
0000
0100
0000
0000
0000
,  // measure 58
0010
0000
0000
0010
0000
0000
0010
0000
0000
0000
0000
0000
1000
0000
0000
0000
,  // measure 59
0001
0000
0000
0100
0000
0000
0001
0000
1000
0000
0000
0100
0000
0000
1000
0000
,  // measure 60
0100
0100
0100
0020
,  // measure 61
0000
0030
0001
0100
,  // measure 62
1000
0100
0001
0011
,  // measure 63
0000
0000
0001
0000
0100
0000
0000
0020
0000
0000
0000
0000
1000
0000
0000
0000
,  // measure 64
0000
0000
1030
0000
1000
0000
0001
0100
,  // measure 65
0001
0000
1000
0100
1000
0000
0001
0100
,  // measure 66
0010
0000
0010
0000
0001
0000
1000
0010
,  // measure 67
1000
0000
0001
0010
0001
0000
1000
0010
,  // measure 68
0100
0000
0100
0000
1000
0000
0100
0010
,  // measure 69
0001
0000
0100
0010
1000
0000
0100
0010
,  // measure 70
0001
0001
2000
0000
,  // measure 71
0000
3000
0002
0203
,  // measure 72
0320
0000
1030
1000
0000
0000
0000
0000
;
