#TITLE:Tougenkyou;
#SUBTITLE:;
#ARTIST:MYTK;
#TITLETRANSLIT:;
#SUBTITLETRANSLIT:;
#ARTISTTRANSLIT:;
#GENRE:J-Core;
#CREDIT:;
#BANNER:[Tech Savvy] - Tougenkyou.png;
#BACKGROUND:[Tech Savvy] - Tougenkyou-bg.png;
#LYRICSPATH:;
#CDTITLE:cdtitle.png;
#MUSIC:[Tech Savvy] - Tougenkyou.ogg;
#OFFSET:-0.051218;
#SAMPLESTART:23.402569;
#SAMPLELENGTH:10.378380;
#SELECTABLE:YES;
#BPMS:0.000000=92.500000
,20.000000=185.000000
,48.000000=92.500000
,50.000000=185.000000
,142.000000=138.750000
,145.000000=92.500000
,157.000000=46.250000
,159.000000=185.000000
,215.000000=46.250000
,219.000000=92.500000
,235.000000=185.000000
,267.000000=92.500000
,283.000000=46.250000
;
#STOPS:
;
#BGCHANGES:;
#KEYSOUNDS:;
#ATTACKS:;

//---------------dance-single - ----------------
#NOTES:
     dance-single:
     :
     Challenge:
     10:
     0.707587,1.178233,0.724461,1.173311,0.775646,629.000000,537.000000,92.000000,149.000000,43.000000,0.000000,0.707587,1.178233,0.724461,1.173311,0.775646,629.000000,537.000000,92.000000,149.000000,43.000000,0.000000:
// measure 0
0000
0000
0000
0000
,  // measure 1
0000
0000
0000
0000
,  // measure 2
0000
0000
0000
0000
,  // measure 3
0000
1000
0100
0000
0100
0010
0000
0001
0000
0001
0100
0010
0000
1000
0000
0001
,  // measure 4
0020
0000
0030
0000
0000
0000
0200
0000
0300
0000
0000
0000
2000
0000
3000
0000
0001
0000
0100
0000
0010
0000
0000
1000
0100
1000
0100
0000
0010
0001
0010
0001
,  // measure 5
2000
0000
0000
0000
000M
0000
3000
0000
0000
2010
0000
0000
0000
00M0
0000
3000
0000
0000
2001
0000
0000
0000
000M
0000
,  // measure 6
0000
0000
0000
3000
2200
0000
0000
3300
,  // measure 7
1002
0000
0000
0000
M000
0000
0003
0000
0000
0012
0000
0000
0000
00M0
0000
0003
0000
0000
1002
0000
0000
0000
M000
0000
,  // measure 8
0103
0010
0100
1000
0001
0010
1000
0001
,  // measure 9
0011
0110
0011
1001
,  // measure 10
1010
0110
1010
1001
,  // measure 11
1000
0100
1000
0100
1000
0100
1000
0100
0010
0001
0010
0001
0010
0001
0010
0001
,  // measure 12
0000
M000
00M0
0000
0M00
000M
0000
00M0
2001
0000
0000
0000
3100
0000
2001
0000
,  // measure 13
0000
0000
3010
0002
0013
2000
3100
0120
,  // measure 14
0000
0130
0010
0002
1003
0020
0130
0102
,  // measure 15
0000
0000
0103
0001
1000
0000
0200
0000
0301
0000
0200
0000
0310
0000
0001
0000
,  // measure 16
0200
0000
0000
0000
0000
0000
0000
0000
2300
0000
0000
0000
0000
0000
0000
0000
3100
0000
0000
0000
0000
0000
0000
0000
0002
0000
0000
0000
0000
0000
0000
0003
1002
0000
0000
0000
0000
0000
0000
0000
0000
0000
0000
0000
0000
0000
0000
0000
0103
0000
0000
0000
0000
0000
0000
0000
1002
0000
0000
0000
0000
0000
0000
0000
,  // measure 17
0000
0013
1000
0020
0031
0200
0310
0210
,  // measure 18
0000
0000
0000
0000
0000
0000
0000
0000
1300
0000
0000
0000
0000
0000
0000
0000
0100
0000
0000
0000
0000
0000
0000
0000
0002
0000
0000
0000
0000
0000
0000
0000
0013
0000
0000
0000
0000
0000
0000
0000
0200
0000
0000
0000
0000
0000
0000
0000
0310
0000
0000
0000
0000
0000
0000
0000
0002
0000
0000
0000
0000
0000
0000
0003
,  // measure 19
0002
0000
0103
0000
0010
0000
2000
0000
3001
0000
0010
0000
0100
0000
1000
0100
,  // measure 20
1000
0100
1000
0000
0001
0100
0010
1000
0001
0010
0001
0010
0100
0000
2200
0000
,  // measure 21
3300
0022
0033
0002
0103
2000
3100
0201
,  // measure 22
0000
0310
1000
0002
1003
0200
0310
0210
,  // measure 23
0000
0000
0310
0001
1000
0000
0020
0000
0130
0000
2000
0000
3100
0000
0010
0000
,  // measure 24
2000
0000
0000
0000
0000
0000
0000
0000
3200
0000
0000
0000
0000
0000
0000
0000
0310
0000
0000
0000
0000
0000
0000
0000
0002
0000
0000
0000
0000
0000
0000
0003
0101
0000
0000
0000
0000
0000
0000
0000
0000
0000
0000
0000
0110
0000
0000
0000
0000
0000
0000
0000
0000
0000
0000
0000
2010
0000
0000
0000
0000
0000
0000
0000
,  // measure 25
0000
0000
3001
0000
0010
0100
0010
0001
1000
0000
0020
0000
0000
0000
0130
0000
,  // measure 26
0110
0000
0000
0000
0001
1000
0001
1000
0200
0000
0000
0000
0310
0000
0002
0000
,  // measure 27
2003
0000
3010
0000
0100
0010
0200
0000
0300
0000
0002
0000
0023
0000
0230
0000
,  // measure 28
0300
0000
0000
0000
0000
0000
0000
0000
0020
0000
0000
0000
0000
0000
0000
0000
0032
0000
0000
0000
0000
0000
0000
0000
0203
0000
0000
0000
0000
0000
0000
0300
2001
0000
0000
0000
0000
0000
0000
0000
0000
0000
0000
0000
0000
0000
0000
0000
3100
0000
0000
0000
0000
0000
0000
0000
2001
0000
0000
0000
0000
0000
0000
0000
,  // measure 29
0000
0000
3M1M
0010
0001
0200
0301
0102
,  // measure 30
0000
0000
MM13
0010
1000
0100
0001
0100
,  // measure 31
1000
0000
0001
0000
1000
0010
1000
0010
1000
0000
0001
0010
0001
0010
0001
0000
,  // measure 32
1000
0010
1000
0010
0100
0000
0001
0000
1002
0000
0000
0000
0103
0000
1002
0000
,  // measure 33
0000
0000
MM13
0010
1000
0200
1300
2100
,  // measure 34
0000
0000
0000
0000
0000
0000
3M1M
0000
0000
0010
0000
0000
0001
0000
0100
0000
0001
0000
1000
0000
0010
0000
1000
0000
,  // measure 35
0001
0000
0010
0000
0001
0000
1000
0000
0100
0000
2000
0000
0002
0000
0000
0000
0000
0000
0000
0000
0000
3003
0000
0000
,  // measure 36
0000
0000
0000
0000
0001
0200
0300
0000
0200
0320
0030
0020
1000
0000
0000
0000
,  // measure 37
1030
0000
0002
0000
0023
0030
0000
0200
0310
0000
0002
0000
1000
0000
0000
0000
,  // measure 38
1003
0000
0000
0001
0100
0020
2030
3000
2000
3200
0300
0020
0031
2000
3002
0203
,  // measure 39
0310
0000
0000
0000
0000
0000
0000
0000
0000
0000
0000
0000
0000
0000
0000
0000
0000
0000
0000
0000
0000
0000
0000
0000
0100
0000
0000
0000
0000
0000
0000
0000
0000
0000
0000
0000
0010
0000
0000
0000
0000
0000
0000
0000
0000
0000
0000
0000
2002
0000
0000
0000
0000
0000
0000
0000
0000
0000
0000
0000
0000
0000
0000
0000
0000
0000
0000
0000
0000
0000
0000
0000
3003
0000
0000
0000
0000
0000
0000
0000
0000
0000
0000
0000
0000
0000
0000
0000
0000
0000
0000
0000
0000
0000
0000
0000
0001
0000
0000
0000
0000
0000
0000
0000
0000
0000
0000
0000
0000
0000
0000
0000
0000
0000
0010
0000
0000
0000
0000
0000
0000
0000
0000
0000
0000
0000
0000
0000
0000
0000
0000
0000
0100
0000
0000
0000
0000
0000
0000
0000
0000
0000
0000
0000
2100
0000
0000
0000
0000
0000
0000
0000
0000
0000
0000
0000
0000
0000
0000
0000
0000
0000
0000
0000
0000
0000
0000
0000
0000
0000
0000
0000
0000
0000
0000
0000
0M00
0000
0000
0000
0000
0000
0000
0000
0000
0000
0000
0000
0000
0000
0000
0000
,  // measure 40
3000
0000
0000
0102
0000
0000
0000
0M00
0000
0003
0000
0000
2100
0000
0000
0000
0M00
0000
3000
0000
0000
0102
0000
0000
,  // measure 41
0000
0M00
0000
0003
0000
0000
2100
0000
0000
0000
0M00
0000
3001
0000
0000
0100
0000
0000
2010
0000
0000
0000
00M0
0000
,  // measure 42
3000
0000
0000
0012
0000
0000
0000
00M0
0000
0003
0000
0000
2010
0000
0000
0000
00M0
0000
3000
0000
0000
0012
0000
0000
,  // measure 43
0000
00M0
0000
0003
0000
0000
2010
0000
0000
3001
00M0
0000
1000
0000
0000
0100
0000
0000
0012
0000
0000
0000
00M0
0000
,  // measure 44
0003
0000
0000
0102
0000
0000
0000
0M00
0000
0003
0000
0000
0012
0000
0000
0000
00M0
0000
0003
0000
0000
0102
0000
0000
,  // measure 45
0000
0M00
0000
0003
0000
0000
0012
0000
0000
0000
00M0
0000
1003
0000
0000
0010
0000
0000
2010
0000
0000
0000
00M0
0000
,  // measure 46
3000
0000
0000
2100
0000
0000
0000
0M00
0000
3000
0000
0000
2010
0000
0000
0000
00M0
0000
3000
0000
0000
2100
0000
0000
,  // measure 47
0000
0000
0M00
0000
0000
0000
3000
0000
0000
0000
0000
0000
2010
0000
0000
0000
0000
0000
0000
0000
00M0
0000
0000
0000
3000
0000
0000
0010
0000
0000
1000
0000
0000
0001
0000
0000
1000
0000
0000
0100
0000
0000
1000
0000
0000
0100
0000
0000
,  // measure 48
0010
0000
0000
0011
0000
0000
1001
0000
0000
0101
0000
0000
0110
0000
0000
1010
,  // measure 49
0000
0000
1001
0000
1000
0100
1000
0100
0010
0001
0010
0001
1000
0001
0100
0001
,  // measure 50
1000
0000
0000
1100
0000
0000
0011
0000
0000
0101
0000
0000
1010
0000
0000
1001
,  // measure 51
0000
0000
0011
0000
0001
0010
0100
1000
0002
0000
0000
0000
1003
0010
0100
0001
,  // measure 52
1000
0000
0000
1010
0000
0000
1100
0000
0000
1010
0000
0000
0011
0000
0000
0101
,  // measure 53
0000
0000
0011
0000
0001
0100
0001
0100
0010
1000
0010
1000
0002
0000
0000
0000
,  // measure 54
0003
0000
0000
0000
0000
1000
0010
0100
0001
1000
0100
0001
0100
1000
0010
0001
0010
1000
2001
0000
0000
0000
0000
0000
,  // measure 55
3200
0000
0000
0000
0000
0000
0310
0000
0001
0100
0001
0100
0001
0100
0001
0100
0010
0000
0100
0000
2000
0000
3200
0000
0301
0000
0000
0000
0001
0000
0000
0000
,  // measure 56
0021
0000
0000
0000
0031
1000
0001
1000
0010
0000
0000
1010
0000
0000
0110
0000
0102
0000
0000
0000
0000
0000
0013
0000
2100
0000
0000
0000
0000
0000
3001
1000
,  // measure 57
0001
0000
0100
0000
0010
0000
2010
0000
0000
0000
3100
0010
0100
0010
0100
0010
0001
0000
0100
0010
0100
0010
0100
0010
2000
0000
3100
0000
0001
0000
0100
0000
,  // measure 58
2000
0000
3010
0000
0001
0000
0010
0000
0200
0000
0301
0000
0010
0000
0000
0100
0010
0100
0010
0000
0001
0100
0010
1000
0001
0000
0000
0000
0100
0000
00M0
0000
,  // measure 59
0100
0000
1000
0000
0010
0M00
0010
0000
0001
0000
0100
0000
0120
0000
0000
0000
,  // measure 60
1030
0000
0120
0000
0000
0000
1030
0000
0001
0000
0001
0000
1000
0000
0100
00M0
,  // measure 61
0100
0000
0001
0000
0010
0M00
0010
0000
1000
0000
0200
0000
0000
0000
0301
0000
,  // measure 62
0100
0000
2000
0000
0000
0000
3010
0000
0100
0001
0100
0001
2000
0000
0000
0000
,  // measure 63
3001
0010
1000
0010
0001
0100
1000
0100
,  // measure 64
0001
0000
0010
0000
0100
0000
0100
0000
0010
0000
0001
0000
1000
0010
0100
0001
,  // measure 65
1000
0000
0100
0000
0001
0000
0100
0000
1000
0000
0010
0000
0101
0000
0000
1010
,  // measure 66
0000
0000
1100
0000
0000
0011
0000
0000
0101
0000
1001
0000
2000
0010
3010
2000
,  // measure 67
0001
3001
2000
3100
2000
0000
0000
3000
2010
0000
3010
1000
0002
0010
0013
0002
,  // measure 68
0100
0103
0020
1000
0000
1030
0010
0001
0020
1000
0000
1030
2001
0000
0000
0200
,  // measure 69
0300
0000
0002
0003
0000
0020
0030
0000
0002
0003
0000
0200
0300
0000
3002
0003
,  // measure 70
0000
0020
0030
0000
2000
3000
0000
0200
0300
0000
0002
0003
0220
0000
0000
0000
,  // measure 71
0000
0330
0000
0000
;

//---------------dance-single - ----------------
#NOTES:
     dance-single:
     :
     Hard:
     9:
     0.541096,0.813542,0.527596,1.031569,0.318920,481.000000,414.000000,67.000000,131.000000,16.000000,0.000000,0.541096,0.813542,0.527596,1.031569,0.318920,481.000000,414.000000,67.000000,131.000000,16.000000,0.000000:
0000
0000
0000
0000
,
0000
0000
0000
0000
,
0000
0000
0000
0000
,
0000
1000
0010
0000
0010
0100
0000
0001
0000
0010
0100
1000
0000
0001
0000
1000
,
0020
0030
0000
0200
0300
0000
0002
0003
1000
0100
0001
0000
0001
0100
0010
0100
,
2200
0000
3300
0022
0000
0033
2002
0000
,
0000
3000
0200
0303
,
0202
0000
0303
2020
0000
3030
2001
0000
,
3100
0010
0001
1000
0001
0100
0010
1000
,
0001
0001
0100
0100
,
1000
1000
0010
0010
,
0001
0100
1000
0100
0001
0010
1000
0010
,
0000
000M
0M00
0000
00M0
M000
0000
0M00
0012
0000
0000
0000
1003
0000
2200
0000
,
0000
0300
3001
0100
0010
0100
0010
2020
,
0000
3000
0130
0001
1000
0100
0010
0022
,
0000
0003
0130
0010
0001
0100
M00M
0100
,
1000
0010
1000
0100
2100
0000
3001
0022
,
0030
1000
1003
0001
0100
0001
0100
0210
,
0000
0310
0100
0001
1000
0100
0000
0100
,
0001
0000
0001
0100
0010
0100
1000
0010
,
0000
0010
0100
0001
0020
0000
0130
2002
,
3003
2002
3003
1000
0100
0010
0001
0022
,
0000
0003
0130
1000
0001
0100
0010
2020
,
0000
3000
0130
0010
1000
0100
M00M
0100
,
0001
0000
0010
0000
0001
0000
0100
0000
0010
0000
0000
0010
0000
0000
2002
0000
,
0000
0003
3100
0010
0100
2000
0000
0010
,
3010
0000
0010
1000
0001
0020
0130
0020
,
0032
1003
0010
0200
0300
0001
0010
0001
,
0000
1000
0010
1000
2001
0000
3001
2001
,
0000
000M
0000
0000
3001
0000
0010
0000
0100
0000
0020
0000
0031
0000
0012
0000
,
0000
00M0
0000
0000
0103
0000
1000
0000
0100
0000
0100
0000
0001
0000
1000
0000
,
1000
0001
0010
0100
1000
0010
0100
0001
,
0010
0100
1000
0001
1002
0000
1003
1002
,
0000
M000
0000
0000
1003
0000
0010
0000
0100
0000
0020
0000
1030
0000
2010
0000
,
0000
00M0
0000
0000
3100
0000
0001
0000
0200
0000
0000
0000
2300
0000
0000
0000
,
3020
0000
0230
0000
0002
0000
0000
0303
,
0000
0000
0000
0000
0001
0100
0000
0000
0010
1000
0000
1000
0100
0000
0000
0000
,
0100
0000
1000
0000
1010
0000
0000
0110
0000
0000
0102
0000
1000
0000
0000
0000
,
1003
0000
0000
1000
0000
0100
0010
0000
0001
0100
0000
1000
0000
0100
0010
0100
,
0000
0000
0001
0000
0000
0000
1000
0000
0200
0000
0000
0000
0300
0000
0000
0000
00M0
0000
0000
M000
0000
0000
0M00
0000
0022
0000
0000
0000
0000
0000
0000
0000
,
0033
2020
0000
3030
0022
0000
0033
2020
,
0000
3030
0012
0000
1003
0001
0202
0000
,
0303
2200
0000
3300
0202
0000
0303
2200
,
0000
3300
1000
0001
0100
0010
2020
0000
,
3030
0220
0000
0330
0202
0000
0303
2002
,
0000
3003
1200
0000
0310
0001
0022
0000
,
0033
0220
0000
0330
2200
0000
3300
2002
,
0000
3003
0201
0000
0000
1300
0100
0001
,
0010
0000
0000
0100
0000
0000
0001
0000
0000
0100
0000
0000
0010
0000
0000
0001
,
0000
0100
1000
0100
0010
0100
0001
1000
,
0100
0000
0000
0010
0000
0000
1000
0000
0000
0010
0000
0000
0100
0000
0000
1000
,
0000
0010
0100
1000
0200
0000
0301
1000
,
0001
0000
0000
0010
0000
0000
1000
0000
0000
0001
0000
0000
0100
0000
0000
1000
,
0000
0001
0100
0010
1000
0100
0220
0000
,
0330
0000
0000
1002
,
0203
0000
0000
1300
0100
0001
0010
0100
1000
0010
0100
0001
0010
0000
0010
0000
,
2001
0000
0000
0000
3010
0000
1000
0000
0200
0000
0000
0010
0000
0000
0310
0000
1002
0000
0000
0000
0000
0000
0100
0000
0203
0000
0000
0000
0000
0000
0310
0000
,
1000
0001
0010
0200
0000
1300
0001
0100
1000
0001
0010
1000
0200
0000
0300
0000
,
0200
0000
0300
0000
1000
0100
0001
0000
0001
0100
0010
0100
1000
0000
0010
0000
,
0010
1000
0001
0001
1000
0100
0120
0000
,
0031
1002
0000
1003
0010
0100
0001
0010
,
0010
0001
1000
1000
0010
0200
0000
1300
,
0100
0002
0000
0013
0100
0010
0001
0000
,
0101
0110
1010
1001
,
0011
0000
1000
0100
0010
0001
0100
0000
,
1010
0000
0000
0000
0110
0000
0000
0000
0101
0000
0000
0000
0011
0000
0000
1100
,
0000
0000
1010
0000
0000
0101
0000
0000
0001
0000
0100
0000
0020
1030
0001
0020
,
0031
1000
0020
0130
0020
0000
0000
0030
2010
0000
3001
1000
0200
0310
0001
0200
,
0310
1000
0200
0010
0000
0310
0100
1000
0002
0100
0000
0103
2002
3000
0000
2000
,
3000
0000
0020
0030
0000
0020
0030
0000
2000
3000
0000
2003
3000
0000
0002
0003
,
0000
0200
0300
0000
0020
0030
0000
2000
3000
0000
0200
0300
0220
0000
0000
0000
,
0000
0330
0000
0000
;

//---------------dance-single - ----------------
#NOTES:
     dance-single:
     :
     Medium:
     6:
     0.400478,0.645223,0.456725,0.952823,0.110244,356.000000,298.000000,58.000000,121.000000,0.000000,0.000000,0.400478,0.645223,0.456725,0.952823,0.110244,356.000000,298.000000,58.000000,121.000000,0.000000,0.000000:
0000
0000
0000
0000
,
0000
0000
0000
0000
,
0000
0000
0000
0000
,
0000
1000
0000
0000
0100
0000
0000
0010
0000
0001
0000
0001
0000
1000
0000
0001
,
0200
0300
0000
0200
0300
0000
0200
0300
0001
0000
1001
0000
0100
0010
0100
0000
,
2002
0000
3003
2002
0000
3003
2002
0000
,
0000
0003
0200
3300
,
2002
0000
3003
2002
0000
3003
1002
0000
,
0103
0010
1000
0001
,
1000
0100
0001
0010
,
1000
0100
0001
0010
,
1000
0001
1000
0001
1000
0001
1000
0001
,
0000
0000
0000
0000
2002
0000
3003
2002
,
0000
3000
0013
0001
0010
0001
0000
2000
,
0000
3000
0001
0100
0001
0100
0000
0220
,
0000
0300
1030
0010
1000
0001
0010
0000
,
0100
0010
0001
0000
2002
0000
3003
2002
,
0000
0003
3010
1000
0010
2000
0000
3200
,
0000
0310
0001
0000
2000
0000
3001
0100
,
0002
0000
1003
0100
1000
0000
0010
0000
,
0100
0000
0001
0000
0020
0000
0030
2002
,
3003
2002
3003
1000
0010
1000
0000
0202
,
0000
0300
1003
0100
1000
0100
0000
0022
,
0000
0003
0031
0010
0001
1000
0010
0000
,
0100
0010
1000
0000
0100
0000
0000
0220
,
0000
0030
0310
0001
0200
0000
0000
0000
,
0310
0000
1000
0001
1000
0000
0100
0000
,
0001
0000
0100
0000
0000
1000
0010
1000
,
0000
0001
0010
0001
0200
0000
0310
0200
,
0000
0000
0301
1000
0100
0010
0000
0012
,
0000
0000
1003
0010
1000
0000
0010
0000
,
0100
0000
0001
0000
0101
0000
0000
1001
,
0000
0000
1100
0000
0200
0000
0310
0200
,
0000
0000
1300
0001
0100
0010
0000
2010
,
0000
0000
3001
0010
0002
0000
0203
0000
,
0320
0000
2030
0000
0002
0000
0000
3003
,
0000
1000
0100
1000
,
0100
0000
0000
0000
0020
0030
0000
0002
0003
0000
2000
3000
0010
0000
0000
0000
,
0010
0000
0000
0000
1000
0001
1000
0000
0100
0010
0000
0001
0000
1000
0001
1000
,
0000
0010
0000
0000
0220
0000
0330
0000
0000
0000
0000
0000
0202
0000
0000
0000
,
0303
0202
0000
0303
0202
0000
0303
0202
,
0000
0303
0102
0000
1003
0000
2200
0000
,
3300
2200
0000
3300
2200
0000
3300
2200
,
0000
3300
2100
0000
3010
0000
2020
0000
,
3030
2020
0000
3030
2020
0000
3030
2020
,
0000
3030
2010
0000
3001
0000
0022
0000
,
0033
0022
0000
0033
0022
0000
0033
0022
,
0000
0000
0033
0000
0022
0000
0000
0000
0000
0030
0000
0000
1003
0000
0001
0000
,
0400
0000
0000
0000
,
0000
0000
0310
0000
1000
0000
0001
1000
,
0400
0000
0000
0000
,
0000
0000
0310
0000
0001
0000
0100
0010
,
4000
0000
0000
0000
,
0000
3100
0010
2002
,
3003
0000
0000
1100
,
0012
0000
0000
1003
0020
0000
0032
0000
0203
0000
1300
0010
1000
0000
1000
0000
,
1200
0000
0310
0001
0200
0000
0310
0000
2001
0000
0000
3001
0020
0000
0000
0130
,
0010
0100
0000
2001
0000
0000
3020
0000
0230
0000
0302
0000
0013
0000
0000
0000
,
0010
0000
0000
0000
0010
0000
1001
0000
1000
0010
0100
0001
1000
0000
0100
0000
,
0010
0000
0010
0001
0000
1000
0020
0000
,
1030
0020
0000
0000
0130
0001
0000
0100
,
0010
0000
0010
1000
0000
0002
0000
0013
,
0100
0020
0000
0130
0000
1000
0002
0000
,
1003
0010
1000
0000
0001
0010
0001
0000
,
1000
0000
0010
0100
0010
0100
0002
0000
,
1003
0100
0010
0000
0001
0100
0040
0000
,
0000
0000
0000
0000
0000
0000
0000
0000
0030
0000
0000
0000
1001
0000
0000
0110
,
0000
0000
2001
0000
0000
0000
0000
0000
3100
0000
0000
0000
0011
0000
0000
1001
,
0000
1020
0000
0000
0130
0000
2002
0000
,
0000
0000
0000
0000
0000
0000
0000
0000
0000
0000
0000
3003
0000
0000
1000
0000
,
0000
0100
0000
0000
0010
0000
0000
0001
0000
0000
0100
0000
0220
0000
0000
0000
,
0000
0330
0000
0000
;

//---------------dance-single - ----------------
#NOTES:
     dance-single:
     :
     Easy:
     4:
     0.278985,0.476904,0.393729,0.574844,0.003937,248.000000,198.000000,50.000000,73.000000,0.000000,0.000000,0.278985,0.476904,0.393729,0.574844,0.003937,248.000000,198.000000,50.000000,73.000000,0.000000,0.000000:
0000
0000
0000
0000
,
0000
0000
0000
0000
,
0000
0000
0000
0000
,
0000
0200
0000
0000
0000
0000
0000
0000
0000
0000
0000
0000
0000
0300
0000
0000
,
0020
0000
0000
0030
0100
1001
0010
0010
,
1001
0000
0000
1001
0000
0000
2001
0000
,
0000
0000
0200
3300
,
1001
0000
0000
1001
0000
0000
1002
0000
,
0000
0000
0200
0303
,
0001
0100
0010
1000
,
0001
0100
0010
1000
,
0100
0001
0010
1000
,
0000
0000
0000
0000
2000
0000
0000
3002
,
0000
0000
1003
0000
1000
0000
0000
0200
,
0000
0000
0310
0000
0001
0000
0000
0200
,
0000
0310
1000
0000
,
1000
0000
0001
0000
0020
0000
0000
0230
,
0000
0000
0310
0000
0010
0000
0000
0002
,
0000
0103
0010
1000
,
0001
1000
0200
0300
,
0100
0000
0010
0000
0001
0000
0000
2002
,
0000
0003
0000
3000
0001
0000
0000
0200
,
0000
0000
0310
0000
1000
0000
0000
0200
,
0000
0310
0001
0000
,
0001
0000
1000
0000
0220
0000
0000
0330
,
0000
1000
0002
0000
,
0013
0100
1000
1000
,
0001
0001
0100
0000
,
0010
0000
0000
0000
1020
0000
0000
2030
,
0000
0000
3001
0000
2001
0000
0000
3200
,
0000
0310
0001
0010
,
0001
0000
0100
0000
0010
0000
0000
1000
,
0000
0000
0001
0000
0021
0000
0000
0032
,
0000
0000
1003
0000
1002
0000
0000
0203
,
0000
0310
2000
3200
,
0320
0000
0032
0000
2000
0000
0000
3003
,
0000
0001
0100
0001
,
0100
1000
0010
0001
,
0010
0001
0100
0010
,
1000
0000
2002
3003
0000
0000
1010
0000
,
0000
1010
0000
0000
1010
0000
0000
1010
,
0000
2020
3030
0101
,
0000
0101
0000
0000
0101
0000
0000
0101
,
0000
0202
0303
0011
,
0000
0011
0000
0000
0011
0000
0000
0011
,
0000
0022
0033
1100
,
0000
1100
0000
0000
1100
0000
0000
1100
,
0000
2200
3300
0000
,
0104
0000
0000
0000
,
0000
0003
0001
0010
,
4100
0000
0000
0000
,
0000
3000
1000
0010
,
0140
0000
0000
0000
,
0000
0030
0100
2002
,
3003
0000
0000
2001
,
3200
0000
0301
0100
1000
0010
0100
0100
,
0102
0000
0013
0010
2100
0000
3002
0000
,
0103
1000
0100
0001
0010
0100
2200
3300
,
0022
0033
0202
0303
2020
3030
1000
0000
,
0100
0010
0100
2000
,
3000
0002
0000
0003
1000
0000
0001
0000
,
0100
0010
0010
0100
,
0001
1000
0100
0020
,
0031
0100
0001
0100
,
0001
0100
0001
0020
,
0130
1000
0100
2002
,
0000
0000
3003
2002
,
0000
3003
0000
0000
1000
0100
0220
0000
,
0000
0330
0000
0000
0011
0000
2002
0000
,
0000
0000
0000
0000
0000
0000
0000
0000
0000
0000
0000
3003
0000
0000
0200
0000
,
0000
0000
0000
0020
,
0000
0330
0000
0000
;

//---------------dance-single - ----------------
#NOTES:
     dance-single:
     :
     Beginner:
     2:
     0.141742,0.252479,0.094495,0.330732,0.000000,126.000000,114.000000,12.000000,42.000000,0.000000,0.000000,0.141742,0.252479,0.094495,0.330732,0.000000,126.000000,114.000000,12.000000,42.000000,0.000000,0.000000:
0000
0000
0000
0000
,
0000
0000
0000
0000
,
0000
0000
0000
0000
,
0000
0000
0000
0000
,
0020
0000
0000
0030
,
2002
0000
0000
0000
,
3003
0000
0100
0000
,
2002
0000
0000
0000
,
3003
0000
0010
0000
,
1000
0000
1000
0000
,
0001
0000
0001
0000
,
0010
0010
0010
0010
,
0000
0000
0000
0000
0002
0000
0000
0003
,
0000
0000
0100
0000
,
0000
0000
0000
0000
0020
0000
0000
0030
,
0000
0000
1000
0000
,
0001
0000
0000
0000
2000
0000
0000
3000
,
0000
0000
0100
0000
,
0000
0000
0010
0000
,
0001
0000
0100
0000
,
0010
0000
0000
0000
2000
0000
0000
3000
,
0000
0000
0001
0000
,
0000
0000
0000
0000
0020
0000
0000
0030
,
0000
0000
0100
0000
,
1000
0000
0000
0000
2002
0000
0000
3003
,
0000
0000
0220
0000
,
0330
0000
0001
0000
,
1000
0000
0100
0000
,
0000
0000
0000
0000
2000
0000
0000
3000
,
0000
0000
0010
0000
0020
0000
0000
0030
,
0000
0100
0100
0000
,
0100
0000
0001
0000
,
1000
0000
0000
0000
0002
0000
0000
0003
,
0000
0000
0010
0000
0020
0000
0000
0030
,
0000
0100
0100
0000
,
1000
0000
0000
0000
0002
0000
0000
0003
,
0000
1000
1000
1000
,
0000
0001
0001
0001
,
0000
0010
0100
0010
,
0100
0000
0020
0030
0000
0000
2002
0000
,
0000
0000
0000
0000
,
0000
3003
0000
2002
,
0000
0000
0000
0000
,
0000
3003
0000
0220
,
0000
0000
0000
0000
,
0000
0330
0000
0220
,
0000
0000
0000
0000
,
0000
0330
0000
1000
,
2000
0000
0000
0000
,
0000
3000
0001
0001
,
0002
0000
0000
0000
,
0000
0003
0010
0010
,
0020
0000
0000
0000
,
0000
0000
0030
2002
,
3003
0000
0000
0001
,
0001
0100
0100
1000
,
1000
0010
0010
0001
,
0001
1000
1000
0100
,
0100
0100
0100
0100
,
0000
1000
0000
0002
,
0000
0003
0000
0000
0000
0000
0100
0000
,
0000
0001
0000
1000
,
0000
0100
0000
0010
,
0010
0010
0010
0010
,
0010
0010
0000
0100
,
0100
0100
0100
0200
,
0000
0000
0300
2002
,
0000
3003
0000
0000
0100
0000
2002
0000
,
0000
3003
0010
2002
,
0000
0000
0000
0000
,
0000
0000
3003
0200
,
0000
0300
0000
0000
;
