#TITLE:The Spook Returns;
#SUBTITLE:;
#ARTIST:KSHMR, B3nte & Badjack;
#TITLETRANSLIT:;
#SUBTITLETRANSLIT:;
#ARTISTTRANSLIT:;
#CREDIT:;
#BANNER:The Spook Returns.png;
#BACKGROUND:The Spook Returns - bg.png;
#LYRICSPATH:;
#CDTITLE:cdtitle.png;
#MUSIC:The Spook Returns.mp3;
#OFFSET:-0.500;
#SAMPLESTART:87.055;
#SAMPLELENGTH:15.900;
#SELECTABLE:YES;
#DISPLAYBPM:110.000:128.000;
#BPMS:0.000=128.000,31.000=64.000,35.000=55.000,42.000=110.000,44.000=55.000,50.000=110.000,81.000=55.000,82.000=110.000,84.000=112.006,87.000=113.582,89.000=114.209,91.000=114.844,92.000=116.790,93.000=116.134,95.000=117.454,96.000=118.463,98.000=118.804,99.000=120.421,100.000=120.426,101.000=120.415,102.000=121.599,103.000=122.602,106.000=123.047,107.000=125.035,110.000=125.304,111.000=126.008,112.000=126.996,114.000=128.000,129.000=192.000,129.500=96.000,130.000=128.000,142.000=64.000,144.000=128.000,174.000=192.000,174.500=96.000,175.000=128.000;
#STOPS:50.000=3.820
,177.000=-1.880
,181.000=-1.880
;
#BGCHANGES:;

//---------------dance-single - ----------------
#NOTES:
     dance-single:
     :
     Hard:
     10:
     0.546,0.719,0.226,0.339,0.524: // measure 1
0000
0000
0000
0000
,  // measure 2
0000
0000
0000
0000
,  // measure 3
0000
0000
0000
0000
,  // measure 4
0000
0000
0000
0000
0000
0000
0000
0000
0000
0000
0000
0000
1000
0000
0000
0001
,  // measure 5
0010
0000
0001
0000
1000
0100
0000
0100
1000
0000
0001
0000
0010
0000
0000
0001
,  // measure 6
0100
0000
0001
0000
0010
0000
0000
0001
0100
0000
0001
0000
0010
0000
0000
0100
,  // measure 7
1000
0000
0001
0000
1000
0010
0000
0010
1000
0000
0001
0000
0100
0000
0000
0010
,  // measure 8
0000
0000
0010
0000
0100
0001
1000
0100
0010
0000
0000
0000
2002
0000
0000
0000
,  // measure 9
0000
0000
3003
0202
,  // measure 10
0000
0000
0000
0000
,  // measure 11
0000
0000
0303
0000
,  // measure 12
2200
0000
0000
0000
,  // measure 13
0000
0000
0000
0000
0000
0000
330M
0000
0000
0001
0000
1000
,  // measure 14
0100
0001
0100
1000
0000
0010
0100
0000
0100
0001
0000
1000
,  // measure 15
0100
1000
0010
0100
0000
0010
1000
0000
1000
0001
0000
1000
,  // measure 16
0010
0001
0010
1000
0000
1000
0100
0000
0100
0001
0000
0001
,  // measure 17
0010
0000
0010
1000
0000
0000
0002
0000
0000
1003
0000
0001
,  // measure 18
0100
1000
0100
0001
0000
0010
0100
0000
0100
1000
0000
0001
,  // measure 19
0100
0001
0010
0100
0000
0010
0001
0000
0001
1000
0000
0001
,  // measure 20
0010
1000
0010
0001
0000
0001
0100
0000
0100
1000
0000
1000
,  // measure 21
0010
0000
0000
0000
0000
0000
0000
0000
0010
0000
0000
0000
0002
0000
0000
0000
0000
0000
0000
0000
0000
0003
0000
0000
1001
0000
0000
0000
0000
0000
1000
0000
0000
0000
0000
0000
0010
0000
0000
0100
0000
0000
0001
0000
0000
0000
0000
0000
,  // measure 22
0011
0000
0001
0000
0100
0000
0010
0000
1010
0000
1000
0000
0100
0010
0001
0000
,  // measure 23
0101
0000
0001
0000
0010
0000
0001
0000
1001
0000
1000
0000
0010
0100
0001
0000
,  // measure 24
0011
0001
0100
0010
2000
3020
0032
0203
,  // measure 25
2300
0000
0000
0000
3001
0000
0000
0000
1100
0000
1000
0000
0001
0100
0010
0000
,  // measure 26
0200
0300
0200
0300
0002
0003
0002
0003
0011
0000
0010
0000
0001
1000
0100
0000
,  // measure 27
2000
3000
2000
3000
0020
0030
0020
0030
0110
0000
0100
0000
0010
1000
0001
0000
,  // measure 28
0020
0030
0020
0030
0200
0300
0200
0300
0011
0000
0100
0000
1010
0000
1000
0000
,  // measure 29
0001
0010
0100
0010
0001
0000
0100
0000
1001
0000
0000
0000
1000
0000
0001
0100
,  // measure 30
0010
0000
0010
0000
0000
0000
0100
0000
0101
0000
0000
0000
0001
0000
1000
0100
,  // measure 31
0010
0000
0000
0000
0100
0000
0000
0000
0011
0000
0000
0000
0001
0000
1000
0010
,  // measure 32
0100
0100
0000
0010
1010
0000
1100
0000
,  // measure 33
0101
0000
0011
0000
1000
0010
0100
0001
,  // measure 34
0010
1000
0010
0001
1000
0010
0100
0001
,  // measure 35
0100
0000
1000
0000
0100
0000
0001
0000
1000
0010
1000
0010
1000
0010
1000
0010
,  // measure 36
0100
0010
0100
0010
0100
0010
0100
0010
M200
0000
0000
0000
0000
0000
03M1
0000
,  // measure 37
1001
0000
0000
1000
0100
0000
1000
0000
0010
0000
0000
1000
0100
0000
1000
0000
,  // measure 38
0010
0000
0000
0100
0001
0000
0010
0000
0001
0000
0000
0100
0001
0000
0010
0000
,  // measure 39
0220
0000
0330
0100
1000
0000
0010
0000
0100
0000
0000
0010
1000
0000
0100
0000
,  // measure 40
0010
0000
0000
0100
1000
0000
0001
0000
0100
0000
0010
1000
0100
1000
0010
1000
,  // measure 41
0200
0000
1300
0001
0100
0010
0100
0001
1000
0010
0100
0001
1000
0100
0010
0001
,  // measure 42
0100
0001
0100
0001
0010
0001
0010
0001
1000
0001
1000
0010
0100
0010
0100
0001
,  // measure 43
0010
0001
0010
0001
1000
0010
0100
0010
1000
0100
0010
0001
0100
0010
0100
0001
,  // measure 44
1000
0000
0010
0000
0100
0000
0022
0033
2002
0000
0000
3003
1000
0000
0010
0000
,  // measure 45
0020
0000
0000
003M
0000
0000
0000
0000
0000
0000
0000
0000
0000
0000
0000
0000
,  // measure 46
0000
0000
0000
0000
,  // measure 47
0000
0000
0000
0000
0000
0000
0000
0000
M101
0000
0000
0001
0010
0000
0001
0000
,  // measure 48
0100
0000
0000
0010
1000
0000
0100
0000
1000
0000
0000
0010
1000
0000
0100
0000
,  // measure 49
0220
0000
0330
0010
0001
0000
0100
0000
0010
0000
0000
0100
0001
0000
0010
0000
,  // measure 50
0100
0000
0000
0010
0001
0000
1000
0000
0010
0000
0100
0001
0010
0001
0100
0001
,  // measure 51
0020
0000
0031
1000
0010
0100
0010
1000
0001
0100
0010
1000
0001
0010
0100
1000
,  // measure 52
0010
1000
0010
1000
0100
1000
0100
1000
0001
1000
0001
0100
0010
0100
0010
1000
,  // measure 53
0100
1000
0100
1000
0001
0100
0010
0100
0001
0010
0100
1000
0010
0100
0010
1000
,  // measure 54
0002
0023
2030
3200
0302
0000
0003
0000
,  // measure 55
1001
0000
0000
0000
;

//---------------dance-single - ----------------
#NOTES:
     dance-single:
     :
     Medium:
     7:
     0.350,0.414,0.161,0.186,0.121: // measure 1
0000
0000
0000
0000
,  // measure 2
0000
0000
0000
0000
,  // measure 3
0000
0000
0000
0000
,  // measure 4
0000
0000
0000
1000
,  // measure 5
0001
0010
0100
0000
0100
1000
0100
0000
,  // measure 6
0010
0001
0010
0000
0001
1000
0001
0000
,  // measure 7
1000
0010
0100
0000
0100
0001
0100
0000
,  // measure 8
0010
0000
0010
1000
0001
0000
0011
0000
,  // measure 9
0000
0000
0000
2002
,  // measure 10
0000
0000
0000
0000
,  // measure 11
0000
0000
3003
0000
,  // measure 12
2002
0000
0000
0000
,  // measure 13
0000
0000
30M3
0001
,  // measure 14
1000
0000
0000
0010
0000
0100
0001
0000
0100
0001
0000
0000
,  // measure 15
1000
0000
0000
0100
0000
0010
0001
0000
0010
0001
0000
0000
,  // measure 16
0100
0000
0000
0010
0000
1000
0001
0000
1000
0001
0000
0010
,  // measure 17
0100
0000
0010
0100
0000
0000
0000
0000
0000
2000
0000
3000
,  // measure 18
0002
0000
0003
0020
0000
0130
1000
0000
0100
2000
0000
3000
,  // measure 19
0002
0000
0003
0200
0000
0310
1000
0000
0010
2000
0000
3000
,  // measure 20
0200
0000
0300
0020
0000
0031
1000
0000
0001
1000
0000
0010
,  // measure 21
0100
0000
0000
0000
0010
0000
0200
0000
0000
0000
0300
0000
0101
0000
0000
0001
0000
0000
1000
0000
0000
0001
0000
0000
,  // measure 22
1000
0010
0100
0001
1001
0001
0010
0001
,  // measure 23
0010
0100
1000
0010
0110
0010
1000
0010
,  // measure 24
1000
0100
0010
0001
0100
0010
0100
0001
,  // measure 25
2000
0000
3010
0000
1001
1000
0100
1000
,  // measure 26
00M0
00M0
0M00
0M00
1001
0001
0100
0001
,  // measure 27
00M0
00M0
0M00
0M00
1001
1000
0010
1000
,  // measure 28
00M0
00M0
0M00
0M00
0001
0100
1000
0100
,  // measure 29
0002
1003
0011
0001
,  // measure 30
1000
0001
1000
0001
,  // measure 31
1000
0001
1010
0010
,  // measure 32
0100
0010
0101
1010
,  // measure 33
0101
0000
1010
0000
0001
0010
0001
0010
,  // measure 34
0001
0010
0001
0010
0100
1000
0100
1000
,  // measure 35
0100
1000
0100
0010
0002
0000
0000
0000
,  // measure 36
0203
0000
0000
0000
032M
0000
0000
0030
,  // measure 37
1M01
0000
0000
1000
0000
0000
1000
0000
0001
0000
0000
0100
0000
0000
0100
0000
,  // measure 38
0001
0000
0000
0010
0000
0000
0010
0000
0100
0000
0000
1000
0000
0000
1000
0000
,  // measure 39
1001
0000
0000
0001
0000
0000
0001
0000
0100
0000
0000
0010
0000
0000
0010
0000
,  // measure 40
0100
0000
0000
0001
0000
0000
0001
0000
1000
0000
0010
0000
0100
0000
0001
0000
,  // measure 41
2000
3001
0100
0010
1000
0100
1000
0010
,  // measure 42
1000
0100
0010
0001
0100
0001
0010
0001
,  // measure 43
0100
0001
0010
0100
1000
0010
0100
0001
,  // measure 44
1000
1000
1000
0001
0002
0000
0003
0000
,  // measure 45
0000
0000
0000
0MM0
0000
0000
0000
0000
0000
0000
0000
0000
0000
0000
0000
0000
,  // measure 46
0000
0000
0000
0000
,  // measure 47
0000
0000
0000
0000
0000
0000
0000
0000
1MM1
0000
0000
0001
0000
0000
0001
0000
,  // measure 48
1000
0000
0000
0010
0000
0000
0010
0000
0100
0000
0000
0001
0000
0000
0001
0000
,  // measure 49
1001
0000
0000
1000
0000
0000
1000
0000
0100
0000
0000
0010
0000
0000
0010
0000
,  // measure 50
0100
0000
0000
1000
0000
0000
1000
0000
0001
0000
0010
0000
0100
0000
1000
0000
,  // measure 51
0002
1003
0100
0010
0001
0100
0001
0010
,  // measure 52
0001
0100
0010
1000
0100
1000
0010
1000
,  // measure 53
0100
1000
0010
0100
0001
0010
0100
1000
,  // measure 54
0001
0010
1000
0010
0002
0000
0003
0000
,  // measure 55
1001
0000
0000
0000
;

//---------------dance-single - ----------------
#NOTES:
     dance-single:
     :
     Easy:
     4:
     0.221,0.370,0.210,0.153,0.000: // measure 1
0000
0000
0000
0000
,  // measure 2
0000
0000
0000
0000
,  // measure 3
0000
0000
0000
0000
,  // measure 4
0000
0000
0000
1000
,  // measure 5
0000
1000
0001
0100
,  // measure 6
0000
0010
0000
0100
,  // measure 7
0000
0001
1000
0100
,  // measure 8
0000
0010
0000
0110
,  // measure 9
0000
0000
0000
2000
,  // measure 10
0000
0000
0000
0000
,  // measure 11
0000
0000
3000
0000
,  // measure 12
0002
0000
0000
0000
,  // measure 13
0000
0000
00M3
1000
,  // measure 14
1000
1000
0010
0100
,  // measure 15
0001
0001
0010
0100
,  // measure 16
1000
1000
0010
0001
,  // measure 17
0010
1000
0000
0002
,  // measure 18
2003
3002
2003
3020
,  // measure 19
0230
0320
0230
0302
,  // measure 20
0203
0320
2030
3020
,  // measure 21
0230
0301
10M1
1000
,  // measure 22
0010
0100
0110
0010
,  // measure 23
1000
0001
1001
1000
,  // measure 24
0100
0010
0110
1001
,  // measure 25
0110
0000
1001
1000
,  // measure 26
0000
0000
1100
0100
,  // measure 27
0000
0000
0011
0001
,  // measure 28
0000
0000
1001
0110
,  // measure 29
1001
0000
1001
0000
,  // measure 30
1010
0000
0101
0000
,  // measure 31
0011
0000
1100
0000
,  // measure 32
1001
0000
0010
0010
,  // measure 33
0010
0000
1000
0010
,  // measure 34
0100
0001
1000
0010
,  // measure 35
0100
0001
2000
0000
,  // measure 36
0000
0000
3002
0000
,  // measure 37
1M03
1000
0010
0010
,  // measure 38
1000
1000
0001
0001
,  // measure 39
0011
0010
0100
0100
,  // measure 40
0010
0010
0001
1000
,  // measure 41
1010
1000
0100
1000
,  // measure 42
0010
1000
0100
1000
,  // measure 43
1001
0001
0100
0001
,  // measure 44
0010
0010
0200
0300
,  // measure 45
000M
0000
0000
0000
,  // measure 46
0000
0000
0000
0000
,  // measure 47
0000
0000
1000
1000
,  // measure 48
0001
0001
1000
1000
,  // measure 49
1010
0010
0100
0100
,  // measure 50
0010
0010
1000
0001
,  // measure 51
0011
0001
0100
0001
,  // measure 52
0010
0001
0100
0001
,  // measure 53
1001
1000
0100
1000
,  // measure 54
0010
0100
0001
0000
,  // measure 55
1001
0000
0000
0000
;
