#TITLE:THIS IS HDM;
#SUBTITLE:;
#ARTIST:Relect;
#TITLETRANSLIT:;
#SUBTITLETRANSLIT:;
#ARTISTTRANSLIT:;
#GENRE:;
#CREDIT:Telperion;
#BANNER:[Tech Savvy] - THIS IS HDM.png;
#BACKGROUND:[Tech Savvy] - THIS IS HDM-bg.png;
#LYRICSPATH:;
#CDTITLE:;
#MUSIC:[Tech Savvy] - THIS IS HDM.ogg;
#OFFSET:-0.980000;
#SAMPLESTART:0.589000;
#SAMPLELENGTH:12.800000;
#SELECTABLE:YES;
#DISPLAYBPM:150.000000;
#BPMS:0.000000=150.000000
;
#STOPS:
;
#BGCHANGES:;
#KEYSOUNDS:;
#ATTACKS:;

//---------------dance-single - ----------------
#NOTES:
     dance-single:
     :
     Challenge:
     11:
     0.797962,0.809891,0.381030,0.218889,0.847183,689.000000,640.000000,47.000000,27.000000,55.000000,4.000000,0.797962,0.809891,0.381030,0.218889,0.847183,689.000000,640.000000,47.000000,27.000000,55.000000,4.000000:
0000
0000
0000
0000
,
2000
0001
0100
0001
,
3020
0001
0100
1030
,
0002
1000
0100
1000
,
0023
1000
0100
0031
,
1000
0100
1000
0001
1000
0010
1000
0001
,
0010
0100
0010
1000
0010
0100
0010
0001
,
1000
0010
0100
0010
0001
0010
1000
0001
,
0010
0000
0000
0000
0000
0000
0000
0000
0000
0000
0000
0000
0000
0000
0000
0000
0000
0000
0000
0000
0000
0000
0000
0000
0000
0000
0000
0000
0000
0000
0000
0000
0000
0000
0000
0000
0000
0000
0000
0000
0000
0000
0000
0000
0000
0000
0000
0000
0010
0000
0000
0000
0000
0000
0000
0000
0000
0000
0000
0000
0000
0000
0000
0000
0000
0000
0000
0000
0000
0000
0000
0000
0000
0000
0000
0000
0000
0000
0000
0000
0000
0000
0000
0000
0000
0000
0000
0000
0000
0000
0000
0000
0000
0000
0000
0000
0010
0000
0000
0000
0000
0000
0000
0000
0000
0000
0000
0000
0000
0000
0000
0000
0000
0000
0000
0000
0000
0000
0000
0000
0100
0000
0000
0000
0000
0000
0000
0000
0000
0000
0000
0000
0000
0000
0000
0000
0000
0000
0000
0000
0000
0000
0000
0000
4004
3003
0000
0000
0000
0000
0000
0000
0000
0000
0000
0000
0000
0000
0000
0000
0000
0000
0000
0000
0000
0000
0000
0000
0000
0000
0000
0000
0000
0000
0000
0000
0000
0000
0000
0000
0000
0000
0000
0000
0000
0000
0000
0000
0000
0000
0000
0000
,
0001
0100
0001
0000
1000
0100
1000
0001
0000
0100
0010
1000
0000
0001
0000
1000
,
0100
0000
M100
0001
0100
0000
010M
1000
0100
0000
01M0
0001
1000
0000
0000
0000
,
0010
1000
0010
0100
0001
1000
0100
0000
0010
0001
0010
0100
1000
0001
0400
0000
,
0310
0000
1000
0010
0100
0010
1000
0001
0010
0000
0100
1000
0002
0000
0003
0000
,
1000
0100
1000
0000
0001
0100
0001
1000
0000
0100
0010
0001
0000
1000
0000
0001
,
0100
0000
010M
1000
0100
0000
M100
0001
0100
0000
01M0
1000
0001
0000
0000
0000
,
0010
0001
0010
0100
1000
0001
0100
0000
0010
1000
0010
0100
0001
1000
0400
0000
,
0310
0000
0000
0100
0000
0000
1000
0000
0001
0000
0000
0000
0220
0000
0000
0000
,
0330
1000
0001
1000
0010
0000
1000
0001
0010
0001
1000
0100
0000
1000
0000
0001
,
0010
0000
001M
1000
0010
0000
M010
0001
0010
0000
0M10
1000
0001
0000
0100
0000
,
0000
0001
0100
0010
1000
0001
0010
0000
0100
1000
0100
0010
0001
1000
0040
0000
,
0130
0000
0001
0100
0010
0100
0001
1000
0100
0010
0000
0000
0011
0000
0001
0000
,
1001
1000
0010
0100
0001
1000
0010
0100
,
0001
0010
0100
1000
0001
0010
0100
1000
,
0001
0100
0001
0100
0010
1000
0010
1000
0001
0010
0001
0010
0100
1000
0001
0100
,
0010
0000
0010
0000
0010
0100
1001
0000
,
1000
0001
1000
0100
0020
0000
0001
0000
0100
0000
0000
0000
0031
0000
1000
0000
,
0002
0000
0000
1000
0000
0000
0100
0000
1003
0000
0010
0000
1000
0010
1000
0001
,
0200
0000
0000
1000
0000
0000
0010
0000
0301
0000
0000
0000
0100
0000
0001
0000
,
0020
0000
0000
1000
0000
0000
0100
0000
0031
0000
0010
0000
0100
0000
1000
0000
,
00M1
1000
0001
0100
002M
0000
0100
0000
100M
0000
0000
0000
013M
0000
0001
0000
,
20M0
0000
0000
0001
00M0
0000
0100
0000
30M1
0000
1000
0000
0M01
0010
0100
1000
,
020M
0000
0000
0001
M000
0000
0010
0000
130M
0000
0000
0000
01M0
0000
1000
0000
,
0M20
0000
0000
0000
0000
0000
0000
0000
0000
0000
0000
0000
0000
0000
0000
0000
0000
0000
0000
0000
0000
0000
0000
0000
0000
0000
0000
0000
0000
0000
0000
0000
0000
0000
0000
0000
0001
0000
0000
0000
0000
0000
0000
0000
0000
0000
0000
0000
0000
0000
0000
0000
0000
0000
0000
0000
0000
0000
0000
0000
0000
0000
0000
0000
0000
0000
0000
0000
0000
0000
0000
0000
0100
0000
0000
0000
0000
0000
0000
0000
0000
0000
0000
0000
0000
0000
0000
0000
0000
0000
0000
0000
0000
0000
0000
0000
1030
0000
0000
0000
0000
0000
0000
0000
0000
0000
0000
0000
0000
0000
0000
0000
0000
0000
0000
0000
0000
0000
0000
0000
0000
0000
0000
0000
0000
0000
0000
0000
0000
0000
0000
0000
0000
0000
0000
0000
0000
0000
0000
0000
0000
0000
0000
0000
4004
3003
0000
0000
0000
0000
0000
0000
0000
0000
0000
0000
0000
0000
0000
0000
0000
0000
0000
0000
0000
0000
0000
0000
0000
0000
0000
0000
0000
0000
0000
0000
0000
0000
0000
0000
0000
0000
0000
0000
0000
0000
0000
0000
0000
0000
0000
0000
,
1100
0000
0000
1000
0001
0000
1000
0000
1010
0000
0000
0000
0110
0000
0000
0000
,
0101
0000
0000
1000
0001
0000
0010
0000
0011
0000
0000
0000
0001
0000
1000
0000
,
1010
0000
0000
1000
0001
0000
0010
0000
0110
0000
0000
0000
1100
0000
0000
0000
,
0011
0000
0000
0001
1000
0000
0001
0000
0201
0000
0000
0000
0310
0000
0000
0000
,
0101
0000
0000
1010
0000
0000
0001
0000
0011
0000
0000
0000
0110
0000
0000
0000
,
1100
0000
0000
0011
0000
0000
1000
0000
1010
0000
0000
0000
0010
0000
0100
0000
,
0101
0000
0000
1100
0000
0000
1000
0000
1010
0000
0000
0000
0101
0000
0000
0000
,
0010
0000
0010
0000
0010
0100
1001
0000
,
0001
0000
0010
0000
0100
0000
1000
0010
0100
0000
0001
M100
0000
01M0
0000
010M
,
1000
0000
0001
0000
1000
0000
0100
0010
0001
0000
1000
0001
0000
0100
0000
0010
,
1000
0000
0010
0000
1000
0000
0001
0010
0100
0000
1000
001M
0000
0M10
0000
M010
,
0001
0000
1000
010M
0000
01M0
0000
M100
0001
1000
0001
0100
0020
0000
0030
0000
,
1010
0000
0010
0000
0110
0000
0100
0001
1000
0000
0001
M010
0000
0M10
0000
001M
,
1000
0000
0001
0000
0011
0000
0010
0100
1000
0000
0001
1000
0000
0010
0000
0100
,
0001
0000
0100
0000
0110
0000
0010
1000
0001
0000
1000
001M
0000
0M10
0000
M010
,
0001
0000
0000
0000
1000
0000
0010
0000
0000
0000
0110
0000
0000
0000
0001
0000
0010
0000
0001
0000
1000
0100
1000
0000
0002
0000
0000
0000
0003
0000
0000
0000
,
0000
0000
1000
0000
0010
0000
0100
1000
0100
0000
0001
M100
0000
01M0
0000
010M
,
1000
0000
0010
0000
0100
0000
1000
0100
0010
0000
1000
0001
0000
0010
0000
0100
,
0001
0000
1000
0000
0010
0000
0100
0001
0100
0000
1000
010M
0000
01M0
0000
M100
,
0001
0000
0010
0100
0001
0100
0000
1000
0001
0000
0000
0101
0000
0000
2000
0000
,
3011
0000
0000
0000
1101
0000
0000
0000
0011
0000
0000
1100
0000
0000
0002
0000
,
1013
0000
0000
0000
1101
0000
0000
0000
1010
0001
1000
0100
0010
0001
1000
0010
,
1100
0001
0100
0010
0100
0001
1000
0100
,
0010
0000
0000
0000
0000
0000
0000
0000
0000
0000
0000
0000
0100
0000
0000
0000
0000
0000
0000
0000
0000
0000
0000
0000
0010
0000
0000
0000
0000
0000
0000
0000
0000
0000
0000
0000
0100
0000
0000
0000
0000
0000
0000
0000
0000
0000
0000
0000
0010
0000
0000
0000
0000
0000
0000
0000
0000
0000
0000
0000
0100
0000
0000
0000
0000
0000
0000
0000
0000
0000
0000
0000
0010
0000
0000
0000
0000
0000
0000
0000
0000
0000
0000
0000
0100
0000
0000
0000
0000
0000
0000
0000
0000
0000
0000
0000
0010
0000
0000
0000
0000
0000
0000
0000
0000
0000
0000
0000
0100
0000
0000
0000
0000
0000
0000
0000
0000
0000
0000
0000
0010
0000
0000
0000
0000
0000
0000
0000
0000
0000
0000
0000
0100
0000
0000
0000
0000
0000
0000
0000
0000
0000
0000
0000
4004
3003
0000
0000
0000
0000
0000
0000
0000
0000
0000
0000
0000
0000
0000
0000
0000
0000
0000
0000
0000
0000
0000
0000
0000
0000
0000
0000
0000
0000
0000
0000
0000
0000
0000
0000
0000
0000
0000
0000
0000
0000
0000
0000
0000
0000
0000
0000
,
0001
0010
0100
0000
1000
0100
1000
0001
0000
0100
0001
0100
0000
0010
0000
1000
,
0010
0000
M010
0001
0100
0000
010M
1000
0010
0000
0M10
0001
1000
0000
0000
0000
,
0010
0100
0010
1000
0010
0100
0001
0000
1000
0100
1000
0001
1000
0000
01M0
0100
,
0001
0000
1000
0001
0100
0010
0100
0001
1000
0000
0100
0010
0002
0000
0003
0000
,
1000
0010
0100
0000
0001
0100
0001
1000
0000
0100
1000
0100
0000
0010
0000
0001
,
0010
0000
001M
1000
0100
0000
M100
0001
0010
0000
0M10
1000
0001
0000
0000
0000
,
0010
0100
0010
0001
0010
0100
1000
0000
0001
0100
0010
1000
0001
1000
0400
0000
,
0310
0000
0000
0000
0000
0000
0000
0000
0000
0000
0000
0000
0000
0000
0000
0000
0000
0000
0000
0000
0000
0000
0000
0000
0000
0000
0000
0000
0000
0000
0000
0000
0000
0000
0000
0000
0000
0000
0000
0000
0000
0000
0000
0000
0000
0000
0000
0000
0010
0000
0000
0000
0000
0000
0000
0000
0000
0000
0000
0000
0000
0000
0000
0000
0000
0000
0000
0000
0000
0000
0000
0000
0000
0000
0000
0000
0000
0000
0000
0000
0000
0000
0000
0000
0000
0000
0000
0000
0000
0000
0000
0000
0000
0000
0000
0000
0010
0000
0000
0000
0000
0000
0000
0000
0000
0000
0000
0000
0000
0000
0000
0000
0000
0000
0000
0000
0000
0000
0000
0000
0100
0000
0000
0000
0000
0000
0000
0000
0000
0000
0000
0000
0000
0000
0000
0000
0000
0000
0000
0000
0000
0000
0000
0000
4004
3003
0000
0000
0000
0000
0000
0000
0000
0000
0000
0000
0000
0000
0000
0000
0000
0000
0000
0000
0000
0000
0000
0000
0000
0000
0000
0000
0000
0000
0000
0000
0000
0000
0000
0000
0000
0000
0000
0000
0000
0000
0000
0000
0000
0000
0000
0000
,
0001
0100
0001
1000
0200
0000
1000
0001
00M0
0000
0001
1000
00M0
0000
1300
0100
,
0010
0000
0001
0010
0001
0000
1000
0001
1000
0000
0010
0000
1000
0010
1000
0001
,
0200
0000
0001
1000
00M0
0000
1000
0001
00M0
0000
0001
1000
00M0
0000
1300
0100
,
0010
0000
0001
1000
0001
0000
0100
0000
0010
0000
0000
0000
0220
0000
0330
0000
,
1000
0000
0001
0100
0000
0000
1000
0100
0000
0000
0001
0100
0000
0000
1000
0100
,
0010
0000
0001
0010
0000
0000
1000
0010
0000
0000
0001
0010
0000
0000
1000
0010
,
0100
0000
0001
1000
0001
0000
0001
0100
0010
0000
1000
0001
1000
0000
0100
0000
,
0010
0000
0000
0000
0000
0000
0000
0000
0000
0000
0000
0000
0000
0000
0000
0000
0000
0000
0000
0000
0000
0000
0000
0000
0000
0000
0000
0000
0000
0000
0000
0000
0000
0000
0000
0000
0000
0000
0000
0000
0000
0000
0000
0000
0000
0000
0000
0000
0010
0000
0000
0000
0000
0000
0000
0000
0000
0000
0000
0000
0000
0000
0000
0000
0000
0000
0000
0000
0000
0000
0000
0000
0000
0000
0000
0000
0000
0000
0000
0000
0000
0000
0000
0000
0000
0000
0000
0000
0000
0000
0000
0000
0000
0000
0000
0000
0010
0000
0000
0000
0000
0000
0000
0000
0000
0000
0000
0000
0000
0000
0000
0000
0000
0000
0000
0000
0000
0000
0000
0000
0100
0000
0000
0000
0000
0000
0000
0000
0000
0000
0000
0000
0000
0000
0000
0000
0000
0000
0000
0000
0000
0000
0000
0000
4004
3003
0000
0000
0000
0000
0000
0000
0000
0000
0000
0000
0000
0000
0000
0000
0000
0000
0000
0000
0000
0000
0000
0000
0000
0000
0000
0000
0000
0000
0000
0000
0000
0000
0000
0000
0000
0000
0000
0000
0000
0000
0000
0000
0000
0000
0000
0000
,
0220
0000
0000
0000
,
0330
0000
0000
0000
;

//---------------dance-single - ----------------
#NOTES:
     dance-single:
     :
     Medium:
     8:
     0.587179,0.569923,0.535063,0.145926,0.235103,507.000000,437.000000,66.000000,18.000000,6.000000,4.000000,0.587179,0.569923,0.535063,0.145926,0.235103,507.000000,437.000000,66.000000,18.000000,6.000000,4.000000:
0000
0000
0000
0000
,
0002
1000
0000
1000
,
0023
1000
0000
0130
,
2000
0001
0000
0001
,
3020
0001
0000
0130
,
0001
0100
0010
1000
,
0001
0010
0100
1000
,
0001
0100
0001
1000
0001
0010
0100
1000
,
0010
0000
0000
0000
0000
0000
0000
0000
0000
0000
0000
0000
0000
0000
0000
0000
0000
0000
0000
0000
0000
0000
0000
0000
0000
0000
0000
0000
0000
0000
0000
0000
0000
0000
0000
0000
0000
0000
0000
0000
0000
0000
0000
0000
0000
0000
0000
0000
0010
0000
0000
0000
0000
0000
0000
0000
0000
0000
0000
0000
0000
0000
0000
0000
0000
0000
0000
0000
0000
0000
0000
0000
0000
0000
0000
0000
0000
0000
0000
0000
0000
0000
0000
0000
0000
0000
0000
0000
0000
0000
0000
0000
0000
0000
0000
0000
0010
0000
0000
0000
0000
0000
0000
0000
0000
0000
0000
0000
0000
0000
0000
0000
0000
0000
0000
0000
0000
0000
0000
0000
0100
0000
0000
0000
0000
0000
0000
0000
0000
0000
0000
0000
0000
0000
0000
0000
0000
0000
0000
0000
0000
0000
0000
0000
4004
3003
0000
0000
0000
0000
0000
0000
0000
0000
0000
0000
0000
0000
0000
0000
0000
0000
0000
0000
0000
0000
0000
0000
0000
0000
0000
0000
0000
0000
0000
0000
0000
0000
0000
0000
0000
0000
0000
0000
0000
0000
0000
0000
0000
0000
0000
0000
,
1100
0000
0000
0000
0011
0000
0000
0000
1100
0000
0001
0000
0000
0100
0000
0000
,
1010
0000
0110
0000
0101
0000
1000
0001
,
0021
0000
0000
0000
0130
0000
0000
0000
0011
0000
1000
0000
0000
0010
0000
0000
,
0110
0000
0000
0000
1001
0000
0000
0000
0110
0000
0000
1000
0010
0000
0100
0000
,
0101
0000
0000
0000
1010
0000
0000
0000
0101
0000
1000
0000
0000
0100
0000
0000
,
0011
0000
0110
0000
1100
0000
0001
1000
,
1020
0000
0000
0000
0130
0000
0000
0000
1010
0000
0001
0000
0000
0010
0000
0000
,
0110
0000
0000
1000
0000
0000
0100
0000
0001
0000
0000
0000
0220
0000
0000
0000
,
0330
0000
1000
0000
0001
0000
1000
0000
0010
0000
0100
0001
0000
0100
0000
0000
,
1000
0000
0100
0000
0010
0000
0100
0000
0001
0000
0000
0011
0000
0000
0010
0000
,
0100
0000
0000
0000
1000
0000
0001
0000
0010
0000
0100
1000
0000
0100
0000
0000
,
0010
0000
0000
0001
1000
0000
0010
0000
0000
0110
0000
0000
0002
0000
1000
0000
,
0013
0001
0010
0100
1000
0001
0010
0100
,
1000
0010
0100
0001
1000
0010
0100
0001
,
1000
1000
0001
0001
0100
0100
0001
0001
,
0010
0000
0010
0000
0010
0100
1001
0000
,
1100
0000
0000
0100
0000
0000
0020
0000
1000
0000
0000
0000
0031
0000
0000
0000
,
1000
0000
0000
0010
0000
0000
0100
0000
0001
0000
0000
0000
0000
0000
0001
0000
,
1000
0000
0000
0010
0000
0000
0200
0000
1000
0000
0000
0000
0301
0000
0000
0000
,
1000
0000
0000
0100
0000
0000
0010
0000
0001
0000
0000
0000
0000
0000
0000
0000
,
0101
0000
0000
0100
0000
0000
0020
0000
0001
0000
0000
0000
1030
0000
0000
0000
,
0001
0000
0000
0010
0000
0000
0100
0000
1000
0000
0000
0000
0010
0000
1000
0000
,
0001
0000
0000
0010
0000
0000
0200
0000
0001
0000
0000
0000
1300
0000
0000
0000
,
0001
0000
0000
0000
0000
0000
0000
0000
0000
0000
0000
0000
0000
0000
0000
0000
0000
0000
0000
0000
0000
0000
0000
0000
0000
0000
0000
0000
0000
0000
0000
0000
0000
0000
0000
0000
0100
0000
0000
0000
0000
0000
0000
0000
0000
0000
0000
0000
0000
0000
0000
0000
0000
0000
0000
0000
0000
0000
0000
0000
0000
0000
0000
0000
0000
0000
0000
0000
0000
0000
0000
0000
0010
0000
0000
0000
0000
0000
0000
0000
0000
0000
0000
0000
0000
0000
0000
0000
0000
0000
0000
0000
0000
0000
0000
0000
1000
0000
0000
0000
0000
0000
0000
0000
0000
0000
0000
0000
0000
0000
0000
0000
0000
0000
0000
0000
0000
0000
0000
0000
0000
0000
0000
0000
0000
0000
0000
0000
0000
0000
0000
0000
0000
0000
0000
0000
0000
0000
0000
0000
0000
0000
0000
0000
0440
0330
0000
0000
0000
0000
0000
0000
0000
0000
0000
0000
0000
0000
0000
0000
0000
0000
0000
0000
0000
0000
0000
0000
0000
0000
0000
0000
0000
0000
0000
0000
0000
0000
0000
0000
0000
0000
0000
0000
0000
0000
0000
0000
0000
0000
0000
0000
,
1100
1001
1100
1001
,
0101
0000
0110
0000
0101
0000
0100
0010
,
1010
1001
1010
1001
,
0011
0110
0012
1003
,
1010
0000
0000
0001
0000
0000
1000
0000
1100
0000
0000
0000
0110
0000
0000
0000
,
0011
0000
0000
1000
0000
0000
0001
0000
0101
0000
0000
0000
0100
0000
0010
0000
,
1010
0000
0000
0001
0000
0000
0010
0000
0011
0000
0000
0000
1100
0000
0000
0000
,
0010
0000
0010
0000
0010
0100
1001
0000
,
0001
0100
1000
0100
0010
0100
1000
0100
,
0001
0010
1000
0010
0100
0010
1000
0010
,
0001
0100
1000
0100
0010
0100
1000
0100
,
0001
0010
1000
0010
0001
1000
1010
0000
,
1000
0100
0001
0100
0010
0100
0001
0100
,
1000
0010
0001
0010
0100
0010
0001
0010
,
1000
0100
0001
0100
0010
0100
0001
0100
,
1000
0000
0000
0000
0000
0000
0000
0000
0000
0000
0000
0000
0000
0000
0000
0000
0000
0000
0000
0000
0000
0000
0000
0000
0000
0000
0000
0000
0000
0000
0000
0000
0000
0000
0000
0000
0001
0000
0000
0000
0000
0000
0000
0000
0000
0000
0000
0000
0000
0000
0000
0000
0000
0000
0000
0000
0000
0000
0000
0000
1000
0000
0000
0000
0000
0000
0000
0000
0000
0000
0000
0000
0000
0000
0000
0000
0000
0000
0000
0000
0000
0000
0000
0000
0010
0000
0000
0000
0000
0000
0000
0000
0000
0000
0000
0000
0100
0000
0000
0000
0000
0000
0000
0000
0000
0000
0000
0000
0000
0000
0000
0000
0000
0000
0000
0000
0000
0000
0000
0000
0000
0000
0000
0000
0000
0000
0000
0000
0000
0000
0000
0000
0000
0000
0000
0000
0000
0000
0000
0000
0000
0000
0000
0000
0440
0330
0000
0000
0000
0000
0000
0000
0000
0000
0000
0000
0000
0000
0000
0000
0000
0000
0000
0000
0000
0000
0000
0000
0000
0000
0000
0000
0000
0000
0000
0000
0000
0000
0000
0000
0000
0000
0000
0000
0000
0000
0000
0000
0000
0000
0000
0000
,
0000
0001
0100
1000
0001
1000
0100
0001
,
0010
0001
0100
1000
0001
1000
0100
0001
,
0010
0100
0001
1000
0001
0100
1000
0010
,
1000
0000
0000
0001
0000
1000
0000
0000
0MM0
0000
0000
0001
0000
0000
0100
0000
,
1101
0000
0000
0000
1101
0000
0000
0000
0001
0000
0000
1000
0000
0000
0100
0000
,
1101
0000
0000
0000
1101
0000
0000
0000
4000
0004
0000
0000
0000
0000
3000
0003
,
0100
0010
0100
0001
1000
0001
0100
0010
,
1000
0000
0000
0000
0000
0000
0000
0000
0000
0000
0000
0000
0000
0000
0000
0000
0000
0000
0000
0000
0000
0000
0000
0000
0001
0000
0000
0000
0000
0000
0000
0000
0000
0000
0000
0000
0000
0000
0000
0000
0000
0000
0000
0000
0000
0000
0000
0000
1000
0000
0000
0000
0000
0000
0000
0000
0000
0000
0000
0000
0000
0000
0000
0000
0000
0000
0000
0000
0000
0000
0000
0000
0100
0000
0000
0000
0000
0000
0000
0000
0000
0000
0000
0000
0000
0000
0000
0000
0000
0000
0000
0000
0000
0000
0000
0000
0010
0000
0000
0000
0000
0000
0000
0000
0000
0000
0000
0000
0000
0000
0000
0000
0000
0000
0000
0000
0000
0000
0000
0000
0001
0000
0000
0000
0000
0000
0000
0000
0000
0000
0000
0000
0000
0000
0000
0000
0000
0000
0000
0000
0000
0000
0000
0000
4004
3003
0000
0000
0000
0000
0000
0000
0000
0000
0000
0000
0000
0000
0000
0000
0000
0000
0000
0000
0000
0000
0000
0000
0000
0000
0000
0000
0000
0000
0000
0000
0000
0000
0000
0000
0000
0000
0000
0000
0000
0000
0000
0000
0000
0000
0000
0000
,
1000
0000
0100
0000
1000
0000
1000
0000
0000
0001
0000
0100
0000
0001
0000
1000
,
0100
0010
0001
0000
0010
0100
1000
0000
,
0001
0100
01M0
1000
0001
0010
0M10
1000
,
0001
0010
0100
1000
0001
0100
0110
0000
,
0001
0000
0100
0000
0001
0000
0001
0000
0000
1000
0000
0100
0000
1000
0000
0001
,
0100
0010
1000
0000
0010
0100
0001
0000
,
1000
0010
0M10
0001
1000
0100
01M0
0001
,
0010
0000
0000
0000
0000
0000
0000
0000
0000
0000
0000
0000
0000
0000
0000
0000
0000
0000
0000
0000
0000
0000
0000
0000
0000
0000
0000
0000
0000
0000
0000
0000
0000
0000
0000
0000
0000
0000
0000
0000
0000
0000
0000
0000
0000
0000
0000
0000
0010
0000
0000
0000
0000
0000
0000
0000
0000
0000
0000
0000
0000
0000
0000
0000
0000
0000
0000
0000
0000
0000
0000
0000
0000
0000
0000
0000
0000
0000
0000
0000
0000
0000
0000
0000
0000
0000
0000
0000
0000
0000
0000
0000
0000
0000
0000
0000
0010
0000
0000
0000
0000
0000
0000
0000
0000
0000
0000
0000
0000
0000
0000
0000
0000
0000
0000
0000
0000
0000
0000
0000
0100
0000
0000
0000
0000
0000
0000
0000
0000
0000
0000
0000
0000
0000
0000
0000
0000
0000
0000
0000
0000
0000
0000
0000
4004
3003
0000
0000
0000
0000
0000
0000
0000
0000
0000
0000
0000
0000
0000
0000
0000
0000
0000
0000
0000
0000
0000
0000
0000
0000
0000
0000
0000
0000
0000
0000
0000
0000
0000
0000
0000
0000
0000
0000
0000
0000
0000
0000
0000
0000
0000
0000
,
1000
0000
0001
0100
0000
0000
0100
0010
0000
0000
0010
1000
0000
0000
1000
0000
,
0001
0000
0010
0100
0000
0000
0100
1000
0000
0000
1000
0001
0000
0000
0001
0000
,
0100
0000
0010
1000
0000
0000
1000
0001
0000
0000
0001
0010
0000
0000
0100
0000
,
0110
0000
0000
1000
0000
0000
0100
0000
0001
0000
0000
0000
0220
0000
0330
0000
,
0001
0000
1000
0100
0000
0000
0001
0100
0000
0000
1000
0100
0000
0000
0001
0000
,
1001
0000
1000
0010
0000
0000
0001
0010
0000
0000
1000
0010
0000
0000
0001
0000
,
1001
0000
1000
0100
0000
0000
0010
0000
0100
0000
0010
0001
0000
0000
1000
0000
,
0010
0000
0000
0000
0000
0000
0000
0000
0000
0000
0000
0000
0000
0000
0000
0000
0000
0000
0000
0000
0000
0000
0000
0000
0000
0000
0000
0000
0000
0000
0000
0000
0000
0000
0000
0000
0000
0000
0000
0000
0000
0000
0000
0000
0000
0000
0000
0000
0010
0000
0000
0000
0000
0000
0000
0000
0000
0000
0000
0000
0000
0000
0000
0000
0000
0000
0000
0000
0000
0000
0000
0000
0000
0000
0000
0000
0000
0000
0000
0000
0000
0000
0000
0000
0000
0000
0000
0000
0000
0000
0000
0000
0000
0000
0000
0000
0010
0000
0000
0000
0000
0000
0000
0000
0000
0000
0000
0000
0000
0000
0000
0000
0000
0000
0000
0000
0000
0000
0000
0000
0100
0000
0000
0000
0000
0000
0000
0000
0000
0000
0000
0000
0000
0000
0000
0000
0000
0000
0000
0000
0000
0000
0000
0000
4004
3003
0000
0000
0000
0000
0000
0000
0000
0000
0000
0000
0000
0000
0000
0000
0000
0000
0000
0000
0000
0000
0000
0000
0000
0000
0000
0000
0000
0000
0000
0000
0000
0000
0000
0000
0000
0000
0000
0000
0000
0000
0000
0000
0000
0000
0000
0000
,
0220
0000
0000
0000
,
0330
0000
0000
0000
;

//---------------dance-single - ----------------
#NOTES:
     dance-single:
     :
     Hard:
     9:
     0.656668,0.749899,0.356709,0.186461,0.474260,567.000000,521.000000,44.000000,23.000000,18.000000,3.000000,0.656668,0.749899,0.356709,0.186461,0.474260,567.000000,521.000000,44.000000,23.000000,18.000000,3.000000:
0000
0000
0000
0000
,
0002
1000
0100
1000
,
0023
1000
0100
0031
,
2000
0001
0100
0001
,
3020
0001
0100
1030
,
0001
0100
0001
1000
0001
0010
0001
1000
,
0010
0100
0010
0001
0010
0100
0010
1000
,
0001
0010
0100
0010
1000
0010
0001
1000
,
0010
0000
0000
0000
0000
0000
0000
0000
0000
0000
0000
0000
0000
0000
0000
0000
0000
0000
0000
0000
0000
0000
0000
0000
0000
0000
0000
0000
0000
0000
0000
0000
0000
0000
0000
0000
0000
0000
0000
0000
0000
0000
0000
0000
0000
0000
0000
0000
0010
0000
0000
0000
0000
0000
0000
0000
0000
0000
0000
0000
0000
0000
0000
0000
0000
0000
0000
0000
0000
0000
0000
0000
0000
0000
0000
0000
0000
0000
0000
0000
0000
0000
0000
0000
0000
0000
0000
0000
0000
0000
0000
0000
0000
0000
0000
0000
0010
0000
0000
0000
0000
0000
0000
0000
0000
0000
0000
0000
0000
0000
0000
0000
0000
0000
0000
0000
0000
0000
0000
0000
0100
0000
0000
0000
0000
0000
0000
0000
0000
0000
0000
0000
0000
0000
0000
0000
0000
0000
0000
0000
0000
0000
0000
0000
4004
3003
0000
0000
0000
0000
0000
0000
0000
0000
0000
0000
0000
0000
0000
0000
0000
0000
0000
0000
0000
0000
0000
0000
0000
0000
0000
0000
0000
0000
0000
0000
0000
0000
0000
0000
0000
0000
0000
0000
0000
0000
0000
0000
0000
0000
0000
0000
,
0001
0000
0100
0000
0001
0000
0001
0000
0000
1000
0000
0100
0000
1000
0000
0001
,
0100
0010
1000
0000
0010
0100
0001
0000
,
1000
0100
01M0
0001
1000
0010
0M10
0004
,
1003
0100
0010
0001
1000
0010
0120
0000
,
1030
0000
0100
0000
1000
0000
1000
0000
0000
0001
0000
0100
0000
0001
0000
1000
,
0100
0010
0001
0000
0010
0100
1000
0000
,
0001
0010
0M10
1000
0001
0100
01M0
4000
,
3010
0000
0000
0000
0000
0000
0000
0000
0000
0000
0000
0000
0000
0000
0000
0000
0000
0000
0000
0000
0000
0000
0000
0000
0000
0000
0000
0000
0000
0000
0000
0000
0000
0000
0000
0000
0100
0000
0000
0000
0000
0000
0000
0000
0000
0000
0000
0000
0000
0000
0000
0000
0000
0000
0000
0000
0000
0000
0000
0000
0000
0000
0000
0000
0000
0000
0000
0000
0000
0000
0000
0000
0001
0000
0000
0000
0000
0000
0000
0000
0000
0000
0000
0000
0000
0000
0000
0000
0000
0000
0000
0000
0000
0000
0000
0000
1000
0000
0000
0000
0000
0000
0000
0000
0000
0000
0000
0000
0000
0000
0000
0000
0000
0000
0000
0000
0000
0000
0000
0000
0000
0000
0000
0000
0000
0000
0000
0000
0000
0000
0000
0000
0000
0000
0000
0000
0000
0000
0000
0000
0000
0000
0000
0000
4004
3003
0000
0000
0000
0000
0000
0000
0000
0000
0000
0000
0000
0000
0000
0000
0000
0000
0000
0000
0000
0000
0000
0000
0000
0000
0000
0000
0000
0000
0000
0000
0000
0000
0000
0000
0000
0000
0000
0000
0000
0000
0000
0000
0000
0000
0000
0000
,
0000
0001
1000
0001
1000
0000
0100
0000
0010
0000
0000
0001
0000
0010
0000
0100
,
1000
0000
0001
0100
0001
0000
1000
0010
1000
0000
0001
0000
0010
0000
0000
0000
,
0100
1000
100M
0010
0001
0010
0M10
1000
,
0100
1000
100M
0010
0001
0010
0220
0330
,
1000
0001
1000
0000
0100
0000
1000
0000
0000
0001
0000
0100
0000
0010
0000
0100
,
0001
0000
1000
0100
1000
0000
0001
0010
0001
0000
1000
0000
0010
0000
0000
0000
,
0100
0001
M001
0010
1000
0010
0M10
0001
,
0100
0000
0100
0000
0100
0010
1001
0000
,
0001
0100
0001
0100
0020
0000
0000
0000
1000
0000
0000
0000
0130
0000
0010
0000
,
2000
0000
0000
0000
0001
0000
0000
0000
3100
0000
1000
0000
0001
0010
0001
0010
,
0200
0000
0010
0000
1000
0000
0310
0001
,
2000
0000
0010
0000
3001
1000
0010
0000
,
1000
0100
1000
0100
0020
0000
0000
0000
0100
0000
0000
0000
0031
0000
1000
0000
,
0002
0000
0000
0000
1000
0000
0000
0000
0103
0000
0001
0000
1000
0010
1000
0010
,
0200
0000
0001
0000
0010
0000
1300
0100
,
0001
0000
0000
0000
0000
0000
0000
0000
0000
0000
0000
0000
0000
0000
0000
0000
0000
0000
0000
0000
0000
0000
0000
0000
0000
0000
0000
0000
0000
0000
0000
0000
0000
0000
0000
0000
0010
0000
0000
0000
0000
0000
0000
0000
0000
0000
0000
0000
0000
0000
0000
0000
0000
0000
0000
0000
0000
0000
0000
0000
0000
0000
0000
0000
0000
0000
0000
0000
0000
0000
0000
0000
0100
0000
0000
0000
0000
0000
0000
0000
0000
0000
0000
0000
0000
0000
0000
0000
0000
0000
0000
0000
0000
0000
0000
0000
1000
0000
0000
0000
0000
0000
0000
0000
0000
0000
0000
0000
0000
0000
0000
0000
0000
0000
0000
0000
0000
0000
0000
0000
0000
0000
0000
0000
0000
0000
0000
0000
0000
0000
0000
0000
0000
0000
0000
0000
0000
0000
0000
0000
0000
0000
0000
0000
4004
3003
0000
0000
0000
0000
0000
0000
0000
0000
0000
0000
0000
0000
0000
0000
0000
0000
0000
0000
0000
0000
0000
0000
0000
0000
0000
0000
0000
0000
0000
0000
0000
0000
0000
0000
0000
0000
0000
0000
0000
0000
0000
0000
0000
0000
0000
0000
,
1010
0101
1010
1001
,
1100
0000
0011
0000
1100
0000
1000
0001
,
0101
1010
0101
1001
,
0011
1100
0021
0130
,
1100
0000
0000
0110
0000
0000
0001
0000
0011
0000
0000
0000
1001
0000
0000
0000
,
1010
0000
0000
0110
0000
0000
0001
0000
0101
0000
0000
0000
1000
0000
0001
0000
,
0011
0000
0000
0110
0000
0000
1000
0000
1010
0000
0000
0000
0101
0000
0000
0000
,
0000
0000
0001
1000
0100
0010
1001
0000
,
1000
0000
0100
0000
0001
0000
0100
0000
1000
0000
0001
0010
0000
0100
0000
1000
,
0001
0000
0010
0000
1000
0000
0010
0000
0001
0000
1000
0100
0000
1000
0000
0001
,
0010
0000
0100
0000
0001
0000
0100
0000
1000
0000
0001
0100
0000
0001
0000
0100
,
0010
0000
1000
0100
0000
1000
0000
0100
0010
0000
0001
0000
0101
0000
0000
0000
,
1000
0000
0010
0000
0001
0000
0010
0000
1000
0000
0001
0100
0000
0010
0000
1000
,
0001
0000
0100
0000
1000
0000
0100
0000
0001
0000
1000
0010
0000
1000
0000
0001
,
0100
0000
0010
0000
0001
0000
0010
0000
1000
0000
0001
0010
0000
0001
0000
0010
,
0100
0000
0000
0000
0000
0000
0000
0000
0000
0000
0000
0000
0000
0000
0000
0000
0000
0000
0000
0000
0000
0000
0000
0000
0000
0000
0000
0000
0000
0000
0000
0000
0000
0000
0000
0000
1000
0000
0000
0000
0000
0000
0000
0000
0000
0000
0000
0000
0000
0000
0000
0000
0000
0000
0000
0000
0000
0000
0000
0000
0001
0000
0000
0000
0000
0000
0000
0000
0000
0000
0000
0000
0000
0000
0000
0000
0000
0000
0000
0000
0000
0000
0000
0000
1000
0000
0000
0000
0000
0000
0000
0000
0000
0000
0000
0000
0010
0000
0000
0000
0000
0000
0000
0000
0000
0000
0000
0000
0000
0000
0000
0000
0000
0000
0000
0000
0000
0000
0000
0000
0000
0000
0000
0000
0000
0000
0000
0000
0000
0000
0000
0000
0000
0000
0000
0000
0000
0000
0000
0000
0000
0000
0000
0000
0440
0330
0000
0000
0000
0000
0000
0000
0000
0000
0000
0000
0000
0000
0000
0000
0000
0000
0000
0000
0000
0000
0000
0000
0000
0000
0000
0000
0000
0000
0000
0000
0000
0000
0000
0000
0000
0000
0000
0000
0000
0000
0000
0000
0000
0000
0000
0000
,
0000
0000
0001
0000
0010
0000
1000
0000
0001
0000
0100
0010
0000
0100
0000
1000
,
0001
0000
1000
0000
0100
0000
0001
0000
1000
0000
0010
0100
0000
0010
0000
0001
,
1000
0000
0010
0000
0001
0000
1000
0000
0100
0000
0010
0100
0000
0001
0000
1000
,
0100
0000
0000
0010
0000
0001
0000
1000
0M10
0000
0000
0100
0000
0000
0001
0000
,
1101
0000
0000
0000
1011
0000
0000
0000
1100
0000
0000
0001
0000
0000
2000
0000
,
3101
0000
0000
0000
1010
0000
0000
0000
0001
1000
0100
1000
0001
1000
0100
0010
,
0001
1000
0100
1000
0001
1000
0010
0100
,
0001
0000
0000
0000
0000
0000
0000
0000
0000
0000
0000
0000
1000
0000
0000
0000
0000
0000
0000
0000
0000
0000
0000
0000
0001
0000
0000
0000
0000
0000
0000
0000
0000
0000
0000
0000
1000
0000
0000
0000
0000
0000
0000
0000
0000
0000
0000
0000
0001
0000
0000
0000
0000
0000
0000
0000
0000
0000
0000
0000
1000
0000
0000
0000
0000
0000
0000
0000
0000
0000
0000
0000
0001
0000
0000
0000
0000
0000
0000
0000
0000
0000
0000
0000
1000
0000
0000
0000
0000
0000
0000
0000
0000
0000
0000
0000
0001
0000
0000
0000
0000
0000
0000
0000
0000
0000
0000
0000
1000
0000
0000
0000
0000
0000
0000
0000
0000
0000
0000
0000
0001
0000
0000
0000
0000
0000
0000
0000
0000
0000
0000
0000
1000
0000
0000
0000
0000
0000
0000
0000
0000
0000
0000
0000
0040
0030
0000
0000
0000
0000
0000
0000
0000
0000
0000
0000
0000
0000
0000
0000
0000
0000
0000
0000
0000
0000
0000
0000
0000
0000
0000
0000
0000
0000
0000
0000
0000
0000
0000
0000
0000
0000
0000
0000
0000
0000
0000
0000
0000
0000
0000
0000
,
0100
0000
0001
0000
1000
0100
1000
0100
0000
0010
0000
0001
0000
1000
0000
0001
,
0100
0000
01M0
1000
0100
0000
01M0
0001
0100
0000
0010
0000
1000
0000
0000
0000
,
0001
0010
001M
1000
0001
0100
010M
1000
,
0001
0010
0100
0001
0100
1000
2001
0000
,
3010
0000
1000
0000
0001
0100
0001
0100
0000
0010
0000
1000
0000
0001
0000
1000
,
0100
0000
01M0
0001
0100
0000
01M0
1000
0100
0000
0010
0000
0001
0000
0000
0000
,
1000
0100
M100
0001
1000
0010
M010
0001
,
0100
0000
0000
0000
0000
0000
0000
0000
0000
0000
0000
0000
0000
0000
0000
0000
0000
0000
0000
0000
0000
0000
0000
0000
0000
0000
0000
0000
0000
0000
0000
0000
0000
0000
0000
0000
0000
0000
0000
0000
0000
0000
0000
0000
0000
0000
0000
0000
0100
0000
0000
0000
0000
0000
0000
0000
0000
0000
0000
0000
0000
0000
0000
0000
0000
0000
0000
0000
0000
0000
0000
0000
0000
0000
0000
0000
0000
0000
0000
0000
0000
0000
0000
0000
0000
0000
0000
0000
0000
0000
0000
0000
0000
0000
0000
0000
0100
0000
0000
0000
0000
0000
0000
0000
0000
0000
0000
0000
0000
0000
0000
0000
0000
0000
0000
0000
0000
0000
0000
0000
0010
0000
0000
0000
0000
0000
0000
0000
0000
0000
0000
0000
0000
0000
0000
0000
0000
0000
0000
0000
0000
0000
0000
0000
4004
3003
0000
0000
0000
0000
0000
0000
0000
0000
0000
0000
0000
0000
0000
0000
0000
0000
0000
0000
0000
0000
0000
0000
0000
0000
0000
0000
0000
0000
0000
0000
0000
0000
0000
0000
0000
0000
0000
0000
0000
0000
0000
0000
0000
0000
0000
0000
,
0001
1000
0001
1000
0200
0000
0010
0000
1000
0000
0000
0000
0310
0000
0001
0000
,
2000
0000
0000
0001
0000
0000
0010
0000
3001
0000
1000
0000
0010
1000
0010
0100
,
0002
0000
0000
0100
0000
0000
1000
0000
0013
0000
0000
0000
0001
0000
0010
0000
,
0200
0000
0000
0001
0000
0000
0010
0000
1300
0000
0000
0000
1001
0000
0000
0000
,
0001
0000
1000
0100
0000
0000
0001
0100
0000
0000
1000
0100
0000
0000
0001
0100
,
0010
0000
1000
0010
0000
0000
0001
0010
0000
0000
1000
0010
0000
0000
0001
0010
,
0100
0000
1000
0100
0000
0000
0010
0100
1000
0000
0001
0100
0001
0000
0100
0000
,
0010
0000
0000
0000
0000
0000
0000
0000
0000
0000
0000
0000
0000
0000
0000
0000
0000
0000
0000
0000
0000
0000
0000
0000
0000
0000
0000
0000
0000
0000
0000
0000
0000
0000
0000
0000
0000
0000
0000
0000
0000
0000
0000
0000
0000
0000
0000
0000
0010
0000
0000
0000
0000
0000
0000
0000
0000
0000
0000
0000
0000
0000
0000
0000
0000
0000
0000
0000
0000
0000
0000
0000
0000
0000
0000
0000
0000
0000
0000
0000
0000
0000
0000
0000
0000
0000
0000
0000
0000
0000
0000
0000
0000
0000
0000
0000
0010
0000
0000
0000
0000
0000
0000
0000
0000
0000
0000
0000
0000
0000
0000
0000
0000
0000
0000
0000
0000
0000
0000
0000
0100
0000
0000
0000
0000
0000
0000
0000
0000
0000
0000
0000
0000
0000
0000
0000
0000
0000
0000
0000
0000
0000
0000
0000
4004
3003
0000
0000
0000
0000
0000
0000
0000
0000
0000
0000
0000
0000
0000
0000
0000
0000
0000
0000
0000
0000
0000
0000
0000
0000
0000
0000
0000
0000
0000
0000
0000
0000
0000
0000
0000
0000
0000
0000
0000
0000
0000
0000
0000
0000
0000
0000
,
0220
0000
0000
0000
,
0330
0000
0000
0000
;

//---------------dance-single - ----------------
#NOTES:
     dance-single:
     :
     Easy:
     7:
     0.473681,0.749899,0.218889,0.056749,0.068910,409.000000,370.000000,27.000000,7.000000,3.000000,6.000000,0.473681,0.749899,0.218889,0.056749,0.068910,409.000000,370.000000,27.000000,7.000000,3.000000,6.000000:
0000
0000
0000
0000
,
1000
0001
1000
0001
,
1000
0001
1000
0001
,
0010
0100
0010
0100
,
0010
0100
0010
0010
,
0001
1000
0001
1000
,
0001
1000
0001
1000
,
0010
0100
0010
0100
,
0010
0000
0010
0000
0010
0100
1001
0000
,
0001
0100
0001
0000
1000
0100
1000
0000
,
0001
0010
0100
1000
0100
0010
0001
0000
,
1000
0010
1000
0000
0001
0010
0001
0000
,
1000
0010
0100
0001
0000
1000
2000
3000
,
0001
0010
0001
0000
1000
0010
1000
0000
,
0001
0100
0010
1000
0010
0100
0001
0000
,
1000
0100
1000
0000
0001
0100
0001
0000
,
1000
0000
0000
0000
0000
0000
0000
0000
0000
0000
0000
0000
0000
0000
0000
0000
0000
0000
0000
0000
0000
0000
0000
0000
0000
0000
0000
0000
0000
0000
0000
0000
0000
0000
0000
0000
0100
0000
0000
0000
0000
0000
0000
0000
0000
0000
0000
0000
0000
0000
0000
0000
0000
0000
0000
0000
0000
0000
0000
0000
0000
0000
0000
0000
0000
0000
0000
0000
0000
0000
0000
0000
0010
0000
0000
0000
0000
0000
0000
0000
0000
0000
0000
0000
0000
0000
0000
0000
0000
0000
0000
0000
0000
0000
0000
0000
0001
0000
0000
0000
0000
0000
0000
0000
0000
0000
0000
0000
0000
0000
0000
0000
0000
0000
0000
0000
0000
0000
0000
0000
0000
0000
0000
0000
0000
0000
0000
0000
0000
0000
0000
0000
0000
0000
0000
0000
0000
0000
0000
0000
0000
0000
0000
0000
4004
3003
0000
0000
0000
0000
0000
0000
0000
0000
0000
0000
0000
0000
0000
0000
0000
0000
0000
0000
0000
0000
0000
0000
0000
0000
0000
0000
0000
0000
0000
0000
0000
0000
0000
0000
0000
0000
0000
0000
0000
0000
0000
0000
0000
0000
0000
0000
,
0000
0001
0010
0000
0001
1000
0010
0000
,
1000
0001
0010
1000
0010
0001
1000
0000
,
0000
1000
0010
0000
1000
0001
0010
0000
,
0001
1000
0010
0100
1000
0100
0002
0003
,
1000
1000
0100
1000
0100
0100
0010
0000
,
0001
0001
0100
0001
0100
0100
0010
0000
,
1000
1000
0001
0001
1000
1000
0100
0100
,
0010
0000
0010
0000
0010
0100
1001
0000
,
0001
0000
0000
0100
0000
0000
0010
0000
1000
0000
0000
0000
0001
0000
0000
0000
,
1000
0000
0000
0100
0000
0000
0010
0000
0001
0000
0000
0000
0000
0000
0001
0000
,
1000
0000
0000
0010
0000
0000
0100
0000
0010
0000
0000
0000
1000
0000
0000
0000
,
0001
0000
0000
0010
0000
0000
0100
0000
0020
0000
0000
0000
0030
0000
0000
0000
,
0001
0000
0000
0100
0000
0000
0001
0000
1000
0000
0000
0000
0010
0000
0000
0000
,
1000
0000
0000
0100
0000
0000
1000
0000
0001
0000
0000
0000
0000
0000
0001
0000
,
0010
0000
0000
0001
0000
0000
1000
0000
0010
0000
0000
0000
0100
0000
0000
0000
,
0010
0000
0000
0000
0000
0000
0000
0000
0000
0000
0000
0000
0000
0000
0000
0000
0000
0000
0000
0000
0000
0000
0000
0000
0000
0000
0000
0000
0000
0000
0000
0000
0000
0000
0000
0000
1000
0000
0000
0000
0000
0000
0000
0000
0000
0000
0000
0000
0000
0000
0000
0000
0000
0000
0000
0000
0000
0000
0000
0000
0000
0000
0000
0000
0000
0000
0000
0000
0000
0000
0000
0000
0001
0000
0000
0000
0000
0000
0000
0000
0000
0000
0000
0000
0000
0000
0000
0000
0000
0000
0000
0000
0000
0000
0000
0000
0010
0000
0000
0000
0000
0000
0000
0000
0000
0000
0000
0000
0000
0000
0000
0000
0000
0000
0000
0000
0000
0000
0000
0000
0000
0000
0000
0000
0000
0000
0000
0000
0000
0000
0000
0000
0000
0000
0000
0000
0000
0000
0000
0000
0000
0000
0000
0000
0440
0330
0000
0000
0000
0000
0000
0000
0000
0000
0000
0000
0000
0000
0000
0000
0000
0000
0000
0000
0000
0000
0000
0000
0000
0000
0000
0000
0000
0000
0000
0000
0000
0000
0000
0000
0000
0000
0000
0000
0000
0000
0000
0000
0000
0000
0000
0000
,
1100
1000
1001
1000
,
1010
1000
1001
1000
,
0101
0001
1001
0001
,
0011
0001
1002
0103
,
0010
0000
0000
1000
0000
0000
0010
0000
0100
0000
0000
0000
0001
0000
0000
0000
,
0010
0000
0000
0001
0000
0000
0010
0000
0100
0000
0000
0000
1000
0000
0001
0000
,
1000
0000
0000
0100
0000
0000
0010
0000
0001
0000
0000
0000
0100
0000
0000
0000
,
0010
0000
0010
0000
0010
0100
1001
0000
,
1000
1000
0001
0001
,
1000
0000
1000
0000
0010
0000
0010
0100
,
0001
0001
1000
1000
,
0001
0000
0001
0000
1000
0100
0010
0000
,
0001
0001
1000
1000
,
0001
0000
0001
0000
0100
0000
0100
0010
,
1000
1000
0001
0001
,
1000
0000
0000
0000
0000
0000
0000
0000
0000
0000
0000
0000
0000
0000
0000
0000
0000
0000
0000
0000
0000
0000
0000
0000
0000
0000
0000
0000
0000
0000
0000
0000
0000
0000
0000
0000
0100
0000
0000
0000
0000
0000
0000
0000
0000
0000
0000
0000
0000
0000
0000
0000
0000
0000
0000
0000
0000
0000
0000
0000
0000
0000
0000
0000
0000
0000
0000
0000
0000
0000
0000
0000
0010
0000
0000
0000
0000
0000
0000
0000
0000
0000
0000
0000
0000
0000
0000
0000
0000
0000
0000
0000
0000
0000
0000
0000
0001
0000
0000
0000
0000
0000
0000
0000
0000
0000
0000
0000
0000
0000
0000
0000
0000
0000
0000
0000
0000
0000
0000
0000
0000
0000
0000
0000
0000
0000
0000
0000
0000
0000
0000
0000
0000
0000
0000
0000
0000
0000
0000
0000
0000
0000
0000
0000
4004
3003
0000
0000
0000
0000
0000
0000
0000
0000
0000
0000
0000
0000
0000
0000
0000
0000
0000
0000
0000
0000
0000
0000
0000
0000
0000
0000
0000
0000
0000
0000
0000
0000
0000
0000
0000
0000
0000
0000
0000
0000
0000
0000
0000
0000
0000
0000
,
0000
1000
0000
1000
0000
0001
0000
0001
,
0000
1000
0000
1000
0010
0100
0010
1000
,
0000
0001
0000
0001
0000
1000
0000
1000
,
0000
0001
0010
0001
1000
0000
0000
0000
,
1111
1111
1111
0000
,
1111
1111
1111
0000
,
1000
0001
1000
0100
1000
0001
1000
0100
,
0010
0000
0000
0000
0000
0000
0000
0000
0000
0000
0000
0000
0000
0000
0000
0000
0000
0000
0000
0000
0000
0000
0000
0000
0000
0000
0000
0000
0000
0000
0000
0000
0000
0000
0000
0000
0000
0000
0000
0000
0000
0000
0000
0000
0000
0000
0000
0000
0010
0000
0000
0000
0000
0000
0000
0000
0000
0000
0000
0000
0000
0000
0000
0000
0000
0000
0000
0000
0000
0000
0000
0000
0000
0000
0000
0000
0000
0000
0000
0000
0000
0000
0000
0000
0000
0000
0000
0000
0000
0000
0000
0000
0000
0000
0000
0000
0010
0000
0000
0000
0000
0000
0000
0000
0000
0000
0000
0000
0000
0000
0000
0000
0000
0000
0000
0000
0000
0000
0000
0000
0100
0000
0000
0000
0000
0000
0000
0000
0000
0000
0000
0000
0000
0000
0000
0000
0000
0000
0000
0000
0000
0000
0000
0000
4004
3003
0000
0000
0000
0000
0000
0000
0000
0000
0000
0000
0000
0000
0000
0000
0000
0000
0000
0000
0000
0000
0000
0000
0000
0000
0000
0000
0000
0000
0000
0000
0000
0000
0000
0000
0000
0000
0000
0000
0000
0000
0000
0000
0000
0000
0000
0000
,
0001
0100
0001
0000
1000
0100
1000
0000
,
0001
0000
0100
0000
01M0
1000
0001
0000
,
0010
0001
0010
0000
0100
0010
0100
0100
,
1000
0000
0100
0000
01M0
0001
2000
0000
,
3001
0010
0001
0000
1000
0010
1000
0000
,
0001
0000
0010
0000
0M10
1000
0001
0000
,
0100
0001
0100
0000
0010
0100
0001
1000
,
0100
0000
0000
0000
0000
0000
0000
0000
0000
0000
0000
0000
0000
0000
0000
0000
0000
0000
0000
0000
0000
0000
0000
0000
0000
0000
0000
0000
0000
0000
0000
0000
0000
0000
0000
0000
0000
0000
0000
0000
0000
0000
0000
0000
0000
0000
0000
0000
0100
0000
0000
0000
0000
0000
0000
0000
0000
0000
0000
0000
0000
0000
0000
0000
0000
0000
0000
0000
0000
0000
0000
0000
0000
0000
0000
0000
0000
0000
0000
0000
0000
0000
0000
0000
0000
0000
0000
0000
0000
0000
0000
0000
0000
0000
0000
0000
0100
0000
0000
0000
0000
0000
0000
0000
0000
0000
0000
0000
0000
0000
0000
0000
0000
0000
0000
0000
0000
0000
0000
0000
0010
0000
0000
0000
0000
0000
0000
0000
0000
0000
0000
0000
0000
0000
0000
0000
0000
0000
0000
0000
0000
0000
0000
0000
4004
3003
0000
0000
0000
0000
0000
0000
0000
0000
0000
0000
0000
0000
0000
0000
0000
0000
0000
0000
0000
0000
0000
0000
0000
0000
0000
0000
0000
0000
0000
0000
0000
0000
0000
0000
0000
0000
0000
0000
0000
0000
0000
0000
0000
0000
0000
0000
,
0001
0000
0000
0100
0000
0000
0010
0000
1000
0000
0000
0000
0001
0000
0000
0000
,
1000
0000
0000
0100
0000
0000
0010
0000
0100
0000
0000
0000
0010
0000
0001
0000
,
1000
0000
0000
0100
0000
0000
0010
0000
0001
0000
0000
0000
1000
0000
0000
0000
,
0001
0000
0000
0100
0000
0000
0010
0000
1000
0000
0000
0000
1001
0000
0000
0000
,
0001
1000
0000
0100
0000
1000
0000
0100
,
0010
0001
0000
1000
0000
0001
0000
0100
,
0110
0000
0000
0010
1010
0000
1000
0001
,
0010
0000
0000
0000
0000
0000
0000
0000
0000
0000
0000
0000
0000
0000
0000
0000
0000
0000
0000
0000
0000
0000
0000
0000
0000
0000
0000
0000
0000
0000
0000
0000
0000
0000
0000
0000
0000
0000
0000
0000
0000
0000
0000
0000
0000
0000
0000
0000
0010
0000
0000
0000
0000
0000
0000
0000
0000
0000
0000
0000
0000
0000
0000
0000
0000
0000
0000
0000
0000
0000
0000
0000
0000
0000
0000
0000
0000
0000
0000
0000
0000
0000
0000
0000
0000
0000
0000
0000
0000
0000
0000
0000
0000
0000
0000
0000
0010
0000
0000
0000
0000
0000
0000
0000
0000
0000
0000
0000
0000
0000
0000
0000
0000
0000
0000
0000
0000
0000
0000
0000
0100
0000
0000
0000
0000
0000
0000
0000
0000
0000
0000
0000
0000
0000
0000
0000
0000
0000
0000
0000
0000
0000
0000
0000
4004
3003
0000
0000
0000
0000
0000
0000
0000
0000
0000
0000
0000
0000
0000
0000
0000
0000
0000
0000
0000
0000
0000
0000
0000
0000
0000
0000
0000
0000
0000
0000
0000
0000
0000
0000
0000
0000
0000
0000
0000
0000
0000
0000
0000
0000
0000
0000
,
0220
0000
0000
0000
,
0330
0000
0000
0000
;

//---------------dance-single - ----------------
#NOTES:
     dance-single:
     :
     Beginner:
     2:
     0.141294,0.269964,0.072963,0.081070,0.000000,122.000000,113.000000,9.000000,10.000000,0.000000,0.000000,0.141294,0.269964,0.072963,0.081070,0.000000,122.000000,113.000000,9.000000,10.000000,0.000000,0.000000:
// measure 0
0000
0000
0000
0000
,  // measure 1
2002
0000
0000
0000
,  // measure 2
0000
0000
0000
3003
,  // measure 3
0220
0000
0000
0000
,  // measure 4
0000
0000
0000
0330
,  // measure 5
2002
0000
0000
0000
,  // measure 6
0000
0000
0000
3003
,  // measure 7
0220
0000
0000
0000
,  // measure 8
0330
0000
0000
0000
,  // measure 9
1000
0000
1000
0000
,  // measure 10
0001
0000
0001
0000
,  // measure 11
0100
0000
0100
0000
,  // measure 12
0010
0000
0000
0000
,  // measure 13
0001
0000
0001
0000
,  // measure 14
1000
0000
1000
0000
,  // measure 15
0100
0000
0100
0000
,  // measure 16
0010
0000
0000
0000
,  // measure 17
1000
0000
1000
0000
,  // measure 18
0001
0000
0001
0000
,  // measure 19
0100
0000
0100
0000
,  // measure 20
0010
0000
0000
0000
,  // measure 21
0001
0000
1000
0000
,  // measure 22
0001
0000
1000
0000
,  // measure 23
0100
0000
0010
0000
,  // measure 24
0100
0000
0000
0000
,  // measure 25
0001
0000
0000
0000
,  // measure 26
1000
0000
0000
0000
,  // measure 27
0010
0000
0000
0000
,  // measure 28
0100
0000
0000
0000
,  // measure 29
1000
0000
0000
0000
,  // measure 30
0001
0000
0000
0000
,  // measure 31
0010
0000
0000
0000
,  // measure 32
0100
0000
0000
0000
,  // measure 33
1000
0000
0000
0000
,  // measure 34
1000
0000
0000
0000
,  // measure 35
0001
0000
0000
0000
,  // measure 36
0001
0000
0000
0000
,  // measure 37
1000
0000
0000
0000
,  // measure 38
0001
0000
0000
0000
,  // measure 39
1000
0000
0000
0000
,  // measure 40
0001
0000
0000
0000
,  // measure 41
0100
0100
0100
0000
,  // measure 42
0100
0100
0100
0000
,  // measure 43
0100
0100
0100
0000
,  // measure 44
0100
0100
0100
0000
,  // measure 45
0010
0010
0010
0000
,  // measure 46
0010
0010
0010
0000
,  // measure 47
0010
0010
0010
0000
,  // measure 48
0010
0010
0010
0000
,  // measure 49
0000
1000
0000
1000
,  // measure 50
0000
0001
0000
0001
,  // measure 51
0000
1000
0000
1000
,  // measure 52
0000
0001
0000
0000
,  // measure 53
1001
0000
1001
0000
,  // measure 54
1001
0000
1001
0000
,  // measure 55
0100
0000
0000
0000
,  // measure 56
0000
0000
0000
0000
,  // measure 57
0001
0000
1000
0000
,  // measure 58
0001
0000
1000
0000
,  // measure 59
0010
0000
0100
0000
,  // measure 60
0010
0000
0000
0000
,  // measure 61
1000
0000
0001
0000
,  // measure 62
1000
0000
0001
0000
,  // measure 63
0010
0000
0100
0000
,  // measure 64
0010
0000
0000
0000
,  // measure 65
0001
0000
0100
0000
,  // measure 66
0010
0000
1000
0000
,  // measure 67
0001
0000
0100
0000
,  // measure 68
0010
0000
0000
0000
,  // measure 69
1000
0000
0100
0000
,  // measure 70
0010
0000
0001
0000
,  // measure 71
1000
0000
0001
0000
,  // measure 72
0100
0000
0000
0000
,  // measure 73
0220
0000
0000
0000
,  // measure 74
0330
0000
0000
0000
;
